osu file format v13

[General]
AudioFilename: Rainbowdragoneyes - -.mp3
AudioLeadIn: 0
PreviewTime: 92991
Countdown: 0
SampleSet: Soft
StackLeniency: 0.7
Mode: 1
LetterboxInBreaks: 0
WidescreenStoryboard: 1

[Editor]
DistanceSpacing: 0.8
BeatDivisor: 6
GridSize: 8
TimelineZoom: 1

[Metadata]
Title:Seize My Day
TitleUnicode:Seize My Day
Artist:Rainbowdragoneyes
ArtistUnicode:Rainbowdragoneyes
Creator:Mew104
Version:Inner Oni
Source:
Tags:rainbow dragon eyes uentitled mew 104 taiko 8 bit 8-bit gameboy chiptune retro
BeatmapID:523136
BeatmapSetID:224043

[Difficulty]
HPDrainRate:4
CircleSize:4
OverallDifficulty:6
ApproachRate:7
SliderMultiplier:1.4
SliderTickRate:1

[Events]
//Background and Video events
0,0,"old_game_8-bit_textures_hd-wallpaper-157419.jpg",0,0
//Break Periods
//Storyboard Layer 0 (Background)
//Storyboard Layer 1 (Fail)
//Storyboard Layer 2 (Pass)
//Storyboard Layer 3 (Foreground)
//Storyboard Sound Samples

[TimingPoints]
81,375,4,2,0,50,1,0
22534,-100,4,1,0,50,0,0
25956,-90.9090909090909,4,1,0,70,0,0
26987,-90.9090909090909,4,1,0,90,0,0
63081,-90.9090909090909,4,1,0,90,0,1
75081,-90.9090909090909,4,1,0,90,0,0
87081,-90.9090909090909,4,1,0,90,0,1
93081,-90.9090909090909,4,1,0,90,0,0
99081,-90.9090909090909,4,1,0,50,0,0
100518,-90.9090909090909,4,1,0,90,0,0
111174,-90.9090909090909,4,1,0,60,0,0
112581,-83.3333333333333,4,1,0,90,0,0
124581,-83.3333333333333,4,1,0,90,0,1
135081,375,5,1,0,90,1,0
135081,-83.3333333333333,5,1,0,90,0,0
136862,375,4,1,0,90,1,0
136862,-90.9090909090909,4,1,0,90,0,0
147362,-90.9090909090909,4,1,0,50,0,0
148768,-90.9090909090909,4,1,0,40,0,0
149799,-90.9090909090909,4,1,0,70,0,0
150268,-90.9090909090909,4,1,0,90,0,0
150362,-90.9090909090909,4,1,0,90,0,1
156362,-90.9090909090909,4,1,0,90,0,0
162362,-90.9090909090909,4,1,0,65,0,0
162737,-90.9090909090909,4,1,0,65,0,0
171268,-90.9090909090909,4,1,0,70,0,0
172018,-90.9090909090909,4,1,0,75,0,0
172768,-90.9090909090909,4,1,0,80,0,0
174362,-76.9230769230769,4,1,0,90,0,1
186362,-76.9230769230769,4,1,0,90,0,0
192901,-76.9230769230769,4,1,0,5,0,0

[HitObjects]
256,192,81,5,0,0:0:0:0:
256,192,268,1,0,0:0:0:0:
256,192,456,1,8,0:0:0:0:
256,192,1206,1,8,0:0:0:0:
256,192,1581,1,0,0:0:0:0:
256,192,1956,1,8,0:0:0:0:
256,192,2706,1,8,0:0:0:0:
256,192,3081,1,0,0:0:0:0:
256,192,3268,1,0,0:0:0:0:
256,192,3456,1,8,0:0:0:0:
256,192,4206,1,8,0:0:0:0:
256,192,4581,1,0,0:0:0:0:
256,192,4956,1,8,0:0:0:0:
256,192,5706,1,8,0:0:0:0:
256,192,6081,1,0,0:0:0:0:
256,192,6268,1,0,0:0:0:0:
256,192,6456,1,8,0:0:0:0:
256,192,7018,1,0,0:0:0:0:
256,192,7206,1,8,0:0:0:0:
256,192,7581,1,0,0:0:0:0:
256,192,7768,1,0,0:0:0:0:
256,192,7956,1,8,0:0:0:0:
256,192,8518,1,0,0:0:0:0:
256,192,8706,1,8,0:0:0:0:
256,192,9081,1,0,0:0:0:0:
256,192,9268,1,0,0:0:0:0:
256,192,9456,1,8,0:0:0:0:
256,192,10018,1,0,0:0:0:0:
256,192,10206,1,8,0:0:0:0:
256,192,10393,1,0,0:0:0:0:
256,192,10581,1,8,0:0:0:0:
256,192,10768,1,0,0:0:0:0:
256,192,10862,1,0,0:0:0:0:
256,192,10956,1,8,0:0:0:0:
256,192,11143,1,8,0:0:0:0:
256,192,11331,1,8,0:0:0:0:
256,192,11518,1,0,0:0:0:0:
256,192,11612,1,0,0:0:0:0:
256,192,11706,1,8,0:0:0:0:
256,192,11893,1,8,0:0:0:0:
256,192,11987,1,8,0:0:0:0:
256,192,12081,1,0,0:0:0:0:
256,192,12174,1,8,0:0:0:0:
256,192,12268,1,8,0:0:0:0:
256,192,12362,1,0,0:0:0:0:
256,192,12456,1,8,0:0:0:0:
256,192,12643,1,0,0:0:0:0:
256,192,12737,1,0,0:0:0:0:
256,192,12831,1,8,0:0:0:0:
256,192,12924,1,8,0:0:0:0:
256,192,13018,1,0,0:0:0:0:
256,192,13112,1,8,0:0:0:0:
256,192,13206,1,0,0:0:0:0:
256,192,13393,1,8,0:0:0:0:
256,192,13581,1,0,0:0:0:0:
256,192,13768,1,8,0:0:0:0:
256,192,13862,1,8,0:0:0:0:
256,192,13956,1,0,0:0:0:0:
256,192,14143,1,8,0:0:0:0:
256,192,14237,1,8,0:0:0:0:
256,192,14331,1,0,0:0:0:0:
256,192,14518,1,8,0:0:0:0:
256,192,14706,1,8,0:0:0:0:
256,192,14893,1,0,0:0:0:0:
256,192,14987,1,0,0:0:0:0:
256,192,15081,1,8,0:0:0:0:
256,192,15268,1,8,0:0:0:0:
256,192,15456,1,0,0:0:0:0:
256,192,15549,1,0,0:0:0:0:
256,192,15643,1,8,0:0:0:0:
256,192,15831,1,8,0:0:0:0:
256,192,16018,1,0,0:0:0:0:
256,192,16112,1,0,0:0:0:0:
256,192,16206,1,8,0:0:0:0:
256,192,16299,1,8,0:0:0:0:
256,192,16393,1,8,0:0:0:0:
256,192,16487,1,8,0:0:0:0:
256,192,16581,1,0,0:0:0:0:
256,192,16768,1,8,0:0:0:0:
256,192,16862,1,8,0:0:0:0:
256,192,16956,1,0,0:0:0:0:
256,192,17049,1,8,0:0:0:0:
256,192,17143,1,0,0:0:0:0:
256,192,17237,1,8,0:0:0:0:
256,192,17331,1,0,0:0:0:0:
256,192,17518,1,8,0:0:0:0:
256,192,17612,1,8,0:0:0:0:
256,192,17706,1,0,0:0:0:0:
256,192,17893,1,8,0:0:0:0:
256,192,17987,1,8,0:0:0:0:
256,192,18081,1,0,0:0:0:0:
256,192,18174,1,8,0:0:0:0:
256,192,18268,1,8,0:0:0:0:
256,192,18362,1,0,0:0:0:0:
256,192,18456,1,8,0:0:0:0:
256,192,18643,1,0,0:0:0:0:
256,192,18737,1,8,0:0:0:0:
256,192,18831,1,8,0:0:0:0:
256,192,18924,1,8,0:0:0:0:
256,192,19018,1,0,0:0:0:0:
256,192,19112,1,0,0:0:0:0:
256,192,19206,1,8,0:0:0:0:
256,192,19393,1,8,0:0:0:0:
256,192,19581,1,0,0:0:0:0:
256,192,19674,1,8,0:0:0:0:
256,192,19768,1,8,0:0:0:0:
256,192,19862,1,0,0:0:0:0:
256,192,19956,1,8,0:0:0:0:
256,192,20143,1,8,0:0:0:0:
256,192,20237,1,8,0:0:0:0:
256,192,20331,1,0,0:0:0:0:
256,192,20424,1,8,0:0:0:0:
256,192,20518,1,0,0:0:0:0:
256,192,20706,1,0,0:0:0:0:
256,192,20799,1,8,0:0:0:0:
256,192,20893,1,8,0:0:0:0:
256,192,20987,1,0,0:0:0:0:
256,192,21081,1,0,0:0:0:0:
256,192,21174,1,8,0:0:0:0:
256,192,21268,1,0,0:0:0:0:
256,192,21362,1,8,0:0:0:0:
256,192,21456,1,8,0:0:0:0:
256,192,21549,1,0,0:0:0:0:
256,192,21643,1,0,0:0:0:0:
256,192,21737,1,0,0:0:0:0:
256,192,21831,1,8,0:0:0:0:
256,192,22018,1,0,0:0:0:0:
256,192,22206,1,0,0:0:0:0:
256,192,22299,1,0,0:0:0:0:
256,192,22393,1,0,0:0:0:0:
256,192,22487,1,0,0:0:0:0:
256,192,22581,1,8,0:0:0:0:
256,192,22674,1,8,0:0:0:0:
256,192,22768,1,0,0:0:0:0:
256,192,22862,1,0,0:0:0:0:
256,192,22956,1,8,0:0:0:0:
256,192,23143,1,8,0:0:0:0:
256,192,23331,1,0,0:0:0:0:
256,192,23518,1,12,0:0:0:0:
256,192,23706,1,4,0:0:0:0:
256,192,23893,12,4,25768,0:0:0:0:
256,192,25956,5,0,0:0:0:0:
256,192,26049,1,0,0:0:0:0:
256,192,26143,1,8,0:0:0:0:
256,192,26331,1,8,0:0:0:0:
256,192,26518,1,0,0:0:0:0:
256,192,26612,1,0,0:0:0:0:
256,192,26706,1,8,0:0:0:0:
256,192,26799,1,8,0:0:0:0:
256,192,26893,1,8,0:0:0:0:
256,192,27081,1,4,0:0:0:0:
256,192,27268,1,0,0:0:0:0:
256,192,27456,1,8,0:0:0:0:
256,192,27643,1,0,0:0:0:0:
256,192,27737,1,0,0:0:0:0:
256,192,27831,1,8,0:0:0:0:
256,192,28018,1,0,0:0:0:0:
256,192,28112,1,0,0:0:0:0:
256,192,28206,1,8,0:0:0:0:
256,192,28393,1,0,0:0:0:0:
256,192,28581,1,8,0:0:0:0:
256,192,28674,1,0,0:0:0:0:
256,192,28768,1,0,0:0:0:0:
256,192,28862,1,0,0:0:0:0:
256,192,28956,1,8,0:0:0:0:
256,192,29143,1,0,0:0:0:0:
256,192,29237,1,0,0:0:0:0:
256,192,29331,1,8,0:0:0:0:
256,192,29518,1,8,0:0:0:0:
256,192,29706,1,8,0:0:0:0:
256,192,29893,1,8,0:0:0:0:
256,192,29987,1,0,0:0:0:0:
256,192,30081,1,8,0:0:0:0:
256,192,30268,1,0,0:0:0:0:
256,192,30362,1,8,0:0:0:0:
256,192,30549,1,0,0:0:0:0:
256,192,30643,1,8,0:0:0:0:
256,192,30737,1,8,0:0:0:0:
256,192,30831,1,0,0:0:0:0:
256,192,31018,1,8,0:0:0:0:
256,192,31206,1,8,0:0:0:0:
256,192,31299,1,0,0:0:0:0:
256,192,31393,1,8,0:0:0:0:
256,192,31487,1,8,0:0:0:0:
256,192,31581,1,0,0:0:0:0:
256,192,31768,1,0,0:0:0:0:
256,192,31862,1,0,0:0:0:0:
256,192,31956,1,8,0:0:0:0:
256,192,32143,1,0,0:0:0:0:
256,192,32331,1,8,0:0:0:0:
256,192,32424,1,0,0:0:0:0:
256,192,32518,1,0,0:0:0:0:
256,192,32612,1,0,0:0:0:0:
256,192,32706,1,8,0:0:0:0:
256,192,32799,1,0,0:0:0:0:
256,192,32893,1,8,0:0:0:0:
256,192,33081,1,0,0:0:0:0:
256,192,33174,1,0,0:0:0:0:
256,192,33268,1,8,0:0:0:0:
256,192,33456,1,0,0:0:0:0:
256,192,33549,1,0,0:0:0:0:
256,192,33643,1,8,0:0:0:0:
256,192,33831,1,0,0:0:0:0:
256,192,33924,1,0,0:0:0:0:
256,192,34018,1,8,0:0:0:0:
256,192,34112,1,8,0:0:0:0:
256,192,34206,1,0,0:0:0:0:
256,192,34393,1,8,0:0:0:0:
256,192,34581,1,0,0:0:0:0:
256,192,34674,1,0,0:0:0:0:
256,192,34768,1,8,0:0:0:0:
256,192,34956,1,0,0:0:0:0:
256,192,35049,1,0,0:0:0:0:
256,192,35143,1,8,0:0:0:0:
256,192,35237,1,0,0:0:0:0:
256,192,35331,1,0,0:0:0:0:
256,192,35424,1,0,0:0:0:0:
256,192,35518,1,8,0:0:0:0:
256,192,35612,1,8,0:0:0:0:
256,192,35706,1,0,0:0:0:0:
256,192,35893,1,8,0:0:0:0:
256,192,36081,1,8,0:0:0:0:
256,192,36174,1,0,0:0:0:0:
256,192,36268,1,0,0:0:0:0:
256,192,36362,1,0,0:0:0:0:
256,192,36456,1,8,0:0:0:0:
256,192,36643,1,0,0:0:0:0:
256,192,36831,1,8,0:0:0:0:
256,192,37018,1,0,0:0:0:0:
256,192,37112,1,0,0:0:0:0:
256,192,37206,1,8,0:0:0:0:
256,192,37393,1,8,0:0:0:0:
256,192,37581,1,8,0:0:0:0:
256,192,37674,1,8,0:0:0:0:
256,192,37768,1,0,0:0:0:0:
256,192,37862,1,0,0:0:0:0:
256,192,37956,1,8,0:0:0:0:
256,192,38143,1,8,0:0:0:0:
256,192,38331,1,8,0:0:0:0:
256,192,38518,1,0,0:0:0:0:
256,192,38612,1,0,0:0:0:0:
256,192,38706,1,0,0:0:0:0:
256,192,38768,1,0,0:0:0:0:
256,192,38831,1,0,0:0:0:0:
256,192,38893,1,0,0:0:0:0:
256,192,39081,1,12,0:0:0:0:
256,192,39268,1,0,0:0:0:0:
256,192,39362,1,0,0:0:0:0:
256,192,39456,1,8,0:0:0:0:
256,192,39643,1,0,0:0:0:0:
256,192,39737,1,0,0:0:0:0:
256,192,39831,1,0,0:0:0:0:
256,192,39924,1,8,0:0:0:0:
256,192,40018,1,0,0:0:0:0:
256,192,40112,1,0,0:0:0:0:
256,192,40206,1,8,0:0:0:0:
256,192,40393,1,0,0:0:0:0:
256,192,40487,1,0,0:0:0:0:
256,192,40581,1,0,0:0:0:0:
256,192,40768,1,0,0:0:0:0:
256,192,40862,1,0,0:0:0:0:
256,192,40956,1,8,0:0:0:0:
256,192,41049,1,0,0:0:0:0:
256,192,41143,1,0,0:0:0:0:
256,192,41237,1,0,0:0:0:0:
256,192,41331,1,8,0:0:0:0:
256,192,41424,1,8,0:0:0:0:
256,192,41518,1,0,0:0:0:0:
256,192,41612,1,0,0:0:0:0:
256,192,41706,1,8,0:0:0:0:
256,192,41893,1,0,0:0:0:0:
256,192,42081,1,8,0:0:0:0:
256,192,42174,1,8,0:0:0:0:
256,192,42268,1,0,0:0:0:0:
256,192,42362,1,8,0:0:0:0:
256,192,42456,1,8,0:0:0:0:
256,192,42549,1,0,0:0:0:0:
256,192,42643,1,8,0:0:0:0:
256,192,42737,1,0,0:0:0:0:
256,192,42831,1,8,0:0:0:0:
256,192,42924,1,8,0:0:0:0:
256,192,43018,1,8,0:0:0:0:
256,192,43112,1,0,0:0:0:0:
256,192,43206,1,8,0:0:0:0:
256,192,43299,1,0,0:0:0:0:
256,192,43393,1,0,0:0:0:0:
256,192,43487,1,0,0:0:0:0:
256,192,43581,1,8,0:0:0:0:
256,192,43768,1,0,0:0:0:0:
256,192,43862,1,0,0:0:0:0:
256,192,43956,1,8,0:0:0:0:
256,192,44143,1,0,0:0:0:0:
256,192,44237,1,0,0:0:0:0:
256,192,44331,1,8,0:0:0:0:
256,192,44424,1,8,0:0:0:0:
256,192,44518,1,0,0:0:0:0:
256,192,44612,1,8,0:0:0:0:
256,192,44706,1,0,0:0:0:0:
256,192,44799,1,0,0:0:0:0:
256,192,44893,1,8,0:0:0:0:
256,192,45081,1,0,0:0:0:0:
256,192,45268,1,0,0:0:0:0:
256,192,45456,1,8,0:0:0:0:
256,192,45643,1,0,0:0:0:0:
256,192,45737,1,0,0:0:0:0:
256,192,45831,1,0,0:0:0:0:
256,192,45924,1,8,0:0:0:0:
256,192,46018,1,0,0:0:0:0:
256,192,46206,1,8,0:0:0:0:
256,192,46393,1,0,0:0:0:0:
256,192,46487,1,0,0:0:0:0:
256,192,46581,1,0,0:0:0:0:
256,192,46674,1,0,0:0:0:0:
256,192,46768,1,8,0:0:0:0:
256,192,46862,1,0,0:0:0:0:
256,192,46956,1,8,0:0:0:0:
256,192,47049,1,8,0:0:0:0:
256,192,47143,1,0,0:0:0:0:
256,192,47237,1,8,0:0:0:0:
256,192,47331,1,8,0:0:0:0:
256,192,47424,1,0,0:0:0:0:
256,192,47518,1,8,0:0:0:0:
256,192,47706,1,8,0:0:0:0:
256,192,47799,1,0,0:0:0:0:
256,192,47893,1,0,0:0:0:0:
256,192,47987,1,0,0:0:0:0:
256,192,48081,1,8,0:0:0:0:
256,192,48174,1,0,0:0:0:0:
256,192,48268,1,0,0:0:0:0:
256,192,48362,1,8,0:0:0:0:
256,192,48549,1,0,0:0:0:0:
256,192,48643,1,8,0:0:0:0:
256,192,48737,1,0,0:0:0:0:
256,192,48831,1,8,0:0:0:0:
256,192,48924,1,8,0:0:0:0:
256,192,49018,1,0,0:0:0:0:
256,192,49112,1,8,0:0:0:0:
256,192,49206,1,0,0:0:0:0:
256,192,49299,1,0,0:0:0:0:
256,192,49393,1,8,0:0:0:0:
256,192,49581,1,8,0:0:0:0:
256,192,49768,1,0,0:0:0:0:
256,192,49862,1,0,0:0:0:0:
256,192,50049,1,0,0:0:0:0:
256,192,50143,1,0,0:0:0:0:
256,192,50331,1,8,0:0:0:0:
256,192,50518,1,0,0:0:0:0:
256,192,50612,1,8,0:0:0:0:
256,192,50706,1,8,0:0:0:0:
256,192,50799,1,0,0:0:0:0:
256,192,50893,1,0,0:0:0:0:
256,192,51081,1,12,0:0:0:0:
256,192,51268,1,0,0:0:0:0:
256,192,51362,1,0,0:0:0:0:
256,192,51456,1,8,0:0:0:0:
256,192,51549,1,8,0:0:0:0:
256,192,51643,1,0,0:0:0:0:
256,192,51831,1,0,0:0:0:0:
256,192,51924,1,0,0:0:0:0:
256,192,52018,1,0,0:0:0:0:
256,192,52112,1,8,0:0:0:0:
256,192,52206,1,8,0:0:0:0:
256,192,52299,1,8,0:0:0:0:
256,192,52393,1,0,0:0:0:0:
256,192,52581,1,0,0:0:0:0:
256,192,52674,1,0,0:0:0:0:
256,192,52768,1,8,0:0:0:0:
256,192,52862,1,0,0:0:0:0:
256,192,52956,1,8,0:0:0:0:
256,192,53049,1,8,0:0:0:0:
256,192,53143,1,0,0:0:0:0:
256,192,53237,1,0,0:0:0:0:
256,192,53331,1,8,0:0:0:0:
256,192,53424,1,0,0:0:0:0:
256,192,53518,1,0,0:0:0:0:
256,192,53612,1,0,0:0:0:0:
256,192,53706,1,8,0:0:0:0:
256,192,53799,1,8,0:0:0:0:
256,192,53893,1,0,0:0:0:0:
256,192,54081,1,0,0:0:0:0:
256,192,54174,1,0,0:0:0:0:
256,192,54268,1,8,0:0:0:0:
256,192,54362,1,8,0:0:0:0:
256,192,54456,1,0,0:0:0:0:
256,192,54549,1,8,0:0:0:0:
256,192,54643,1,0,0:0:0:0:
256,192,54737,1,0,0:0:0:0:
256,192,54831,1,8,0:0:0:0:
256,192,54924,1,8,0:0:0:0:
256,192,55018,1,0,0:0:0:0:
256,192,55112,1,8,0:0:0:0:
256,192,55206,1,8,0:0:0:0:
256,192,55299,1,8,0:0:0:0:
256,192,55393,1,0,0:0:0:0:
256,192,55487,1,0,0:0:0:0:
256,192,55581,1,8,0:0:0:0:
256,192,55768,1,0,0:0:0:0:
256,192,55862,1,0,0:0:0:0:
256,192,55956,1,8,0:0:0:0:
256,192,56049,1,8,0:0:0:0:
256,192,56143,1,0,0:0:0:0:
256,192,56331,1,0,0:0:0:0:
256,192,56424,1,8,0:0:0:0:
256,192,56518,1,0,0:0:0:0:
256,192,56612,1,0,0:0:0:0:
256,192,56706,1,8,0:0:0:0:
256,192,56893,1,0,0:0:0:0:
256,192,56987,1,0,0:0:0:0:
256,192,57081,1,0,0:0:0:0:
256,192,57456,1,8,0:0:0:0:
256,192,57643,1,0,0:0:0:0:
256,192,57831,1,0,0:0:0:0:
256,192,58018,1,0,0:0:0:0:
256,192,58206,1,8,0:0:0:0:
256,192,58393,1,0,0:0:0:0:
256,192,58768,1,0,0:0:0:0:
256,192,58862,1,0,0:0:0:0:
256,192,58956,1,8,0:0:0:0:
256,192,59143,1,0,0:0:0:0:
256,192,59237,1,0,0:0:0:0:
256,192,59331,1,0,0:0:0:0:
256,192,59518,1,0,0:0:0:0:
256,192,59612,1,0,0:0:0:0:
256,192,59706,1,8,0:0:0:0:
256,192,59799,1,0,0:0:0:0:
256,192,59893,1,0,0:0:0:0:
256,192,60081,1,0,0:0:0:0:
256,192,60268,1,0,0:0:0:0:
256,192,60456,1,8,0:0:0:0:
256,192,60643,1,0,0:0:0:0:
256,192,61018,1,0,0:0:0:0:
256,192,61206,1,4,0:0:0:0:
256,192,61393,1,12,0:0:0:0:
256,192,61581,1,0,0:0:0:0:
256,192,61768,1,12,0:0:0:0:
256,192,61956,1,0,0:0:0:0:
256,192,62143,1,12,0:0:0:0:
256,192,62331,1,8,0:0:0:0:
256,192,62424,1,0,0:0:0:0:
256,192,62518,1,0,0:0:0:0:
256,192,62612,1,8,0:0:0:0:
256,192,62706,1,0,0:0:0:0:
256,192,62893,1,8,0:0:0:0:
256,192,63081,1,4,0:0:0:0:
256,192,63268,1,0,0:0:0:0:
256,192,63331,1,0,0:0:0:0:
256,192,63393,1,0,0:0:0:0:
256,192,63456,1,8,0:0:0:0:
256,192,63643,1,0,0:0:0:0:
256,192,63831,1,8,0:0:0:0:
256,192,64018,1,0,0:0:0:0:
256,192,64081,1,0,0:0:0:0:
256,192,64143,1,0,0:0:0:0:
256,192,64206,1,8,0:0:0:0:
256,192,64299,1,8,0:0:0:0:
256,192,64393,1,0,0:0:0:0:
256,192,64487,1,8,0:0:0:0:
256,192,64581,1,0,0:0:0:0:
256,192,64674,1,8,0:0:0:0:
256,192,64768,1,8,0:0:0:0:
256,192,64862,1,0,0:0:0:0:
256,192,64956,1,8,0:0:0:0:
256,192,65143,1,0,0:0:0:0:
256,192,65237,1,0,0:0:0:0:
256,192,65331,1,8,0:0:0:0:
256,192,65424,1,0,0:0:0:0:
256,192,65518,1,0,0:0:0:0:
256,192,65706,1,8,0:0:0:0:
256,192,65893,1,0,0:0:0:0:
256,192,66081,1,8,0:0:0:0:
256,192,66174,1,0,0:0:0:0:
256,192,66268,1,0,0:0:0:0:
256,192,66362,1,8,0:0:0:0:
256,192,66456,1,0,0:0:0:0:
256,192,66549,1,0,0:0:0:0:
256,192,66643,1,8,0:0:0:0:
256,192,66737,1,0,0:0:0:0:
256,192,66831,1,8,0:0:0:0:
256,192,66924,1,0,0:0:0:0:
256,192,67018,1,0,0:0:0:0:
256,192,67112,1,8,0:0:0:0:
256,192,67206,1,0,0:0:0:0:
256,192,67299,1,0,0:0:0:0:
256,192,67393,1,8,0:0:0:0:
256,192,67487,1,0,0:0:0:0:
256,192,67581,1,8,0:0:0:0:
256,192,67768,1,0,0:0:0:0:
256,192,67862,1,0,0:0:0:0:
256,192,67956,1,8,0:0:0:0:
256,192,68143,1,0,0:0:0:0:
256,192,68331,1,8,0:0:0:0:
256,192,68393,1,0,0:0:0:0:
256,192,68456,1,0,0:0:0:0:
256,192,68518,1,0,0:0:0:0:
256,192,68612,1,0,0:0:0:0:
256,192,68706,1,8,0:0:0:0:
256,192,68831,1,0,0:0:0:0:
256,192,68956,1,0,0:0:0:0:
256,192,69081,1,4,0:0:0:0:
256,192,69268,1,0,0:0:0:0:
256,192,69331,1,0,0:0:0:0:
256,192,69393,1,0,0:0:0:0:
256,192,69456,1,8,0:0:0:0:
256,192,69643,1,0,0:0:0:0:
256,192,69737,1,0,0:0:0:0:
256,192,69831,1,0,0:0:0:0:
256,192,69924,1,8,0:0:0:0:
256,192,70018,1,8,0:0:0:0:
256,192,70112,1,0,0:0:0:0:
256,192,70206,1,8,0:0:0:0:
256,192,70393,1,0,0:0:0:0:
256,192,70487,1,8,0:0:0:0:
256,192,70581,1,0,0:0:0:0:
256,192,70674,1,0,0:0:0:0:
256,192,70768,1,8,0:0:0:0:
256,192,70831,1,0,0:0:0:0:
256,192,70893,1,0,0:0:0:0:
256,192,70956,1,8,0:0:0:0:
256,192,71143,1,0,0:0:0:0:
256,192,71237,1,0,0:0:0:0:
256,192,71331,1,0,0:0:0:0:
256,192,71424,1,8,0:0:0:0:
256,192,71518,1,0,0:0:0:0:
256,192,71612,1,0,0:0:0:0:
256,192,71706,1,8,0:0:0:0:
256,192,71799,1,0,0:0:0:0:
256,192,71893,1,8,0:0:0:0:
256,192,71956,1,8,0:0:0:0:
256,192,72018,1,8,0:0:0:0:
256,192,72081,1,0,0:0:0:0:
256,192,72174,1,0,0:0:0:0:
256,192,72268,1,8,0:0:0:0:
256,192,72362,1,8,0:0:0:0:
256,192,72456,1,8,0:0:0:0:
256,192,72643,1,8,0:0:0:0:
256,192,72737,1,0,0:0:0:0:
256,192,72831,1,8,0:0:0:0:
256,192,72924,1,8,0:0:0:0:
256,192,73018,1,0,0:0:0:0:
256,192,73206,1,8,0:0:0:0:
256,192,73393,1,0,0:0:0:0:
256,192,73581,1,0,0:0:0:0:
256,192,73674,1,0,0:0:0:0:
256,192,73768,1,0,0:0:0:0:
256,192,73862,1,0,0:0:0:0:
256,192,73956,1,8,0:0:0:0:
256,192,74143,1,0,0:0:0:0:
256,192,74331,1,8,0:0:0:0:
256,192,74393,1,8,0:0:0:0:
256,192,74456,1,8,0:0:0:0:
256,192,74518,1,8,0:0:0:0:
256,192,74612,1,8,0:0:0:0:
256,192,74706,1,0,0:0:0:0:
256,192,74831,1,0,0:0:0:0:
256,192,74956,1,0,0:0:0:0:
256,192,75081,1,4,0:0:0:0:
256,192,75268,1,0,0:0:0:0:
256,192,75362,1,0,0:0:0:0:
256,192,75456,1,8,0:0:0:0:
256,192,75549,1,0,0:0:0:0:
256,192,75643,1,0,0:0:0:0:
256,192,75737,1,0,0:0:0:0:
256,192,75831,1,0,0:0:0:0:
256,192,75924,1,0,0:0:0:0:
256,192,76018,1,0,0:0:0:0:
256,192,76112,1,0,0:0:0:0:
256,192,76206,1,8,0:0:0:0:
256,192,76299,1,0,0:0:0:0:
256,192,76393,1,0,0:0:0:0:
256,192,76487,1,0,0:0:0:0:
256,192,76581,1,0,0:0:0:0:
256,192,76674,1,0,0:0:0:0:
256,192,76768,1,0,0:0:0:0:
256,192,76862,1,0,0:0:0:0:
256,192,76956,1,8,0:0:0:0:
256,192,77049,1,0,0:0:0:0:
256,192,77143,1,8,0:0:0:0:
256,192,77237,1,8,0:0:0:0:
256,192,77331,1,0,0:0:0:0:
256,192,77424,1,8,0:0:0:0:
256,192,77518,1,8,0:0:0:0:
256,192,77612,1,0,0:0:0:0:
256,192,77706,1,8,0:0:0:0:
256,192,77799,1,0,0:0:0:0:
256,192,77893,1,8,0:0:0:0:
256,192,77987,1,8,0:0:0:0:
256,192,78081,1,0,0:0:0:0:
256,192,78268,1,0,0:0:0:0:
256,192,78362,1,8,0:0:0:0:
256,192,78456,1,0,0:0:0:0:
256,192,78549,1,0,0:0:0:0:
256,192,78643,1,8,0:0:0:0:
256,192,78737,1,0,0:0:0:0:
256,192,78831,1,8,0:0:0:0:
256,192,78924,1,0,0:0:0:0:
256,192,79018,1,0,0:0:0:0:
256,192,79112,1,8,0:0:0:0:
256,192,79206,1,8,0:0:0:0:
256,192,79299,1,0,0:0:0:0:
256,192,79393,1,8,0:0:0:0:
256,192,79487,1,0,0:0:0:0:
256,192,79581,1,8,0:0:0:0:
256,192,79674,1,0,0:0:0:0:
256,192,79768,1,8,0:0:0:0:
256,192,79862,1,8,0:0:0:0:
256,192,79956,1,0,0:0:0:0:
256,192,80049,1,8,0:0:0:0:
256,192,80143,1,8,0:0:0:0:
256,192,80237,1,8,0:0:0:0:
256,192,80331,1,8,0:0:0:0:
256,192,80424,1,0,0:0:0:0:
256,192,80518,1,8,0:0:0:0:
256,192,80612,1,0,0:0:0:0:
256,192,80706,1,8,0:0:0:0:
256,192,80799,1,8,0:0:0:0:
256,192,80893,1,0,0:0:0:0:
256,192,80987,1,0,0:0:0:0:
256,192,81081,1,8,0:0:0:0:
256,192,81268,1,0,0:0:0:0:
256,192,81362,1,8,0:0:0:0:
256,192,81456,1,0,0:0:0:0:
256,192,81549,1,8,0:0:0:0:
256,192,81643,1,0,0:0:0:0:
256,192,81737,1,0,0:0:0:0:
256,192,81831,1,8,0:0:0:0:
256,192,81924,1,0,0:0:0:0:
256,192,82018,1,0,0:0:0:0:
256,192,82112,1,8,0:0:0:0:
256,192,82206,1,0,0:0:0:0:
256,192,82299,1,0,0:0:0:0:
256,192,82393,1,8,0:0:0:0:
256,192,82487,1,0,0:0:0:0:
256,192,82581,1,8,0:0:0:0:
256,192,82674,1,8,0:0:0:0:
256,192,82768,1,0,0:0:0:0:
256,192,82862,1,0,0:0:0:0:
256,192,82956,1,8,0:0:0:0:
256,192,83049,1,8,0:0:0:0:
256,192,83143,1,8,0:0:0:0:
256,192,83237,1,0,0:0:0:0:
256,192,83331,1,0,0:0:0:0:
256,192,83424,1,8,0:0:0:0:
256,192,83518,1,8,0:0:0:0:
256,192,83612,1,8,0:0:0:0:
256,192,83706,1,8,0:0:0:0:
256,192,83799,1,0,0:0:0:0:
256,192,83893,1,8,0:0:0:0:
256,192,83987,1,0,0:0:0:0:
256,192,84081,1,8,0:0:0:0:
256,192,84174,1,8,0:0:0:0:
256,192,84268,1,0,0:0:0:0:
256,192,84362,1,8,0:0:0:0:
256,192,84456,1,8,0:0:0:0:
256,192,84549,1,0,0:0:0:0:
256,192,84643,1,8,0:0:0:0:
256,192,84737,1,0,0:0:0:0:
256,192,84831,1,0,0:0:0:0:
256,192,84924,1,0,0:0:0:0:
256,192,85018,1,8,0:0:0:0:
256,192,85112,1,0,0:0:0:0:
256,192,85206,1,8,0:0:0:0:
256,192,85299,1,0,0:0:0:0:
256,192,85393,1,0,0:0:0:0:
256,192,85487,1,0,0:0:0:0:
256,192,85581,1,8,0:0:0:0:
256,192,85674,1,8,0:0:0:0:
256,192,85768,1,0,0:0:0:0:
256,192,85862,1,8,0:0:0:0:
256,192,85956,1,0,0:0:0:0:
256,192,86049,1,0,0:0:0:0:
256,192,86143,1,8,0:0:0:0:
256,192,86331,1,0,0:0:0:0:
256,192,86518,1,8,0:0:0:0:
256,192,86612,1,0,0:0:0:0:
256,192,86706,1,8,0:0:0:0:
256,192,86799,1,8,0:0:0:0:
256,192,86893,1,0,0:0:0:0:
256,192,87081,1,4,0:0:0:0:
256,192,87456,1,8,0:0:0:0:
256,192,87643,1,0,0:0:0:0:
256,192,87737,1,0,0:0:0:0:
256,192,87831,1,8,0:0:0:0:
256,192,88018,1,0,0:0:0:0:
256,192,88112,1,0,0:0:0:0:
256,192,88206,1,8,0:0:0:0:
256,192,88393,1,0,0:0:0:0:
256,192,88487,1,0,0:0:0:0:
256,192,88581,1,8,0:0:0:0:
256,192,88674,1,8,0:0:0:0:
256,192,88768,1,0,0:0:0:0:
256,192,88862,1,0,0:0:0:0:
256,192,88956,1,8,0:0:0:0:
256,192,89143,1,0,0:0:0:0:
256,192,89237,1,0,0:0:0:0:
256,192,89331,1,8,0:0:0:0:
256,192,89424,1,0,0:0:0:0:
256,192,89518,1,0,0:0:0:0:
256,192,89706,1,8,0:0:0:0:
256,192,89893,1,8,0:0:0:0:
256,192,90081,1,8,0:0:0:0:
256,192,90174,1,0,0:0:0:0:
256,192,90268,1,0,0:0:0:0:
256,192,90362,1,0,0:0:0:0:
256,192,90456,1,8,0:0:0:0:
256,192,90643,1,0,0:0:0:0:
256,192,90737,1,8,0:0:0:0:
256,192,90831,1,0,0:0:0:0:
256,192,90924,1,8,0:0:0:0:
256,192,91018,1,0,0:0:0:0:
256,192,91112,1,0,0:0:0:0:
256,192,91206,1,8,0:0:0:0:
256,192,91393,1,8,0:0:0:0:
256,192,91487,1,8,0:0:0:0:
256,192,91581,1,0,0:0:0:0:
256,192,91674,1,8,0:0:0:0:
256,192,91768,1,0,0:0:0:0:
256,192,91862,1,0,0:0:0:0:
256,192,91956,1,8,0:0:0:0:
256,192,92143,1,0,0:0:0:0:
256,192,92237,1,0,0:0:0:0:
256,192,92331,1,8,0:0:0:0:
256,192,92424,1,0,0:0:0:0:
256,192,92518,1,0,0:0:0:0:
256,192,92612,1,0,0:0:0:0:
256,192,92706,1,8,0:0:0:0:
256,192,92799,1,0,0:0:0:0:
256,192,92893,1,8,0:0:0:0:
256,192,93081,1,0,0:0:0:0:
256,192,93174,1,0,0:0:0:0:
256,192,93268,1,8,0:0:0:0:
256,192,93456,1,0,0:0:0:0:
256,192,93549,1,0,0:0:0:0:
256,192,93643,1,8,0:0:0:0:
256,192,93831,1,0,0:0:0:0:
256,192,93924,1,0,0:0:0:0:
256,192,94018,1,8,0:0:0:0:
256,192,94112,1,0,0:0:0:0:
256,192,94206,1,0,0:0:0:0:
256,192,94299,1,0,0:0:0:0:
256,192,94393,1,8,0:0:0:0:
256,192,94581,1,0,0:0:0:0:
256,192,94674,1,0,0:0:0:0:
256,192,94768,1,8,0:0:0:0:
256,192,94862,1,8,0:0:0:0:
256,192,94956,1,0,0:0:0:0:
256,192,95049,1,0,0:0:0:0:
256,192,95143,1,8,0:0:0:0:
256,192,95331,1,0,0:0:0:0:
256,192,95424,1,8,0:0:0:0:
256,192,95518,1,0,0:0:0:0:
256,192,95612,1,0,0:0:0:0:
256,192,95706,1,8,0:0:0:0:
256,192,95799,1,0,0:0:0:0:
256,192,95893,1,8,0:0:0:0:
256,192,96081,1,8,0:0:0:0:
256,192,96268,1,0,0:0:0:0:
256,192,96362,1,0,0:0:0:0:
256,192,96456,1,8,0:0:0:0:
256,192,96549,1,0,0:0:0:0:
256,192,96643,1,0,0:0:0:0:
256,192,96831,1,8,0:0:0:0:
256,192,97018,1,0,0:0:0:0:
256,192,97112,1,0,0:0:0:0:
256,192,97206,1,8,0:0:0:0:
256,192,97393,1,8,0:0:0:0:
256,192,97581,1,8,0:0:0:0:
256,192,97674,1,8,0:0:0:0:
256,192,97768,1,0,0:0:0:0:
256,192,97862,1,0,0:0:0:0:
256,192,97956,1,8,0:0:0:0:
256,192,98143,1,8,0:0:0:0:
256,192,98331,1,0,0:0:0:0:
256,192,98518,1,0,0:0:0:0:
256,192,98612,1,0,0:0:0:0:
256,192,98706,1,0,0:0:0:0:
256,192,98768,1,0,0:0:0:0:
256,192,98831,1,0,0:0:0:0:
256,192,98893,1,0,0:0:0:0:
256,192,99268,1,8,0:0:0:0:
256,192,99331,1,8,0:0:0:0:
256,192,99393,1,8,0:0:0:0:
256,192,99643,1,8,0:0:0:0:
256,192,99706,1,8,0:0:0:0:
256,192,99768,1,8,0:0:0:0:
256,192,100018,1,8,0:0:0:0:
256,192,100081,1,8,0:0:0:0:
256,192,100206,1,8,0:0:0:0:
256,192,100268,1,8,0:0:0:0:
256,192,100331,1,8,0:0:0:0:
256,192,100393,1,8,0:0:0:0:
256,192,100456,1,8,0:0:0:0:
256,192,100581,1,4,0:0:0:0:
256,192,100956,1,8,0:0:0:0:
256,192,101143,1,0,0:0:0:0:
256,192,101237,1,8,0:0:0:0:
256,192,101331,1,0,0:0:0:0:
256,192,101424,1,0,0:0:0:0:
256,192,101518,1,8,0:0:0:0:
256,192,101612,1,0,0:0:0:0:
256,192,101706,1,8,0:0:0:0:
256,192,101893,1,0,0:0:0:0:
256,192,101987,1,0,0:0:0:0:
256,192,102081,1,8,0:0:0:0:
256,192,102174,1,0,0:0:0:0:
256,192,102268,1,0,0:0:0:0:
256,192,102362,1,8,0:0:0:0:
256,192,102456,1,0,0:0:0:0:
256,192,102643,1,8,0:0:0:0:
256,192,102737,1,8,0:0:0:0:
256,192,102831,1,8,0:0:0:0:
256,192,102924,1,0,0:0:0:0:
256,192,103018,1,0,0:0:0:0:
256,192,103112,1,8,0:0:0:0:
256,192,103206,1,0,0:0:0:0:
256,192,103299,1,0,0:0:0:0:
256,192,103393,1,8,0:0:0:0:
256,192,103487,1,0,0:0:0:0:
256,192,103581,1,8,0:0:0:0:
256,192,103768,1,0,0:0:0:0:
256,192,103862,1,0,0:0:0:0:
256,192,103956,1,0,0:0:0:0:
256,192,104049,1,8,0:0:0:0:
256,192,104143,1,0,0:0:0:0:
256,192,104237,1,0,0:0:0:0:
256,192,104331,1,8,0:0:0:0:
256,192,104424,1,0,0:0:0:0:
256,192,104518,1,0,0:0:0:0:
256,192,104612,1,0,0:0:0:0:
256,192,104706,1,8,0:0:0:0:
256,192,104799,1,8,0:0:0:0:
256,192,104893,1,0,0:0:0:0:
256,192,104987,1,8,0:0:0:0:
256,192,105081,1,0,0:0:0:0:
256,192,105268,1,0,0:0:0:0:
256,192,105362,1,8,0:0:0:0:
256,192,105456,1,0,0:0:0:0:
256,192,105549,1,0,0:0:0:0:
256,192,105643,1,8,0:0:0:0:
256,192,105737,1,8,0:0:0:0:
256,192,105831,1,0,0:0:0:0:
256,192,106018,1,8,0:0:0:0:
256,192,106112,1,0,0:0:0:0:
256,192,106205,1,0,0:0:0:0:
256,192,106299,1,8,0:0:0:0:
256,192,106393,1,8,0:0:0:0:
256,192,106486,1,8,0:0:0:0:
256,192,106580,1,0,0:0:0:0:
256,192,106768,1,0,0:0:0:0:
256,192,106862,1,0,0:0:0:0:
256,192,106956,1,8,0:0:0:0:
256,192,107049,1,0,0:0:0:0:
256,192,107143,1,0,0:0:0:0:
256,192,107237,1,8,0:0:0:0:
256,192,107331,1,0,0:0:0:0:
256,192,107424,1,8,0:0:0:0:
256,192,107518,1,0,0:0:0:0:
256,192,107612,1,0,0:0:0:0:
256,192,107706,1,8,0:0:0:0:
256,192,107893,1,0,0:0:0:0:
256,192,107987,1,0,0:0:0:0:
256,192,108081,1,0,0:0:0:0:
256,192,108174,1,8,0:0:0:0:
256,192,108268,1,0,0:0:0:0:
256,192,108362,1,8,0:0:0:0:
256,192,108456,1,0,0:0:0:0:
256,192,108549,1,0,0:0:0:0:
256,192,108643,1,8,0:0:0:0:
256,192,108737,1,8,0:0:0:0:
256,192,108831,1,0,0:0:0:0:
256,192,108924,1,0,0:0:0:0:
256,192,109018,1,8,0:0:0:0:
256,192,109112,1,0,0:0:0:0:
256,192,109206,1,8,0:0:0:0:
256,192,109393,1,0,0:0:0:0:
256,192,109487,1,8,0:0:0:0:
256,192,109581,1,0,0:0:0:0:
256,192,109674,1,0,0:0:0:0:
256,192,109768,1,0,0:0:0:0:
256,192,109862,1,0,0:0:0:0:
256,192,109956,1,8,0:0:0:0:
256,192,110049,1,0,0:0:0:0:
256,192,110143,1,0,0:0:0:0:
256,192,110237,1,8,0:0:0:0:
256,192,110331,1,0,0:0:0:0:
256,192,110518,1,0,0:0:0:0:
256,192,110612,1,8,0:0:0:0:
256,192,110706,1,0,0:0:0:0:
256,192,110799,1,8,0:0:0:0:
256,192,110893,1,8,0:0:0:0:
256,192,110987,1,8,0:0:0:0:
256,192,111081,1,0,0:0:0:0:
256,192,111268,1,8,0:0:0:0:
256,192,111331,1,0,0:0:0:0:
256,192,111393,1,0,0:0:0:0:
256,192,111643,1,8,0:0:0:0:
256,192,111706,1,0,0:0:0:0:
256,192,111768,1,0,0:0:0:0:
256,192,112018,1,8,0:0:0:0:
256,192,112081,1,0,0:0:0:0:
256,192,112206,1,8,0:0:0:0:
256,192,112268,1,8,0:0:0:0:
256,192,112331,1,8,0:0:0:0:
256,192,112393,1,8,0:0:0:0:
256,192,112456,1,8,0:0:0:0:
256,192,112581,1,4,0:0:0:0:
256,192,112956,1,8,0:0:0:0:
256,192,113331,1,0,0:0:0:0:
256,192,113518,1,0,0:0:0:0:
256,192,113612,1,0,0:0:0:0:
256,192,113706,1,8,0:0:0:0:
256,192,113893,1,0,0:0:0:0:
256,192,113987,1,0,0:0:0:0:
256,192,114081,1,0,0:0:0:0:
256,192,114174,1,0,0:0:0:0:
256,192,114268,1,0,0:0:0:0:
256,192,114362,1,0,0:0:0:0:
256,192,114456,1,8,0:0:0:0:
256,192,114643,1,0,0:0:0:0:
256,192,114831,1,0,0:0:0:0:
256,192,114924,1,0,0:0:0:0:
256,192,115018,1,8,0:0:0:0:
256,192,115112,1,8,0:0:0:0:
256,192,115206,1,8,0:0:0:0:
256,192,115299,1,8,0:0:0:0:
256,192,115393,1,0,0:0:0:0:
256,192,115487,1,0,0:0:0:0:
256,192,115581,1,0,0:0:0:0:
256,192,115956,1,8,0:0:0:0:
256,192,116049,1,0,0:0:0:0:
256,192,116237,1,8,0:0:0:0:
256,192,116518,1,8,0:0:0:0:
256,192,116612,1,8,0:0:0:0:
256,192,116799,1,8,0:0:0:0:
256,192,116893,1,8,0:0:0:0:
256,192,117081,1,0,0:0:0:0:
256,192,117174,1,8,0:0:0:0:
256,192,117268,1,8,0:0:0:0:
256,192,117456,1,8,0:0:0:0:
256,192,117549,1,8,0:0:0:0:
256,192,117643,1,0,0:0:0:0:
256,192,117737,1,0,0:0:0:0:
256,192,117831,1,8,0:0:0:0:
256,192,117924,1,8,0:0:0:0:
256,192,118018,1,8,0:0:0:0:
256,192,118112,1,0,0:0:0:0:
256,192,118206,1,0,0:0:0:0:
256,192,118268,1,8,0:0:0:0:
256,192,118331,1,8,0:0:0:0:
256,192,118393,1,0,0:0:0:0:
256,192,118581,1,8,0:0:0:0:
256,192,118768,1,0,0:0:0:0:
256,192,119143,1,8,0:0:0:0:
256,192,119237,1,8,0:0:0:0:
256,192,119331,1,8,0:0:0:0:
256,192,119518,1,0,0:0:0:0:
256,192,119706,1,8,0:0:0:0:
256,192,119768,1,8,0:0:0:0:
256,192,119831,1,8,0:0:0:0:
256,192,119893,1,0,0:0:0:0:
256,192,119956,1,0,0:0:0:0:
256,192,120018,1,0,0:0:0:0:
256,192,120081,1,8,0:0:0:0:
256,192,120174,1,8,0:0:0:0:
256,192,120268,1,8,0:0:0:0:
256,192,120362,1,0,0:0:0:0:
256,192,120456,1,0,0:0:0:0:
256,192,120549,1,0,0:0:0:0:
256,192,120643,1,8,0:0:0:0:
256,192,120737,1,8,0:0:0:0:
256,192,120831,1,0,0:0:0:0:
256,192,121018,1,0,0:0:0:0:
256,192,121206,1,8,0:0:0:0:
256,192,121393,2,0,L|456:192,1,167.999994873047
256,192,121956,1,8,0:0:0:0:
256,192,122049,1,8,0:0:0:0:
256,192,122143,1,0,0:0:0:0:
256,192,122331,1,8,0:0:0:0:
256,192,122424,1,0,0:0:0:0:
256,192,122518,1,0,0:0:0:0:
256,192,122706,1,0,0:0:0:0:
256,192,122799,1,0,0:0:0:0:
256,192,122893,1,0,0:0:0:0:
256,192,123081,1,8,0:0:0:0:
256,192,123174,1,8,0:0:0:0:
256,192,123268,1,0,0:0:0:0:
256,192,123362,1,0,0:0:0:0:
256,192,123456,1,0,0:0:0:0:
256,192,123549,1,8,0:0:0:0:
256,192,123643,1,8,0:0:0:0:
256,192,123737,1,8,0:0:0:0:
256,192,123831,1,0,0:0:0:0:
256,192,123924,1,0,0:0:0:0:
256,192,124018,1,0,0:0:0:0:
256,192,124081,1,0,0:0:0:0:
256,192,124143,1,0,0:0:0:0:
256,192,124206,1,8,0:0:0:0:
256,192,124299,1,0,0:0:0:0:
256,192,124393,1,0,0:0:0:0:
256,192,124456,1,0,0:0:0:0:
256,192,124518,1,0,0:0:0:0:
256,192,124581,1,8,0:0:0:0:
256,192,124956,1,12,0:0:0:0:
256,192,125331,1,0,0:0:0:0:
256,192,125706,1,12,0:0:0:0:
256,192,126081,1,8,0:0:0:0:
256,192,126174,1,0,0:0:0:0:
256,192,126268,1,0,0:0:0:0:
256,192,126362,1,8,0:0:0:0:
256,192,126456,1,0,0:0:0:0:
256,192,126643,1,0,0:0:0:0:
256,192,126737,1,8,0:0:0:0:
256,192,126831,1,8,0:0:0:0:
256,192,127018,1,0,0:0:0:0:
256,192,127206,1,0,0:0:0:0:
256,192,127268,1,0,0:0:0:0:
256,192,127331,1,0,0:0:0:0:
256,192,127393,1,0,0:0:0:0:
256,192,127581,1,8,0:0:0:0:
256,192,127674,1,8,0:0:0:0:
256,192,127768,1,0,0:0:0:0:
256,192,127862,1,8,0:0:0:0:
256,192,127956,1,8,0:0:0:0:
256,192,128049,1,0,0:0:0:0:
256,192,128143,1,8,0:0:0:0:
256,192,128237,1,0,0:0:0:0:
256,192,128331,1,8,0:0:0:0:
256,192,128424,1,0,0:0:0:0:
256,192,128518,1,0,0:0:0:0:
256,192,128612,1,8,0:0:0:0:
256,192,128706,1,0,0:0:0:0:
256,192,128799,1,0,0:0:0:0:
256,192,128893,1,8,0:0:0:0:
256,192,129081,1,4,0:0:0:0:
256,192,129456,1,8,0:0:0:0:
256,192,129549,1,0,0:0:0:0:
256,192,129643,1,8,0:0:0:0:
256,192,129831,1,8,0:0:0:0:
256,192,129893,1,8,0:0:0:0:
256,192,129956,1,8,0:0:0:0:
256,192,130018,1,8,0:0:0:0:
256,192,130112,1,8,0:0:0:0:
256,192,130206,1,8,0:0:0:0:
256,192,130331,1,8,0:0:0:0:
256,192,130456,1,8,0:0:0:0:
256,192,130581,1,4,0:0:0:0:
256,192,130768,1,8,0:0:0:0:
256,192,131143,1,8,0:0:0:0:
256,192,131331,1,4,0:0:0:0:
256,192,131518,1,8,0:0:0:0:
256,192,131893,1,8,0:0:0:0:
256,192,132081,1,4,0:0:0:0:
256,192,132268,1,8,0:0:0:0:
256,192,132456,1,4,0:0:0:0:
256,192,132643,1,8,0:0:0:0:
256,192,132831,1,4,0:0:0:0:
256,192,133018,1,0,0:0:0:0:
256,192,133112,1,0,0:0:0:0:
256,192,133206,1,8,0:0:0:0:
256,192,133299,1,8,0:0:0:0:
256,192,133393,1,0,0:0:0:0:
256,192,133581,1,0,0:0:0:0:
256,192,133674,1,8,0:0:0:0:
256,192,133768,1,0,0:0:0:0:
256,192,133862,1,0,0:0:0:0:
256,192,133956,1,8,0:0:0:0:
256,192,134143,1,0,0:0:0:0:
256,192,134331,1,8,0:0:0:0:
256,192,134518,1,0,0:0:0:0:
256,192,134706,1,8,0:0:0:0:
256,192,134893,1,0,0:0:0:0:
256,192,135081,12,0,136487,0:0:0:0:
256,192,136862,5,4,0:0:0:0:
256,192,137049,1,0,0:0:0:0:
256,192,137143,1,0,0:0:0:0:
256,192,137237,1,8,0:0:0:0:
256,192,137330,1,0,0:0:0:0:
256,192,137424,1,0,0:0:0:0:
256,192,137518,1,0,0:0:0:0:
256,192,137612,1,0,0:0:0:0:
256,192,137705,1,0,0:0:0:0:
256,192,137799,1,0,0:0:0:0:
256,192,137893,1,0,0:0:0:0:
256,192,137987,1,8,0:0:0:0:
256,192,138080,1,0,0:0:0:0:
256,192,138174,1,0,0:0:0:0:
256,192,138268,1,0,0:0:0:0:
256,192,138362,1,0,0:0:0:0:
256,192,138455,1,0,0:0:0:0:
256,192,138549,1,0,0:0:0:0:
256,192,138643,1,0,0:0:0:0:
256,192,138737,1,8,0:0:0:0:
256,192,138830,1,0,0:0:0:0:
256,192,138924,1,0,0:0:0:0:
256,192,139018,1,0,0:0:0:0:
256,192,139112,1,0,0:0:0:0:
256,192,139205,1,8,0:0:0:0:
256,192,139299,1,8,0:0:0:0:
256,192,139393,1,0,0:0:0:0:
256,192,139487,1,8,0:0:0:0:
256,192,139580,1,0,0:0:0:0:
256,192,139674,1,8,0:0:0:0:
256,192,139768,1,8,0:0:0:0:
256,192,139862,1,0,0:0:0:0:
256,192,140049,1,0,0:0:0:0:
256,192,140143,1,0,0:0:0:0:
256,192,140237,1,8,0:0:0:0:
256,192,140330,1,0,0:0:0:0:
256,192,140424,1,0,0:0:0:0:
256,192,140518,1,8,0:0:0:0:
256,192,140612,1,0,0:0:0:0:
256,192,140705,1,8,0:0:0:0:
256,192,140799,1,8,0:0:0:0:
256,192,140893,1,0,0:0:0:0:
256,192,140987,1,8,0:0:0:0:
256,192,141080,1,0,0:0:0:0:
256,192,141174,1,0,0:0:0:0:
256,192,141268,1,8,0:0:0:0:
256,192,141362,1,8,0:0:0:0:
256,192,141455,1,0,0:0:0:0:
256,192,141549,1,8,0:0:0:0:
256,192,141643,1,0,0:0:0:0:
256,192,141737,1,0,0:0:0:0:
256,192,141830,1,8,0:0:0:0:
256,192,141924,1,0,0:0:0:0:
256,192,142018,1,0,0:0:0:0:
256,192,142112,1,8,0:0:0:0:
256,192,142205,1,0,0:0:0:0:
256,192,142299,1,8,0:0:0:0:
256,192,142393,1,0,0:0:0:0:
256,192,142487,1,8,0:0:0:0:
256,192,142580,1,8,0:0:0:0:
256,192,142674,1,8,0:0:0:0:
256,192,142768,1,8,0:0:0:0:
256,192,142862,1,0,0:0:0:0:
256,192,143049,1,0,0:0:0:0:
256,192,143143,1,0,0:0:0:0:
256,192,143237,1,8,0:0:0:0:
256,192,143330,1,0,0:0:0:0:
256,192,143424,1,0,0:0:0:0:
256,192,143518,1,0,0:0:0:0:
256,192,143612,1,0,0:0:0:0:
256,192,143705,1,8,0:0:0:0:
256,192,143799,1,0,0:0:0:0:
256,192,143893,1,0,0:0:0:0:
256,192,143987,1,8,0:0:0:0:
256,192,144080,1,0,0:0:0:0:
256,192,144174,1,0,0:0:0:0:
256,192,144268,1,0,0:0:0:0:
256,192,144362,1,0,0:0:0:0:
256,192,144455,1,0,0:0:0:0:
256,192,144549,1,8,0:0:0:0:
256,192,144643,1,0,0:0:0:0:
256,192,144737,1,8,0:0:0:0:
256,192,144830,1,0,0:0:0:0:
256,192,144924,1,0,0:0:0:0:
256,192,145018,1,0,0:0:0:0:
256,192,145112,1,0,0:0:0:0:
256,192,145205,1,8,0:0:0:0:
256,192,145299,1,0,0:0:0:0:
256,192,145393,1,0,0:0:0:0:
256,192,145487,1,8,0:0:0:0:
256,192,145580,1,0,0:0:0:0:
256,192,145674,1,0,0:0:0:0:
256,192,145768,1,0,0:0:0:0:
256,192,145862,1,8,0:0:0:0:
256,192,145955,1,0,0:0:0:0:
256,192,146049,1,8,0:0:0:0:
256,192,146143,1,8,0:0:0:0:
256,192,146237,1,0,0:0:0:0:
256,192,146330,1,8,0:0:0:0:
256,192,146424,1,0,0:0:0:0:
256,192,146518,1,8,0:0:0:0:
256,192,146612,1,8,0:0:0:0:
256,192,146705,1,8,0:0:0:0:
256,192,146799,1,0,0:0:0:0:
256,192,146893,1,0,0:0:0:0:
256,192,146987,1,8,0:0:0:0:
256,192,147080,1,0,0:0:0:0:
256,192,147174,1,0,0:0:0:0:
256,192,147549,1,8,0:0:0:0:
256,192,147612,1,8,0:0:0:0:
256,192,147674,1,8,0:0:0:0:
256,192,147924,1,8,0:0:0:0:
256,192,147987,1,8,0:0:0:0:
256,192,148049,1,8,0:0:0:0:
256,192,148299,1,8,0:0:0:0:
256,192,148362,1,8,0:0:0:0:
256,192,148487,1,8,0:0:0:0:
256,192,148549,1,8,0:0:0:0:
256,192,148612,1,8,0:0:0:0:
256,192,148674,1,8,0:0:0:0:
256,192,148862,1,0,0:0:0:0:
256,192,148955,1,8,0:0:0:0:
256,192,149049,1,0,0:0:0:0:
256,192,149143,1,0,0:0:0:0:
256,192,149237,1,8,0:0:0:0:
256,192,149424,1,0,0:0:0:0:
256,192,149612,1,0,0:0:0:0:
256,192,149987,1,12,0:0:0:0:
256,192,150362,1,4,0:0:0:0:
256,192,150737,1,8,0:0:0:0:
256,192,150924,1,0,0:0:0:0:
256,192,151018,1,0,0:0:0:0:
256,192,151112,1,8,0:0:0:0:
256,192,151299,1,0,0:0:0:0:
256,192,151393,1,0,0:0:0:0:
256,192,151487,1,8,0:0:0:0:
256,192,151674,1,0,0:0:0:0:
256,192,151768,1,0,0:0:0:0:
256,192,151862,1,8,0:0:0:0:
256,192,151955,1,8,0:0:0:0:
256,192,152049,1,0,0:0:0:0:
256,192,152143,1,0,0:0:0:0:
256,192,152237,1,8,0:0:0:0:
256,192,152424,1,0,0:0:0:0:
256,192,152518,1,0,0:0:0:0:
256,192,152612,1,8,0:0:0:0:
256,192,152705,1,0,0:0:0:0:
256,192,152799,1,0,0:0:0:0:
256,192,152893,1,0,0:0:0:0:
256,192,152987,1,8,0:0:0:0:
256,192,153080,1,0,0:0:0:0:
256,192,153174,1,8,0:0:0:0:
256,192,153362,1,8,0:0:0:0:
256,192,153455,1,0,0:0:0:0:
256,192,153549,1,0,0:0:0:0:
256,192,153643,1,0,0:0:0:0:
256,192,153737,1,8,0:0:0:0:
256,192,153830,1,8,0:0:0:0:
256,192,153924,1,0,0:0:0:0:
256,192,154018,1,8,0:0:0:0:
256,192,154112,1,8,0:0:0:0:
256,192,154205,1,0,0:0:0:0:
256,192,154299,1,8,0:0:0:0:
256,192,154393,1,0,0:0:0:0:
256,192,154487,1,8,0:0:0:0:
256,192,154580,1,8,0:0:0:0:
256,192,154674,1,0,0:0:0:0:
256,192,154768,1,8,0:0:0:0:
256,192,154862,1,8,0:0:0:0:
256,192,155049,1,0,0:0:0:0:
256,192,155143,1,0,0:0:0:0:
256,192,155237,1,8,0:0:0:0:
256,192,155424,1,0,0:0:0:0:
256,192,155612,1,8,0:0:0:0:
256,192,155799,1,8,0:0:0:0:
256,192,155893,1,8,0:0:0:0:
256,192,155987,1,0,0:0:0:0:
256,192,156174,1,8,0:0:0:0:
256,192,156268,1,8,0:0:0:0:
256,192,156362,1,0,0:0:0:0:
256,192,156455,1,0,0:0:0:0:
256,192,156549,1,8,0:0:0:0:
256,192,156737,1,0,0:0:0:0:
256,192,156830,1,0,0:0:0:0:
256,192,156924,1,8,0:0:0:0:
256,192,157112,1,0,0:0:0:0:
256,192,157205,1,0,0:0:0:0:
256,192,157299,1,8,0:0:0:0:
256,192,157393,1,8,0:0:0:0:
256,192,157487,1,0,0:0:0:0:
256,192,157580,1,0,0:0:0:0:
256,192,157674,1,8,0:0:0:0:
256,192,157862,1,0,0:0:0:0:
256,192,157955,1,0,0:0:0:0:
256,192,158049,1,8,0:0:0:0:
256,192,158237,1,0,0:0:0:0:
256,192,158330,1,0,0:0:0:0:
256,192,158424,1,8,0:0:0:0:
256,192,158518,1,0,0:0:0:0:
256,192,158612,1,8,0:0:0:0:
256,192,158705,1,0,0:0:0:0:
256,192,158799,1,8,0:0:0:0:
256,192,158893,1,8,0:0:0:0:
256,192,158987,1,0,0:0:0:0:
256,192,159174,1,8,0:0:0:0:
256,192,159362,1,8,0:0:0:0:
256,192,159549,1,0,0:0:0:0:
256,192,159643,1,0,0:0:0:0:
256,192,159737,1,8,0:0:0:0:
256,192,159924,1,0,0:0:0:0:
256,192,160018,1,0,0:0:0:0:
256,192,160112,1,8,0:0:0:0:
256,192,160299,1,0,0:0:0:0:
256,192,160393,1,0,0:0:0:0:
256,192,160487,1,8,0:0:0:0:
256,192,160674,1,8,0:0:0:0:
256,192,160862,1,8,0:0:0:0:
256,192,160955,1,8,0:0:0:0:
256,192,161049,1,0,0:0:0:0:
256,192,161143,1,0,0:0:0:0:
256,192,161237,1,8,0:0:0:0:
256,192,161424,1,8,0:0:0:0:
256,192,161612,1,0,0:0:0:0:
256,192,161799,1,8,0:0:0:0:
256,192,161893,1,8,0:0:0:0:
256,192,161987,1,0,0:0:0:0:
256,192,162049,1,0,0:0:0:0:
256,192,162112,1,0,0:0:0:0:
256,192,162174,1,0,0:0:0:0:
256,192,162362,1,12,0:0:0:0:
256,192,162737,1,8,0:0:0:0:
256,192,162924,1,0,0:0:0:0:
256,192,163112,1,8,0:0:0:0:
256,192,163487,1,8,0:0:0:0:
256,192,163862,1,8,0:0:0:0:
256,192,164049,1,0,0:0:0:0:
256,192,164143,1,0,0:0:0:0:
256,192,164237,1,8,0:0:0:0:
256,192,164424,1,0,0:0:0:0:
256,192,164612,1,8,0:0:0:0:
256,192,164799,1,0,0:0:0:0:
256,192,164987,1,8,0:0:0:0:
256,192,165174,1,8,0:0:0:0:
256,192,165362,1,8,0:0:0:0:
256,192,165455,1,8,0:0:0:0:
256,192,165643,1,0,0:0:0:0:
256,192,165737,1,8,0:0:0:0:
256,192,165924,1,0,0:0:0:0:
256,192,166112,1,8,0:0:0:0:
256,192,166205,1,0,0:0:0:0:
256,192,166393,1,0,0:0:0:0:
256,192,166487,1,8,0:0:0:0:
256,192,166580,1,8,0:0:0:0:
256,192,166674,1,0,0:0:0:0:
256,192,166768,1,8,0:0:0:0:
256,192,166862,1,8,0:0:0:0:
256,192,167049,1,0,0:0:0:0:
256,192,167237,1,8,0:0:0:0:
256,192,167424,1,0,0:0:0:0:
256,192,167612,1,8,0:0:0:0:
256,192,167799,1,0,0:0:0:0:
256,192,167893,1,0,0:0:0:0:
256,192,167987,1,8,0:0:0:0:
256,192,168174,1,0,0:0:0:0:
256,192,168362,1,8,0:0:0:0:
256,192,168549,1,0,0:0:0:0:
256,192,168737,1,8,0:0:0:0:
256,192,168924,1,0,0:0:0:0:
256,192,169112,1,8,0:0:0:0:
256,192,169299,1,0,0:0:0:0:
256,192,169487,1,8,0:0:0:0:
256,192,169674,1,0,0:0:0:0:
256,192,169768,1,0,0:0:0:0:
256,192,169862,1,8,0:0:0:0:
256,192,170049,1,8,0:0:0:0:
256,192,170143,1,8,0:0:0:0:
256,192,170237,1,8,0:0:0:0:
256,192,170424,1,0,0:0:0:0:
256,192,170612,1,8,0:0:0:0:
256,192,170799,1,0,0:0:0:0:
256,192,170987,1,8,0:0:0:0:
256,192,171174,1,8,0:0:0:0:
256,192,171362,1,8,0:0:0:0:
256,192,171455,1,0,0:0:0:0:
256,192,171549,1,0,0:0:0:0:
256,192,171643,1,8,0:0:0:0:
256,192,171830,1,0,0:0:0:0:
256,192,171924,1,8,0:0:0:0:
256,192,172018,1,0,0:0:0:0:
256,192,172112,1,8,0:0:0:0:
256,192,172205,1,8,0:0:0:0:
256,192,172299,1,0,0:0:0:0:
256,192,172393,1,8,0:0:0:0:
256,192,172580,1,0,0:0:0:0:
256,192,172674,1,8,0:0:0:0:
256,192,172768,1,0,0:0:0:0:
256,192,172862,1,8,0:0:0:0:
256,192,172955,1,8,0:0:0:0:
256,192,173049,1,0,0:0:0:0:
256,192,173143,1,0,0:0:0:0:
256,192,173237,1,8,0:0:0:0:
256,192,173424,1,8,0:0:0:0:
256,192,173612,1,0,0:0:0:0:
256,192,173799,1,0,0:0:0:0:
256,192,173893,1,0,0:0:0:0:
256,192,173987,1,0,0:0:0:0:
256,192,174049,1,0,0:0:0:0:
256,192,174112,1,0,0:0:0:0:
256,192,174174,1,0,0:0:0:0:
256,192,174362,1,12,0:0:0:0:
256,192,174549,1,0,0:0:0:0:
256,192,174643,1,0,0:0:0:0:
256,192,174737,1,8,0:0:0:0:
256,192,174830,1,0,0:0:0:0:
256,192,174924,1,0,0:0:0:0:
256,192,175018,1,0,0:0:0:0:
256,192,175112,1,8,0:0:0:0:
256,192,175205,1,8,0:0:0:0:
256,192,175299,1,0,0:0:0:0:
256,192,175393,1,8,0:0:0:0:
256,192,175487,1,0,0:0:0:0:
256,192,175580,1,0,0:0:0:0:
256,192,175674,1,8,0:0:0:0:
256,192,175768,1,0,0:0:0:0:
256,192,175862,1,8,0:0:0:0:
256,192,175955,1,8,0:0:0:0:
256,192,176049,1,0,0:0:0:0:
256,192,176143,1,0,0:0:0:0:
256,192,176237,1,8,0:0:0:0:
256,192,176330,1,0,0:0:0:0:
256,192,176424,1,8,0:0:0:0:
256,192,176518,1,8,0:0:0:0:
256,192,176612,1,8,0:0:0:0:
256,192,176705,1,0,0:0:0:0:
256,192,176799,1,8,0:0:0:0:
256,192,176893,1,0,0:0:0:0:
256,192,176987,1,8,0:0:0:0:
256,192,177080,1,0,0:0:0:0:
256,192,177174,1,0,0:0:0:0:
256,192,177237,1,0,0:0:0:0:
256,192,177299,1,0,0:0:0:0:
256,192,177362,1,8,0:0:0:0:
256,192,177455,1,0,0:0:0:0:
256,192,177549,1,8,0:0:0:0:
256,192,177643,1,0,0:0:0:0:
256,192,177737,1,8,0:0:0:0:
256,192,177799,1,8,0:0:0:0:
256,192,177862,1,8,0:0:0:0:
256,192,177924,1,0,0:0:0:0:
256,192,178018,1,8,0:0:0:0:
256,192,178112,1,0,0:0:0:0:
256,192,178205,1,0,0:0:0:0:
256,192,178299,1,8,0:0:0:0:
256,192,178393,1,0,0:0:0:0:
256,192,178487,1,8,0:0:0:0:
256,192,178580,1,8,0:0:0:0:
256,192,178674,1,8,0:0:0:0:
256,192,178768,1,0,0:0:0:0:
256,192,178862,1,8,0:0:0:0:
256,192,178955,1,8,0:0:0:0:
256,192,179049,1,0,0:0:0:0:
256,192,179143,1,8,0:0:0:0:
256,192,179237,1,8,0:0:0:0:
256,192,179330,1,0,0:0:0:0:
256,192,179424,1,8,0:0:0:0:
256,192,179518,1,0,0:0:0:0:
256,192,179612,1,8,0:0:0:0:
256,192,179674,1,0,0:0:0:0:
256,192,179737,1,0,0:0:0:0:
256,192,179799,1,0,0:0:0:0:
256,192,179893,1,0,0:0:0:0:
256,192,179987,1,8,0:0:0:0:
256,192,180049,1,0,0:0:0:0:
256,192,180112,1,0,0:0:0:0:
256,192,180174,1,8,0:0:0:0:
256,192,180362,1,4,0:0:0:0:
256,192,180549,1,8,0:0:0:0:
256,192,180737,1,0,0:0:0:0:
256,192,180830,1,0,0:0:0:0:
256,192,180924,1,8,0:0:0:0:
256,192,181112,1,0,0:0:0:0:
256,192,181205,1,0,0:0:0:0:
256,192,181299,1,8,0:0:0:0:
256,192,181487,1,0,0:0:0:0:
256,192,181580,1,0,0:0:0:0:
256,192,181674,1,8,0:0:0:0:
256,192,181768,1,8,0:0:0:0:
256,192,181862,1,0,0:0:0:0:
256,192,181955,1,0,0:0:0:0:
256,192,182049,1,8,0:0:0:0:
256,192,182237,1,0,0:0:0:0:
256,192,182330,1,8,0:0:0:0:
256,192,182424,1,0,0:0:0:0:
256,192,182518,1,0,0:0:0:0:
256,192,182612,1,8,0:0:0:0:
256,192,182705,1,0,0:0:0:0:
256,192,182799,1,0,0:0:0:0:
256,192,182893,1,8,0:0:0:0:
256,192,182987,1,8,0:0:0:0:
256,192,183080,1,8,0:0:0:0:
256,192,183174,1,0,0:0:0:0:
256,192,183268,1,0,0:0:0:0:
256,192,183362,1,8,0:0:0:0:
256,192,183424,1,0,0:0:0:0:
256,192,183487,1,0,0:0:0:0:
256,192,183549,1,0,0:0:0:0:
256,192,183643,1,0,0:0:0:0:
256,192,183737,1,8,0:0:0:0:
256,192,183799,1,0,0:0:0:0:
256,192,183862,1,0,0:0:0:0:
256,192,183924,1,8,0:0:0:0:
256,192,184018,1,0,0:0:0:0:
256,192,184112,1,8,0:0:0:0:
256,192,184174,1,0,0:0:0:0:
256,192,184237,1,0,0:0:0:0:
256,192,184299,1,0,0:0:0:0:
256,192,184393,1,8,0:0:0:0:
256,192,184487,1,8,0:0:0:0:
256,192,184549,1,0,0:0:0:0:
256,192,184612,1,0,0:0:0:0:
256,192,184674,1,8,0:0:0:0:
256,192,184862,1,8,0:0:0:0:
256,192,184955,1,8,0:0:0:0:
256,192,185049,1,0,0:0:0:0:
256,192,185143,1,0,0:0:0:0:
256,192,185237,1,8,0:0:0:0:
256,192,185424,1,8,0:0:0:0:
256,192,185612,1,8,0:0:0:0:
256,192,185799,1,0,0:0:0:0:
256,192,185893,1,0,0:0:0:0:
256,192,185987,1,0,0:0:0:0:
256,192,186049,1,0,0:0:0:0:
256,192,186112,1,0,0:0:0:0:
256,192,186174,1,0,0:0:0:0:
256,192,186362,12,0,192901,0:0:0:0:
