osu file format v13

[General]
AudioFilename: Rainbowdragoneyes - -.mp3
AudioLeadIn: 0
PreviewTime: 92991
Countdown: 0
SampleSet: None
StackLeniency: 0.7
Mode: 1
LetterboxInBreaks: 0
WidescreenStoryboard: 1

[Editor]
DistanceSpacing: 0.8
BeatDivisor: 4
GridSize: 8
TimelineZoom: 1

[Metadata]
Title:Seize My Day
TitleUnicode:Seize My Day
Artist:Rainbowdragoneyes
ArtistUnicode:Rainbowdragoneyes
Creator:Mew104
Version:Futsuu
Source:
Tags:rainbow dragon eyes uentitled mew 104 taiko 8 bit 8-bit gameboy chiptune
BeatmapID:566290
BeatmapSetID:224043

[Difficulty]
HPDrainRate:3
CircleSize:4
OverallDifficulty:4
ApproachRate:7
SliderMultiplier:1.4
SliderTickRate:1

[Events]
//Background and Video events
0,0,"old_game_8-bit_textures_hd-wallpaper-157419.jpg",0,0
//Break Periods
//Storyboard Layer 0 (Background)
//Storyboard Layer 1 (Fail)
//Storyboard Layer 2 (Pass)
//Storyboard Layer 3 (Foreground)
//Storyboard Sound Samples
//Background Colour Transformations
3,100,163,162,255

[TimingPoints]
81,375,4,2,0,50,1,0
22534,-100,4,1,0,50,0,0
26987,-100,4,1,0,90,0,0
63081,-100,4,1,0,90,0,1
75081,-100,4,1,0,90,0,0
87081,-100,4,1,0,90,0,1
93081,-100,4,1,0,90,0,0
99081,-100,4,1,0,50,0,0
100518,-100,4,1,0,90,0,0
111174,-100,4,1,0,60,0,0
112581,-100,4,1,0,90,0,0
124581,-100,4,1,0,90,0,1
135081,375,5,1,0,90,1,0
135081,-100,5,1,0,90,0,0
136862,375,4,1,0,90,1,0
136862,-100,4,1,0,90,0,0
147362,-100,4,1,0,50,0,0
148674,-100,4,1,0,40,0,0
149799,-100,4,1,0,90,0,0
150362,-100,4,1,0,90,0,1
156362,-100,4,1,0,90,0,0
162362,-100,4,1,0,65,0,0
171268,-100,4,1,0,70,0,0
172018,-100,4,1,0,75,0,0
172768,-100,4,1,0,80,0,0
174362,-100,4,1,0,90,0,1
186362,-100,4,1,0,90,0,0
192901,-100,4,1,0,5,0,0

[HitObjects]
256,192,81,5,0,0:0:0:0:
256,192,456,1,8,0:0:0:0:
256,192,1206,1,8,0:0:0:0:
256,192,1956,1,8,0:0:0:0:
256,192,2706,1,8,0:0:0:0:
256,192,3081,1,0,0:0:0:0:
256,192,3456,1,8,0:0:0:0:
256,192,4206,1,8,0:0:0:0:
256,192,4956,1,8,0:0:0:0:
256,192,5706,1,8,0:0:0:0:
256,192,6081,1,0,0:0:0:0:
256,192,6268,1,0,0:0:0:0:
256,192,6456,1,8,0:0:0:0:
256,192,7206,1,8,0:0:0:0:
256,192,7956,1,8,0:0:0:0:
256,192,8706,1,8,0:0:0:0:
256,192,9081,1,0,0:0:0:0:
256,192,9268,1,0,0:0:0:0:
256,192,9456,1,8,0:0:0:0:
256,192,10206,1,8,0:0:0:0:
256,192,10581,1,8,0:0:0:0:
256,192,10956,1,8,0:0:0:0:
256,192,11143,1,8,0:0:0:0:
256,192,11331,1,8,0:0:0:0:
256,192,11706,1,8,0:0:0:0:
256,192,12081,1,0,0:0:0:0:
256,192,12831,1,8,0:0:0:0:
256,192,13018,1,8,0:0:0:0:
256,192,13206,1,0,0:0:0:0:
256,192,13581,1,0,0:0:0:0:
256,192,14331,1,0,0:0:0:0:
256,192,14518,1,0,0:0:0:0:
256,192,14893,1,0,0:0:0:0:
256,192,15081,1,8,0:0:0:0:
256,192,15456,1,8,0:0:0:0:
256,192,15831,1,8,0:0:0:0:
256,192,16206,1,8,0:0:0:0:
256,192,16393,1,8,0:0:0:0:
256,192,16581,1,0,0:0:0:0:
256,192,16956,1,0,0:0:0:0:
256,192,17331,1,8,0:0:0:0:
256,192,17706,1,0,0:0:0:0:
256,192,18081,1,0,0:0:0:0:
256,192,18831,1,8,0:0:0:0:
256,192,19018,1,8,0:0:0:0:
256,192,19206,1,0,0:0:0:0:
256,192,19581,1,0,0:0:0:0:
256,192,20331,1,0,0:0:0:0:
256,192,20518,1,0,0:0:0:0:
256,192,20893,1,0,0:0:0:0:
256,192,21081,1,8,0:0:0:0:
256,192,21456,1,8,0:0:0:0:
256,192,21831,1,8,0:0:0:0:
256,192,22206,1,8,0:0:0:0:
256,192,22393,1,8,0:0:0:0:
256,192,22581,1,0,0:0:0:0:
256,192,22956,1,8,0:0:0:0:
256,192,23331,1,0,0:0:0:0:
256,192,23706,12,0,26143,0:0:0:0:
256,192,27081,5,4,0:0:0:0:
256,192,27456,1,8,0:0:0:0:
256,192,27831,1,0,0:0:0:0:
256,192,28206,1,8,0:0:0:0:
256,192,28956,1,8,0:0:0:0:
256,192,29331,1,0,0:0:0:0:
256,192,29518,1,0,0:0:0:0:
256,192,29706,1,8,0:0:0:0:
256,192,30081,1,8,0:0:0:0:
256,192,30456,1,0,0:0:0:0:
256,192,30831,1,8,0:0:0:0:
256,192,31206,1,8,0:0:0:0:
256,192,31393,1,8,0:0:0:0:
256,192,31581,1,0,0:0:0:0:
256,192,31956,1,0,0:0:0:0:
256,192,32331,1,8,0:0:0:0:
256,192,32706,1,0,0:0:0:0:
256,192,33081,1,0,0:0:0:0:
256,192,33268,1,8,0:0:0:0:
256,192,33643,1,8,0:0:0:0:
256,192,34018,1,8,0:0:0:0:
256,192,34393,1,8,0:0:0:0:
256,192,34768,1,8,0:0:0:0:
256,192,35143,1,8,0:0:0:0:
256,192,35331,1,0,0:0:0:0:
256,192,35706,1,8,0:0:0:0:
256,192,35893,1,8,0:0:0:0:
256,192,36081,1,0,0:0:0:0:
256,192,36456,1,0,0:0:0:0:
256,192,36831,1,8,0:0:0:0:
256,192,37206,1,0,0:0:0:0:
256,192,37581,1,0,0:0:0:0:
256,192,37768,1,0,0:0:0:0:
256,192,37956,1,8,0:0:0:0:
256,192,38331,1,0,0:0:0:0:
256,192,39081,1,4,0:0:0:0:
256,192,39456,1,8,0:0:0:0:
256,192,39831,1,0,0:0:0:0:
256,192,40206,1,8,0:0:0:0:
256,192,40393,1,0,0:0:0:0:
256,192,40768,1,0,0:0:0:0:
256,192,40956,1,8,0:0:0:0:
256,192,41331,1,0,0:0:0:0:
256,192,41706,1,8,0:0:0:0:
256,192,42081,1,0,0:0:0:0:
256,192,42456,1,8,0:0:0:0:
256,192,42831,1,0,0:0:0:0:
256,192,43018,1,0,0:0:0:0:
256,192,43206,1,8,0:0:0:0:
256,192,43581,1,0,0:0:0:0:
256,192,43956,1,8,0:0:0:0:
256,192,44331,1,0,0:0:0:0:
256,192,44518,1,8,0:0:0:0:
256,192,44706,1,8,0:0:0:0:
256,192,45081,1,0,0:0:0:0:
256,192,45456,1,8,0:0:0:0:
256,192,45831,1,0,0:0:0:0:
256,192,46206,1,8,0:0:0:0:
256,192,46956,1,8,0:0:0:0:
256,192,47331,1,0,0:0:0:0:
256,192,47518,1,0,0:0:0:0:
256,192,47706,1,8,0:0:0:0:
256,192,48081,1,0,0:0:0:0:
256,192,48456,1,8,0:0:0:0:
256,192,48831,1,0,0:0:0:0:
256,192,49206,1,8,0:0:0:0:
256,192,49581,1,0,0:0:0:0:
256,192,49956,1,8,0:0:0:0:
256,192,50143,1,0,0:0:0:0:
256,192,50518,1,0,0:0:0:0:
256,192,50706,1,8,0:0:0:0:
256,192,51081,1,4,0:0:0:0:
256,192,51456,1,8,0:0:0:0:
256,192,51831,1,0,0:0:0:0:
256,192,52206,1,8,0:0:0:0:
256,192,52393,1,0,0:0:0:0:
256,192,52956,1,8,0:0:0:0:
256,192,53331,1,0,0:0:0:0:
256,192,53706,1,8,0:0:0:0:
256,192,53893,1,0,0:0:0:0:
256,192,54081,1,0,0:0:0:0:
256,192,54456,1,8,0:0:0:0:
256,192,54831,1,0,0:0:0:0:
256,192,55018,1,0,0:0:0:0:
256,192,55206,1,8,0:0:0:0:
256,192,55581,1,0,0:0:0:0:
256,192,55956,1,8,0:0:0:0:
256,192,56331,1,0,0:0:0:0:
256,192,56518,1,8,0:0:0:0:
256,192,56706,1,8,0:0:0:0:
256,192,57081,1,0,0:0:0:0:
256,192,57456,1,8,0:0:0:0:
256,192,57831,1,0,0:0:0:0:
256,192,58206,1,8,0:0:0:0:
256,192,58393,1,0,0:0:0:0:
256,192,58768,1,0,0:0:0:0:
256,192,58956,1,8,0:0:0:0:
256,192,59518,1,0,0:0:0:0:
256,192,59706,1,8,0:0:0:0:
256,192,60081,1,0,0:0:0:0:
256,192,60456,1,8,0:0:0:0:
256,192,60831,1,0,0:0:0:0:
256,192,61206,1,8,0:0:0:0:
256,192,61393,1,8,0:0:0:0:
256,192,61768,1,8,0:0:0:0:
256,192,62143,1,8,0:0:0:0:
256,192,62331,1,12,0:0:0:0:
256,192,62706,1,8,0:0:0:0:
256,192,63081,1,4,0:0:0:0:
256,192,63456,1,8,0:0:0:0:
256,192,63831,1,0,0:0:0:0:
256,192,64018,1,0,0:0:0:0:
256,192,64206,1,8,0:0:0:0:
256,192,64581,1,0,0:0:0:0:
256,192,64956,1,8,0:0:0:0:
256,192,65331,1,0,0:0:0:0:
256,192,65518,1,0,0:0:0:0:
256,192,65706,1,8,0:0:0:0:
256,192,66081,1,8,0:0:0:0:
256,192,66456,1,8,0:0:0:0:
256,192,66831,1,0,0:0:0:0:
256,192,67206,1,8,0:0:0:0:
256,192,67393,1,8,0:0:0:0:
256,192,67581,1,0,0:0:0:0:
256,192,67956,1,8,0:0:0:0:
256,192,68331,1,0,0:0:0:0:
256,192,68518,1,0,0:0:0:0:
256,192,68706,1,8,0:0:0:0:
256,192,69081,1,4,0:0:0:0:
256,192,69456,1,8,0:0:0:0:
256,192,70018,1,0,0:0:0:0:
256,192,70206,1,8,0:0:0:0:
256,192,70581,1,0,0:0:0:0:
256,192,70768,1,0,0:0:0:0:
256,192,70956,1,8,0:0:0:0:
256,192,71518,1,0,0:0:0:0:
256,192,71706,1,8,0:0:0:0:
256,192,72081,1,0,0:0:0:0:
256,192,72456,1,8,0:0:0:0:
256,192,72831,1,0,0:0:0:0:
256,192,73206,1,8,0:0:0:0:
256,192,73581,1,0,0:0:0:0:
256,192,74331,2,8,L|424:192,1,140
256,192,75081,1,4,0:0:0:0:
256,192,75456,1,8,0:0:0:0:
256,192,76206,1,8,0:0:0:0:
256,192,76581,1,0,0:0:0:0:
256,192,76956,1,8,0:0:0:0:
256,192,77706,1,8,0:0:0:0:
256,192,78081,1,0,0:0:0:0:
256,192,78456,1,8,0:0:0:0:
256,192,79206,1,8,0:0:0:0:
256,192,79581,1,0,0:0:0:0:
256,192,79956,1,8,0:0:0:0:
256,192,80331,1,0,0:0:0:0:
256,192,80518,1,0,0:0:0:0:
256,192,80706,1,8,0:0:0:0:
256,192,81081,1,0,0:0:0:0:
256,192,81456,1,8,0:0:0:0:
256,192,82206,1,8,0:0:0:0:
256,192,82581,1,0,0:0:0:0:
256,192,82956,1,8,0:0:0:0:
256,192,83331,1,0,0:0:0:0:
256,192,83518,1,0,0:0:0:0:
256,192,83706,1,8,0:0:0:0:
256,192,84081,1,0,0:0:0:0:
256,192,84456,1,8,0:0:0:0:
256,192,84831,1,0,0:0:0:0:
256,192,85018,1,0,0:0:0:0:
256,192,85206,1,8,0:0:0:0:
256,192,85581,1,0,0:0:0:0:
256,192,85956,1,8,0:0:0:0:
256,192,86331,1,8,0:0:0:0:
256,192,86706,1,0,0:0:0:0:
256,192,87081,1,4,0:0:0:0:
256,192,87456,1,8,0:0:0:0:
256,192,87831,1,0,0:0:0:0:
256,192,88206,1,8,0:0:0:0:
256,192,88956,1,8,0:0:0:0:
256,192,89331,1,0,0:0:0:0:
256,192,89518,1,0,0:0:0:0:
256,192,89706,1,8,0:0:0:0:
256,192,90081,1,8,0:0:0:0:
256,192,90456,1,0,0:0:0:0:
256,192,90831,1,8,0:0:0:0:
256,192,91206,1,8,0:0:0:0:
256,192,91393,1,8,0:0:0:0:
256,192,91581,1,0,0:0:0:0:
256,192,91956,1,0,0:0:0:0:
256,192,92331,1,8,0:0:0:0:
256,192,92706,1,0,0:0:0:0:
256,192,93081,1,0,0:0:0:0:
256,192,93268,1,8,0:0:0:0:
256,192,93643,1,8,0:0:0:0:
256,192,94018,1,8,0:0:0:0:
256,192,94206,1,0,0:0:0:0:
256,192,94393,1,8,0:0:0:0:
256,192,94768,1,8,0:0:0:0:
256,192,95143,1,8,0:0:0:0:
256,192,95331,1,0,0:0:0:0:
256,192,95706,1,8,0:0:0:0:
256,192,95893,1,8,0:0:0:0:
256,192,96081,1,0,0:0:0:0:
256,192,96456,1,0,0:0:0:0:
256,192,96831,1,8,0:0:0:0:
256,192,97206,1,0,0:0:0:0:
256,192,97581,1,0,0:0:0:0:
256,192,97768,1,0,0:0:0:0:
256,192,97956,1,8,0:0:0:0:
256,192,98331,1,0,0:0:0:0:
256,192,99268,1,8,0:0:0:0:
256,192,99643,1,8,0:0:0:0:
256,192,100018,1,8,0:0:0:0:
256,192,100206,1,8,0:0:0:0:
256,192,100581,1,4,0:0:0:0:
256,192,100956,1,8,0:0:0:0:
256,192,101331,1,0,0:0:0:0:
256,192,101518,1,0,0:0:0:0:
256,192,101706,1,8,0:0:0:0:
256,192,102081,1,0,0:0:0:0:
256,192,102456,1,8,0:0:0:0:
256,192,102831,1,0,0:0:0:0:
256,192,103018,1,8,0:0:0:0:
256,192,103206,1,8,0:0:0:0:
256,192,103581,1,0,0:0:0:0:
256,192,103956,1,8,0:0:0:0:
256,192,104706,1,8,0:0:0:0:
256,192,105081,1,0,0:0:0:0:
256,192,105456,1,8,0:0:0:0:
256,192,105831,1,0,0:0:0:0:
256,192,106018,1,0,0:0:0:0:
256,192,106206,1,8,0:0:0:0:
256,192,106581,1,0,0:0:0:0:
256,192,106956,1,8,0:0:0:0:
256,192,107331,1,0,0:0:0:0:
256,192,107518,1,0,0:0:0:0:
256,192,107706,1,8,0:0:0:0:
256,192,107893,1,0,0:0:0:0:
256,192,108268,1,0,0:0:0:0:
256,192,108456,1,8,0:0:0:0:
256,192,108831,1,0,0:0:0:0:
256,192,109206,1,8,0:0:0:0:
256,192,109956,1,8,0:0:0:0:
256,192,110331,1,0,0:0:0:0:
256,192,110518,1,0,0:0:0:0:
256,192,110706,1,8,0:0:0:0:
256,192,110893,1,0,0:0:0:0:
256,192,111268,1,8,0:0:0:0:
256,192,111643,1,8,0:0:0:0:
256,192,112018,1,8,0:0:0:0:
256,192,112206,1,8,0:0:0:0:
256,192,112581,1,4,0:0:0:0:
256,192,112956,1,8,0:0:0:0:
256,192,113331,1,0,0:0:0:0:
256,192,113706,1,8,0:0:0:0:
256,192,114081,1,0,0:0:0:0:
256,192,114456,1,8,0:0:0:0:
256,192,114831,1,0,0:0:0:0:
256,192,115018,1,0,0:0:0:0:
256,192,115206,1,8,0:0:0:0:
256,192,115393,1,8,0:0:0:0:
256,192,115581,1,0,0:0:0:0:
256,192,115956,1,8,0:0:0:0:
256,192,116143,1,0,0:0:0:0:
256,192,116331,1,8,0:0:0:0:
256,192,116706,1,8,0:0:0:0:
256,192,117081,1,8,0:0:0:0:
256,192,117268,1,8,0:0:0:0:
256,192,117456,1,0,0:0:0:0:
256,192,117643,1,0,0:0:0:0:
256,192,117831,1,8,0:0:0:0:
256,192,118206,1,8,0:0:0:0:
256,192,118581,1,0,0:0:0:0:
256,192,118956,1,8,0:0:0:0:
256,192,119331,1,0,0:0:0:0:
256,192,119518,1,0,0:0:0:0:
256,192,119706,1,8,0:0:0:0:
256,192,120081,1,0,0:0:0:0:
256,192,120456,1,8,0:0:0:0:
256,192,120831,1,0,0:0:0:0:
256,192,121018,1,0,0:0:0:0:
256,192,121206,1,8,0:0:0:0:
256,192,121393,1,0,0:0:0:0:
256,192,121768,1,0,0:0:0:0:
256,192,121956,1,8,0:0:0:0:
256,192,122331,1,0,0:0:0:0:
256,192,122706,1,8,0:0:0:0:
256,192,123081,1,0,0:0:0:0:
256,192,123456,1,8,0:0:0:0:
256,192,123831,1,0,0:0:0:0:
256,192,124018,1,0,0:0:0:0:
256,192,124206,1,8,0:0:0:0:
256,192,124393,1,0,0:0:0:0:
256,192,124581,1,4,0:0:0:0:
256,192,124956,1,12,0:0:0:0:
256,192,125331,1,0,0:0:0:0:
256,192,125706,1,12,0:0:0:0:
256,192,126081,1,0,0:0:0:0:
256,192,126456,1,12,0:0:0:0:
256,192,126831,1,0,0:0:0:0:
256,192,127206,1,12,0:0:0:0:
256,192,127581,1,0,0:0:0:0:
256,192,127956,1,8,0:0:0:0:
256,192,128331,1,0,0:0:0:0:
256,192,128518,1,0,0:0:0:0:
256,192,128706,1,8,0:0:0:0:
256,192,129081,1,0,0:0:0:0:
256,192,129456,1,8,0:0:0:0:
256,192,129831,2,0,L|416:192,1,140
256,192,130581,1,4,0:0:0:0:
256,192,131331,1,4,0:0:0:0:
256,192,132081,1,4,0:0:0:0:
256,192,132456,1,4,0:0:0:0:
256,192,132831,1,4,0:0:0:0:
256,192,133206,1,12,0:0:0:0:
256,192,133581,1,0,0:0:0:0:
256,192,133956,1,8,0:0:0:0:
256,192,134331,1,0,0:0:0:0:
256,192,134518,1,0,0:0:0:0:
256,192,134706,1,8,0:0:0:0:
256,192,134893,1,0,0:0:0:0:
256,192,135081,12,0,136206,0:0:0:0:
256,192,136862,5,4,0:0:0:0:
256,192,137237,1,8,0:0:0:0:
256,192,137987,1,8,0:0:0:0:
256,192,138362,1,0,0:0:0:0:
256,192,138737,1,8,0:0:0:0:
256,192,139487,1,8,0:0:0:0:
256,192,139862,1,0,0:0:0:0:
256,192,140237,1,8,0:0:0:0:
256,192,140987,1,8,0:0:0:0:
256,192,141362,1,0,0:0:0:0:
256,192,141737,1,8,0:0:0:0:
256,192,142112,1,0,0:0:0:0:
256,192,142299,1,0,0:0:0:0:
256,192,142487,1,8,0:0:0:0:
256,192,142674,1,0,0:0:0:0:
256,192,142862,1,0,0:0:0:0:
256,192,143237,1,8,0:0:0:0:
256,192,143987,1,8,0:0:0:0:
256,192,144362,1,0,0:0:0:0:
256,192,144737,1,8,0:0:0:0:
256,192,145112,1,0,0:0:0:0:
256,192,145299,1,0,0:0:0:0:
256,192,145487,1,8,0:0:0:0:
256,192,145862,1,0,0:0:0:0:
256,192,146237,1,8,0:0:0:0:
256,192,146612,1,0,0:0:0:0:
256,192,146799,1,0,0:0:0:0:
256,192,146987,1,8,0:0:0:0:
256,192,147174,1,0,0:0:0:0:
256,192,147549,1,8,0:0:0:0:
256,192,147924,1,8,0:0:0:0:
256,192,148299,1,8,0:0:0:0:
256,192,148487,1,8,0:0:0:0:
256,192,148862,1,0,0:0:0:0:
256,192,149237,1,8,0:0:0:0:
256,192,149612,1,0,0:0:0:0:
256,192,150362,1,4,0:0:0:0:
256,192,150737,1,8,0:0:0:0:
256,192,151112,1,0,0:0:0:0:
256,192,151487,1,8,0:0:0:0:
256,192,151862,1,0,0:0:0:0:
256,192,152237,1,8,0:0:0:0:
256,192,152612,1,0,0:0:0:0:
256,192,152799,1,0,0:0:0:0:
256,192,152987,1,8,0:0:0:0:
256,192,153174,1,8,0:0:0:0:
256,192,153362,1,8,0:0:0:0:
256,192,153737,1,0,0:0:0:0:
256,192,154112,1,8,0:0:0:0:
256,192,154487,1,8,0:0:0:0:
256,192,154674,1,8,0:0:0:0:
256,192,154862,1,0,0:0:0:0:
256,192,155237,1,0,0:0:0:0:
256,192,155612,1,8,0:0:0:0:
256,192,155987,1,0,0:0:0:0:
256,192,156362,1,0,0:0:0:0:
256,192,156549,1,8,0:0:0:0:
256,192,156924,1,8,0:0:0:0:
256,192,157299,1,8,0:0:0:0:
256,192,157487,1,0,0:0:0:0:
256,192,157674,1,8,0:0:0:0:
256,192,158049,1,8,0:0:0:0:
256,192,158424,1,8,0:0:0:0:
256,192,158612,1,0,0:0:0:0:
256,192,158987,1,8,0:0:0:0:
256,192,159174,1,8,0:0:0:0:
256,192,159362,1,0,0:0:0:0:
256,192,159737,1,0,0:0:0:0:
256,192,160112,1,8,0:0:0:0:
256,192,160487,1,0,0:0:0:0:
256,192,160862,1,0,0:0:0:0:
256,192,161049,1,0,0:0:0:0:
256,192,161237,1,8,0:0:0:0:
256,192,161612,1,0,0:0:0:0:
256,192,162362,5,12,0:0:0:0:
256,192,162737,1,8,0:0:0:0:
256,192,163112,1,8,0:0:0:0:
256,192,163487,1,8,0:0:0:0:
256,192,163862,1,8,0:0:0:0:
256,192,164237,1,8,0:0:0:0:
256,192,164612,1,8,0:0:0:0:
256,192,164799,1,8,0:0:0:0:
256,192,164987,1,8,0:0:0:0:
256,192,165174,1,8,0:0:0:0:
256,192,165362,1,8,0:0:0:0:
256,192,165737,1,0,0:0:0:0:
256,192,166112,1,8,0:0:0:0:
256,192,166487,1,0,0:0:0:0:
256,192,166674,1,0,0:0:0:0:
256,192,166862,1,8,0:0:0:0:
256,192,167237,1,8,0:0:0:0:
256,192,167612,1,8,0:0:0:0:
256,192,167799,1,0,0:0:0:0:
256,192,167987,1,8,0:0:0:0:
256,192,168174,1,0,0:0:0:0:
256,192,168362,1,8,0:0:0:0:
256,192,168737,1,8,0:0:0:0:
256,192,169112,1,8,0:0:0:0:
256,192,169487,1,8,0:0:0:0:
256,192,169862,1,8,0:0:0:0:
256,192,170237,1,8,0:0:0:0:
256,192,170612,1,8,0:0:0:0:
256,192,170799,1,8,0:0:0:0:
256,192,170987,1,8,0:0:0:0:
256,192,171174,1,8,0:0:0:0:
256,192,171362,1,8,0:0:0:0:
256,192,171737,1,0,0:0:0:0:
256,192,172112,1,0,0:0:0:0:
256,192,172487,1,8,0:0:0:0:
256,192,172674,1,8,0:0:0:0:
256,192,172862,1,0,0:0:0:0:
256,192,173237,1,8,0:0:0:0:
256,192,173612,1,0,0:0:0:0:
256,192,174362,1,4,0:0:0:0:
256,192,174737,1,8,0:0:0:0:
256,192,175112,1,0,0:0:0:0:
256,192,175487,1,8,0:0:0:0:
256,192,175862,1,0,0:0:0:0:
256,192,176237,1,8,0:0:0:0:
256,192,176612,1,0,0:0:0:0:
256,192,176799,1,0,0:0:0:0:
256,192,176987,1,8,0:0:0:0:
256,192,177174,1,0,0:0:0:0:
256,192,177362,1,0,0:0:0:0:
256,192,177737,1,8,0:0:0:0:
256,192,178112,1,0,0:0:0:0:
256,192,178487,1,8,0:0:0:0:
256,192,178674,1,8,0:0:0:0:
256,192,178862,1,0,0:0:0:0:
256,192,179237,1,8,0:0:0:0:
256,192,179612,1,0,0:0:0:0:
256,192,179799,1,0,0:0:0:0:
256,192,179987,1,8,0:0:0:0:
256,192,180362,1,0,0:0:0:0:
256,192,180549,1,8,0:0:0:0:
256,192,180924,1,8,0:0:0:0:
256,192,181299,1,8,0:0:0:0:
256,192,181487,1,0,0:0:0:0:
256,192,181674,1,8,0:0:0:0:
256,192,182049,1,8,0:0:0:0:
256,192,182237,1,0,0:0:0:0:
256,192,182424,1,8,0:0:0:0:
256,192,182612,1,0,0:0:0:0:
256,192,182799,1,8,0:0:0:0:
256,192,182987,1,8,0:0:0:0:
256,192,183362,1,12,0:0:0:0:
256,192,183737,1,4,0:0:0:0:
256,192,184112,1,12,0:0:0:0:
256,192,184299,1,0,0:0:0:0:
256,192,184487,1,8,0:0:0:0:
256,192,184674,1,8,0:0:0:0:
256,192,184862,1,0,0:0:0:0:
256,192,185237,1,8,0:0:0:0:
256,192,185612,1,0,0:0:0:0:
256,192,186362,12,0,191237,0:0:0:0:
