osu file format v13

[General]
AudioFilename: 629036962.mp3
AudioLeadIn: 0
PreviewTime: 30615
Countdown: 1
SampleSet: Normal
StackLeniency: 0.7
Mode: 1
LetterboxInBreaks: 1
WidescreenStoryboard: 0

[Editor]
Bookmarks: 42615,47115,104115
DistanceSpacing: 0.5
BeatDivisor: 4
GridSize: 32
TimelineZoom: 2.1

[Metadata]
Title:Eur Hawt 200X
TitleUnicode:Eur Hawt 200X
Artist:Rainbowdragoneyes
ArtistUnicode:Rainbowdragoneyes
Creator:Michel
Version:Inner Oni
Source:
Tags:
BeatmapID:568991
BeatmapSetID:247090

[Difficulty]
HPDrainRate:5
CircleSize:5
OverallDifficulty:6
ApproachRate:5
SliderMultiplier:1.4
SliderTickRate:2

[Events]
//Background and Video events
0,0,"Taiko BG.jpg",0,0
//Break Periods
2,140315,144915
//Storyboard Layer 0 (Background)
//Storyboard Layer 1 (Fail)
//Storyboard Layer 2 (Pass)
//Storyboard Layer 3 (Foreground)
//Storyboard Sound Samples

[TimingPoints]
3990,375,4,1,0,60,1,0
29115,-100,4,1,0,60,0,0
29215,-100,4,1,0,60,0,0
30615,-100,4,1,0,60,0,1
77865,-100,4,1,0,60,0,0
80115,-100,4,1,0,60,0,1
116115,-66.6666666666667,4,1,0,60,0,1
128115,-100,4,1,0,60,0,0
153615,-100,4,1,0,60,0,1
177615,-100,4,1,0,60,0,0

[HitObjects]
64,224,3990,5,0,0:0:0:0:
64,224,4365,1,0,0:0:0:0:
64,224,4740,1,0,0:0:0:0:
64,224,5115,1,4,0:0:0:0:
96,288,5490,1,0,0:0:0:0:
96,288,5677,1,0,0:0:0:0:
96,288,5958,1,0,0:0:0:0:
96,288,6145,1,0,0:0:0:0:
96,288,6239,1,0,0:0:0:0:
64,256,6427,1,0,0:0:0:0:
64,224,6615,1,0,0:0:0:0:
160,256,7177,1,0,0:0:0:0:
96,288,7740,1,0,0:0:0:0:
96,288,8115,1,0,0:0:0:0:
96,288,8677,1,0,0:0:0:0:
96,288,8771,1,0,0:0:0:0:
96,288,8865,1,8,0:0:0:0:
160,256,9240,1,0,0:0:0:0:
96,288,9615,1,0,0:0:0:0:
160,256,9990,1,0,0:0:0:0:
224,256,10365,1,0,0:0:0:0:
256,256,10458,1,0,0:0:0:0:
256,256,10552,1,0,0:0:0:0:
256,256,10646,1,0,0:0:0:0:
256,256,10740,1,0,0:0:0:0:
256,256,10833,1,0,0:0:0:0:
256,256,10927,1,0,0:0:0:0:
256,256,11021,1,0,0:0:0:0:
256,256,11115,1,8,0:0:0:0:
224,256,11302,1,0,0:0:0:0:
192,256,11396,1,0,0:0:0:0:
224,256,11490,1,8,0:0:0:0:
192,256,11677,1,0,0:0:0:0:
160,192,11958,1,0,0:0:0:0:
192,224,12146,1,0,0:0:0:0:
192,224,12240,1,0,0:0:0:0:
192,224,12427,1,0,0:0:0:0:
192,224,12615,1,0,0:0:0:0:
256,288,13177,1,0,0:0:0:0:
320,352,13740,1,0,0:0:0:0:
320,352,14115,1,0,0:0:0:0:
224,320,14677,1,0,0:0:0:0:
192,320,14771,1,0,0:0:0:0:
192,320,14865,1,8,0:0:0:0:
256,352,15240,1,0,0:0:0:0:
256,352,15615,1,0,0:0:0:0:
256,352,15990,1,0,0:0:0:0:
320,320,16365,1,0,0:0:0:0:
320,320,16458,1,0,0:0:0:0:
320,320,16552,1,0,0:0:0:0:
320,320,16646,1,0,0:0:0:0:
320,320,16740,1,0,0:0:0:0:
320,320,16833,1,0,0:0:0:0:
320,320,16927,1,0,0:0:0:0:
320,320,17021,1,0,0:0:0:0:
320,320,17115,1,0,0:0:0:0:
448,352,17771,1,0,0:0:0:0:
416,352,17865,1,0,0:0:0:0:
320,320,18427,1,0,0:0:0:0:
288,288,18615,1,0,0:0:0:0:
160,224,19271,1,0,0:0:0:0:
160,224,19365,1,0,0:0:0:0:
256,288,19927,1,0,0:0:0:0:
224,256,20115,1,0,0:0:0:0:
128,224,20677,1,0,0:0:0:0:
160,224,20771,1,0,0:0:0:0:
160,192,20865,1,0,0:0:0:0:
256,256,21240,1,0,0:0:0:0:
224,256,21427,1,0,0:0:0:0:
192,224,21615,1,0,0:0:0:0:
192,224,21990,1,0,0:0:0:0:
192,224,22177,1,0,0:0:0:0:
192,224,22271,1,0,0:0:0:0:
192,224,22365,1,0,0:0:0:0:
320,288,23115,1,0,0:0:0:0:
288,288,23302,1,8,0:0:0:0:
256,256,23490,1,0,0:0:0:0:
288,288,23677,1,8,0:0:0:0:
256,256,23865,1,0,0:0:0:0:
288,288,24052,1,8,0:0:0:0:
256,256,24240,1,0,0:0:0:0:
224,256,24427,1,8,0:0:0:0:
192,256,24615,1,0,0:0:0:0:
160,256,24802,1,8,0:0:0:0:
128,256,24990,1,0,0:0:0:0:
96,224,25177,1,8,0:0:0:0:
128,256,25365,1,0,0:0:0:0:
160,256,25552,1,8,0:0:0:0:
160,224,25646,1,8,0:0:0:0:
128,256,25740,1,0,0:0:0:0:
96,224,25927,1,8,0:0:0:0:
128,256,26115,1,0,0:0:0:0:
160,256,26302,1,8,0:0:0:0:
128,256,26490,1,0,0:0:0:0:
96,224,26677,1,8,0:0:0:0:
128,256,26865,1,0,0:0:0:0:
128,256,27052,1,8,0:0:0:0:
128,256,27240,1,0,0:0:0:0:
96,192,27427,1,8,0:0:0:0:
96,192,29115,5,12,0:0:0:0:
96,192,29302,1,12,0:0:0:0:
96,192,29490,1,12,0:0:0:0:
96,192,29677,1,12,0:0:0:0:
128,192,29865,1,12,0:0:0:0:
96,192,30615,1,0,0:0:0:0:
96,192,30802,1,8,0:0:0:0:
96,192,30990,1,0,0:0:0:0:
128,192,31177,1,8,0:0:0:0:
128,192,31271,1,8,0:0:0:0:
128,192,31365,1,0,0:0:0:0:
160,160,31552,1,8,0:0:0:0:
160,128,31740,1,0,0:0:0:0:
128,128,31927,1,8,0:0:0:0:
96,160,32115,1,0,0:0:0:0:
96,160,32208,1,0,0:0:0:0:
64,160,32302,1,8,0:0:0:0:
64,192,32396,1,0,0:0:0:0:
64,160,32489,1,0,0:0:0:0:
64,192,32677,1,8,0:0:0:0:
96,224,32865,1,0,0:0:0:0:
96,224,33052,1,8,0:0:0:0:
96,224,33240,1,0,0:0:0:0:
64,224,33427,1,8,0:0:0:0:
96,224,33615,1,8,0:0:0:0:
96,224,33708,1,8,0:0:0:0:
96,224,33802,1,0,0:0:0:0:
96,224,33990,1,0,0:0:0:0:
96,224,34083,1,0,0:0:0:0:
96,224,34177,1,8,0:0:0:0:
96,224,34365,1,8,0:0:0:0:
96,224,34458,1,0,0:0:0:0:
96,224,34552,1,0,0:0:0:0:
96,224,34740,1,8,0:0:0:0:
96,224,34833,1,0,0:0:0:0:
96,224,34927,1,8,0:0:0:0:
96,224,35021,1,8,0:0:0:0:
96,224,35115,1,0,0:0:0:0:
96,224,35302,1,8,0:0:0:0:
96,224,35490,1,0,0:0:0:0:
64,224,35677,1,8,0:0:0:0:
128,160,35865,1,0,0:0:0:0:
96,192,36052,1,8,0:0:0:0:
96,224,36240,1,0,0:0:0:0:
96,192,36333,1,0,0:0:0:0:
96,160,36427,1,8,0:0:0:0:
96,192,36615,1,0,0:0:0:0:
96,192,36802,1,8,0:0:0:0:
96,192,36990,1,0,0:0:0:0:
128,192,37177,1,8,0:0:0:0:
128,192,37271,1,8,0:0:0:0:
128,192,37365,1,0,0:0:0:0:
160,160,37552,1,8,0:0:0:0:
160,128,37740,1,0,0:0:0:0:
128,128,37927,1,8,0:0:0:0:
96,160,38115,1,0,0:0:0:0:
96,160,38208,1,0,0:0:0:0:
64,160,38302,1,8,0:0:0:0:
64,192,38396,1,0,0:0:0:0:
64,160,38489,1,0,0:0:0:0:
64,192,38677,1,8,0:0:0:0:
96,224,38865,1,0,0:0:0:0:
96,224,39052,1,8,0:0:0:0:
96,224,39240,1,0,0:0:0:0:
64,224,39427,1,8,0:0:0:0:
96,224,39615,1,8,0:0:0:0:
96,224,39708,1,8,0:0:0:0:
96,224,39802,1,0,0:0:0:0:
96,224,39990,1,0,0:0:0:0:
96,224,40083,1,0,0:0:0:0:
96,224,40177,1,8,0:0:0:0:
96,224,40365,1,8,0:0:0:0:
96,224,40458,1,0,0:0:0:0:
96,224,40552,1,0,0:0:0:0:
96,224,40740,1,8,0:0:0:0:
96,224,40833,1,0,0:0:0:0:
96,224,40927,1,8,0:0:0:0:
96,224,41021,1,8,0:0:0:0:
96,224,41115,1,0,0:0:0:0:
64,224,41302,1,0,0:0:0:0:
64,224,41396,1,8,0:0:0:0:
96,224,41583,1,0,0:0:0:0:
96,256,41677,1,8,0:0:0:0:
84,222,41865,2,0,L|300:169,1,210
307,210,42615,1,4,0:0:0:0:
352,224,42802,1,8,0:0:0:0:
320,224,42990,1,0,0:0:0:0:
288,224,43177,1,8,0:0:0:0:
64,256,43365,1,0,0:0:0:0:
64,256,43458,1,0,0:0:0:0:
224,224,43552,1,8,0:0:0:0:
64,256,43740,1,0,0:0:0:0:
160,224,43927,1,8,0:0:0:0:
160,224,44021,1,0,0:0:0:0:
64,256,44115,1,0,0:0:0:0:
96,256,44302,1,8,0:0:0:0:
64,256,44490,1,0,0:0:0:0:
64,256,44583,1,0,0:0:0:0:
32,256,44677,1,8,0:0:0:0:
64,256,44865,1,0,0:0:0:0:
64,256,44958,1,0,0:0:0:0:
96,256,45052,1,8,0:0:0:0:
96,288,45146,1,0,0:0:0:0:
64,256,45240,1,0,0:0:0:0:
32,256,45427,1,8,0:0:0:0:
96,256,45615,1,4,0:0:0:0:
96,256,45802,1,8,0:0:0:0:
96,256,45990,1,4,0:0:0:0:
32,256,46177,1,8,0:0:0:0:
96,256,46365,1,4,0:0:0:0:
96,256,46552,1,8,0:0:0:0:
96,256,46740,1,4,0:0:0:0:
96,256,46927,1,8,0:0:0:0:
64,256,47115,1,0,0:0:0:0:
96,224,47302,1,12,0:0:0:0:
96,256,47490,1,0,0:0:0:0:
96,224,47677,1,12,0:0:0:0:
64,256,47865,1,0,0:0:0:0:
96,224,48052,1,12,0:0:0:0:
64,256,48240,1,0,0:0:0:0:
96,224,48427,1,12,0:0:0:0:
64,256,48615,1,4,0:0:0:0:
91,223,48802,1,8,0:0:0:0:
107,197,48990,1,0,0:0:0:0:
158,186,49177,1,0,0:0:0:0:
158,186,49271,1,0,0:0:0:0:
158,186,49365,1,0,0:0:0:0:
158,186,49458,1,0,0:0:0:0:
158,186,49552,1,0,0:0:0:0:
158,186,49740,1,0,0:0:0:0:
158,186,49927,1,8,0:0:0:0:
158,186,50115,1,4,0:0:0:0:
158,186,50302,1,0,0:0:0:0:
158,186,50490,1,0,0:0:0:0:
158,186,50677,1,8,0:0:0:0:
158,186,50865,1,0,0:0:0:0:
158,186,51052,1,0,0:0:0:0:
158,186,51146,1,0,0:0:0:0:
158,186,51240,1,8,0:0:0:0:
108,203,51427,1,0,0:0:0:0:
80,213,51521,1,0,0:0:0:0:
104,221,51615,1,8,0:0:0:0:
120,241,51708,1,8,0:0:0:0:
145,247,51802,1,0,0:0:0:0:
160,250,51896,1,0,0:0:0:0:
185,256,51990,1,8,0:0:0:0:
212,262,52083,1,8,0:0:0:0:
246,269,52177,1,0,0:0:0:0:
246,269,52271,1,8,0:0:0:0:
246,269,52365,1,0,0:0:0:0:
208,232,52458,1,0,0:0:0:0:
208,232,52552,1,8,0:0:0:0:
168,207,52646,1,0,0:0:0:0:
168,207,52740,1,8,0:0:0:0:
168,207,52833,1,8,0:0:0:0:
168,207,52927,1,8,0:0:0:0:
168,207,53021,1,8,0:0:0:0:
168,207,53115,1,0,0:0:0:0:
214,231,53302,1,0,0:0:0:0:
253,251,53490,1,12,0:0:0:0:
300,273,53677,1,0,0:0:0:0:
323,284,53771,1,8,0:0:0:0:
369,307,53958,1,8,0:0:0:0:
369,307,54052,1,0,0:0:0:0:
319,289,54240,1,8,0:0:0:0:
285,281,54427,1,0,0:0:0:0:
219,254,54615,1,4,0:0:0:0:
184,247,54802,1,0,0:0:0:0:
166,216,54990,2,0,L|294:150,1,140,0|0,0:0|0:0,0:0:0:0:
255,158,55552,1,0,0:0:0:0:
237,161,55646,1,0,0:0:0:0:
219,164,55740,1,0,0:0:0:0:
219,198,55927,1,0,0:0:0:0:
149,168,56115,1,8,0:0:0:0:
139,168,56208,1,0,0:0:0:0:
121,169,56302,1,8,0:0:0:0:
103,170,56396,1,0,0:0:0:0:
113,183,56490,1,0,0:0:0:0:
119,191,56583,1,8,0:0:0:0:
129,203,56677,1,0,0:0:0:0:
138,212,56771,1,8,0:0:0:0:
104,223,56958,1,0,0:0:0:0:
82,230,57052,1,8,0:0:0:0:
82,230,57240,1,8,0:0:0:0:
82,230,57427,1,8,0:0:0:0:
82,230,57615,1,0,0:0:0:0:
104,223,57708,1,8,0:0:0:0:
104,223,57896,1,8,0:0:0:0:
104,223,57990,1,8,0:0:0:0:
104,223,58177,1,8,0:0:0:0:
104,223,58271,1,0,0:0:0:0:
133,242,58458,1,0,0:0:0:0:
148,252,58552,1,8,0:0:0:0:
178,268,58740,1,8,0:0:0:0:
170,283,58833,1,8,0:0:0:0:
160,303,58927,1,8,0:0:0:0:
153,319,59021,1,8,0:0:0:0:
153,319,59115,1,0,0:0:0:0:
153,319,59208,1,0,0:0:0:0:
153,319,59302,1,0,0:0:0:0:
153,319,59396,1,0,0:0:0:0:
153,319,59490,1,8,0:0:0:0:
153,319,59583,1,8,0:0:0:0:
153,319,59677,1,8,0:0:0:0:
153,319,59771,1,8,0:0:0:0:
153,319,60052,1,8,0:0:0:0:
153,319,60146,1,8,0:0:0:0:
153,319,60240,1,8,0:0:0:0:
153,319,60333,1,0,0:0:0:0:
153,319,60427,1,8,0:0:0:0:
153,319,60521,1,0,0:0:0:0:
153,319,60615,1,8,0:0:0:0:
170,319,60708,1,8,0:0:0:0:
160,288,60802,1,0,0:0:0:0:
160,288,60896,1,8,0:0:0:0:
255,321,61177,1,0,0:0:0:0:
290,323,61365,1,0,0:0:0:0:
307,324,61458,1,0,0:0:0:0:
324,325,61552,1,0,0:0:0:0:
341,326,61646,1,0,0:0:0:0:
358,327,61740,1,8,0:0:0:0:
410,333,61833,1,8,0:0:0:0:
410,333,62115,1,8,0:0:0:0:
410,333,62208,1,8,0:0:0:0:
410,333,62302,1,0,0:0:0:0:
410,333,62396,1,8,0:0:0:0:
351,318,62677,1,8,0:0:0:0:
316,312,62865,1,8,0:0:0:0:
300,309,62958,1,0,0:0:0:0:
269,304,63146,1,8,0:0:0:0:
246,300,63240,1,0,0:0:0:0:
211,293,63427,1,8,0:0:0:0:
193,289,63521,1,0,0:0:0:0:
177,286,63615,1,8,0:0:0:0:
246,300,63802,1,8,0:0:0:0:
246,300,63990,1,8,0:0:0:0:
224,288,64177,1,8,0:0:0:0:
192,256,64365,1,8,0:0:0:0:
160,256,64552,1,8,0:0:0:0:
128,224,64740,1,8,0:0:0:0:
128,224,64833,1,0,0:0:0:0:
96,224,64927,1,8,0:0:0:0:
177,286,65115,1,4,0:0:0:0:
40,184,65302,1,8,0:0:0:0:
128,224,65490,1,8,0:0:0:0:
128,224,65583,1,8,0:0:0:0:
128,192,65677,1,0,0:0:0:0:
128,192,65771,1,8,0:0:0:0:
128,192,65865,1,8,0:0:0:0:
128,192,65958,1,0,0:0:0:0:
128,192,66052,1,8,0:0:0:0:
128,192,66146,1,8,0:0:0:0:
128,192,66240,1,0,0:0:0:0:
128,192,66333,1,8,0:0:0:0:
128,192,66427,1,8,0:0:0:0:
128,192,66521,1,0,0:0:0:0:
96,192,66615,1,0,0:0:0:0:
96,192,66802,1,8,0:0:0:0:
96,192,66990,1,0,0:0:0:0:
128,192,67177,1,8,0:0:0:0:
128,192,67271,1,8,0:0:0:0:
128,192,67365,1,0,0:0:0:0:
160,160,67552,1,8,0:0:0:0:
160,128,67740,1,0,0:0:0:0:
128,128,67927,1,8,0:0:0:0:
96,160,68115,1,0,0:0:0:0:
96,160,68208,1,0,0:0:0:0:
64,160,68302,1,8,0:0:0:0:
64,192,68396,1,0,0:0:0:0:
64,160,68489,1,0,0:0:0:0:
64,192,68677,1,8,0:0:0:0:
96,224,68865,1,0,0:0:0:0:
96,224,69052,1,8,0:0:0:0:
96,224,69240,1,0,0:0:0:0:
64,224,69427,1,8,0:0:0:0:
96,224,69615,1,8,0:0:0:0:
96,224,69708,1,8,0:0:0:0:
96,224,69802,1,0,0:0:0:0:
96,224,69990,1,0,0:0:0:0:
96,224,70083,1,0,0:0:0:0:
96,224,70177,1,8,0:0:0:0:
96,224,70365,1,8,0:0:0:0:
96,224,70458,1,0,0:0:0:0:
96,224,70552,1,0,0:0:0:0:
96,224,70740,1,8,0:0:0:0:
96,224,70833,1,0,0:0:0:0:
96,224,70927,1,8,0:0:0:0:
96,224,71021,1,8,0:0:0:0:
96,224,71115,1,0,0:0:0:0:
96,224,71302,1,8,0:0:0:0:
96,224,71490,1,0,0:0:0:0:
64,224,71677,1,8,0:0:0:0:
128,160,71865,1,0,0:0:0:0:
96,192,72052,1,8,0:0:0:0:
96,224,72240,1,0,0:0:0:0:
96,192,72333,1,0,0:0:0:0:
96,160,72427,1,8,0:0:0:0:
96,192,72615,1,0,0:0:0:0:
96,192,72802,1,8,0:0:0:0:
96,192,72990,1,0,0:0:0:0:
128,192,73177,1,8,0:0:0:0:
128,192,73271,1,8,0:0:0:0:
128,192,73365,1,0,0:0:0:0:
160,160,73552,1,8,0:0:0:0:
160,128,73740,1,0,0:0:0:0:
128,128,73927,1,8,0:0:0:0:
96,160,74115,1,0,0:0:0:0:
96,160,74208,1,0,0:0:0:0:
64,160,74302,1,8,0:0:0:0:
64,192,74396,1,0,0:0:0:0:
64,160,74489,1,0,0:0:0:0:
64,192,74677,1,8,0:0:0:0:
96,224,74865,1,0,0:0:0:0:
96,224,75052,1,8,0:0:0:0:
96,224,75240,1,0,0:0:0:0:
64,224,75427,1,8,0:0:0:0:
96,224,75615,1,8,0:0:0:0:
96,224,75708,1,8,0:0:0:0:
96,224,75802,1,0,0:0:0:0:
96,224,75990,1,0,0:0:0:0:
96,224,76083,1,0,0:0:0:0:
96,224,76177,1,8,0:0:0:0:
96,224,76365,1,8,0:0:0:0:
96,224,76458,1,0,0:0:0:0:
96,224,76552,1,0,0:0:0:0:
96,224,76740,1,8,0:0:0:0:
96,224,76833,1,0,0:0:0:0:
96,224,76927,1,8,0:0:0:0:
96,224,77021,1,8,0:0:0:0:
96,224,77115,1,0,0:0:0:0:
64,224,77302,1,0,0:0:0:0:
64,224,77396,1,8,0:0:0:0:
96,224,77583,1,0,0:0:0:0:
96,256,77677,1,8,0:0:0:0:
85,227,77865,1,0,0:0:0:0:
86,228,78052,1,8,0:0:0:0:
86,228,78240,1,8,0:0:0:0:
86,228,78333,1,8,0:0:0:0:
76,207,78615,1,4,0:0:0:0:
77,226,80115,1,4,0:0:0:0:
160,224,80302,5,8,0:0:0:0:
128,224,80490,1,0,0:0:0:0:
160,224,80677,1,8,0:0:0:0:
128,224,80865,1,0,0:0:0:0:
128,224,80958,1,0,0:0:0:0:
160,224,81052,1,8,0:0:0:0:
128,224,81240,1,0,0:0:0:0:
160,224,81427,1,8,0:0:0:0:
128,224,81521,1,8,0:0:0:0:
128,224,81615,1,0,0:0:0:0:
160,224,81802,1,8,0:0:0:0:
128,224,81990,1,0,0:0:0:0:
128,224,82083,1,0,0:0:0:0:
160,224,82177,1,8,0:0:0:0:
160,256,82365,1,8,0:0:0:0:
160,256,82458,1,0,0:0:0:0:
192,288,82646,1,8,0:0:0:0:
192,288,82740,1,0,0:0:0:0:
224,320,82927,1,8,0:0:0:0:
224,320,83021,1,0,0:0:0:0:
224,320,83115,1,8,0:0:0:0:
224,320,83208,1,0,0:0:0:0:
224,320,83396,1,8,0:0:0:0:
224,320,83490,1,0,0:0:0:0:
224,320,83677,1,8,0:0:0:0:
224,320,83771,1,0,0:0:0:0:
224,320,83865,1,8,0:0:0:0:
192,320,83958,1,0,0:0:0:0:
192,288,84146,1,8,0:0:0:0:
192,256,84240,1,0,0:0:0:0:
192,224,84427,1,8,0:0:0:0:
192,192,84521,1,0,0:0:0:0:
192,192,84615,1,8,0:0:0:0:
192,192,84708,1,0,0:0:0:0:
160,224,84896,1,8,0:0:0:0:
160,256,84990,1,0,0:0:0:0:
192,288,85177,1,8,0:0:0:0:
224,288,85271,1,0,0:0:0:0:
224,288,85365,1,8,0:0:0:0:
224,288,85458,1,0,0:0:0:0:
224,288,85552,1,8,0:0:0:0:
224,288,85646,1,0,0:0:0:0:
256,288,85740,1,8,0:0:0:0:
256,288,85833,1,0,0:0:0:0:
256,288,85927,1,8,0:0:0:0:
256,288,86021,1,0,0:0:0:0:
256,288,86115,1,8,0:0:0:0:
224,288,86208,1,8,0:0:0:0:
224,288,86302,1,8,0:0:0:0:
224,288,86396,1,8,0:0:0:0:
224,288,86490,1,8,0:0:0:0:
224,288,86583,1,0,0:0:0:0:
224,288,86677,1,8,0:0:0:0:
224,288,86771,1,0,0:0:0:0:
224,288,86865,1,8,0:0:0:0:
224,288,86958,1,0,0:0:0:0:
224,288,87052,1,0,0:0:0:0:
224,288,87146,1,0,0:0:0:0:
224,288,87240,1,8,0:0:0:0:
224,288,87333,1,0,0:0:0:0:
224,288,87427,1,0,0:0:0:0:
192,288,87521,1,0,0:0:0:0:
160,288,87615,1,0,0:0:0:0:
160,288,87708,1,0,0:0:0:0:
160,288,87802,1,0,0:0:0:0:
160,288,87896,1,0,0:0:0:0:
160,288,87990,1,8,0:0:0:0:
160,288,88083,1,8,0:0:0:0:
160,288,88177,1,8,0:0:0:0:
160,288,88271,1,8,0:0:0:0:
160,288,88365,1,8,0:0:0:0:
160,288,88458,1,8,0:0:0:0:
160,288,88552,1,8,0:0:0:0:
160,288,88646,1,8,0:0:0:0:
160,288,88740,1,8,0:0:0:0:
160,288,88833,1,8,0:0:0:0:
160,288,88927,1,8,0:0:0:0:
160,288,89021,1,8,0:0:0:0:
160,288,89115,1,0,0:0:0:0:
160,288,89208,1,0,0:0:0:0:
160,288,89302,1,8,0:0:0:0:
160,288,89396,1,0,0:0:0:0:
160,288,89490,1,8,0:0:0:0:
136,278,89677,1,0,0:0:0:0:
141,278,89865,1,0,0:0:0:0:
141,278,89958,1,0,0:0:0:0:
141,278,90052,1,8,0:0:0:0:
142,278,90146,1,0,0:0:0:0:
142,278,90240,1,0,0:0:0:0:
256,290,90427,1,0,0:0:0:0:
256,290,90615,1,8,0:0:0:0:
293,292,90802,1,8,0:0:0:0:
293,292,90990,1,0,0:0:0:0:
293,292,91177,1,8,0:0:0:0:
293,292,91365,1,0,0:0:0:0:
293,292,91552,1,8,0:0:0:0:
293,292,91740,1,0,0:0:0:0:
303,290,91927,1,8,0:0:0:0:
302,290,92021,1,0,0:0:0:0:
303,290,92115,1,0,0:0:0:0:
223,264,92302,1,8,0:0:0:0:
223,264,92490,1,0,0:0:0:0:
223,264,92677,1,8,0:0:0:0:
223,264,92865,1,0,0:0:0:0:
223,264,93052,1,8,0:0:0:0:
223,264,93240,1,0,0:0:0:0:
223,264,93333,1,0,0:0:0:0:
223,264,93427,1,0,0:0:0:0:
223,264,93521,1,0,0:0:0:0:
223,264,93615,1,0,0:0:0:0:
199,248,93802,1,8,0:0:0:0:
199,248,93990,1,0,0:0:0:0:
199,248,94177,1,8,0:0:0:0:
199,248,94365,1,0,0:0:0:0:
216,316,94552,1,8,0:0:0:0:
199,248,94646,1,0,0:0:0:0:
229,297,94740,1,0,0:0:0:0:
230,284,94927,1,8,0:0:0:0:
199,248,95115,1,0,0:0:0:0:
314,322,95302,1,8,0:0:0:0:
117,206,95396,1,8,0:0:0:0:
314,322,95490,1,0,0:0:0:0:
314,322,95677,1,8,0:0:0:0:
5,241,95771,1,0,0:0:0:0:
314,322,95865,1,0,0:0:0:0:
5,241,95958,1,0,0:0:0:0:
298,318,96052,1,8,0:0:0:0:
304,320,96240,1,0,0:0:0:0:
304,320,96427,1,8,0:0:0:0:
306,320,96615,1,0,0:0:0:0:
196,346,96708,1,0,0:0:0:0:
308,320,96802,1,8,0:0:0:0:
126,193,96896,1,0,0:0:0:0:
314,322,96990,1,0,0:0:0:0:
126,193,97083,1,0,0:0:0:0:
314,322,97177,1,8,0:0:0:0:
314,322,97365,1,0,0:0:0:0:
314,322,97458,1,0,0:0:0:0:
314,321,97552,1,8,0:0:0:0:
217,290,97740,1,8,0:0:0:0:
217,290,97833,1,8,0:0:0:0:
217,290,97927,1,8,0:0:0:0:
419,357,98115,1,4,0:0:0:0:
193,220,98865,1,0,0:0:0:0:
193,220,99052,1,0,0:0:0:0:
193,220,99333,1,8,0:0:0:0:
193,220,99615,1,12,0:0:0:0:
274,274,99990,1,8,0:0:0:0:
274,274,100083,1,8,0:0:0:0:
274,274,100177,1,8,0:0:0:0:
274,274,100271,1,8,0:0:0:0:
274,274,100365,1,8,0:0:0:0:
281,276,100552,1,8,0:0:0:0:
281,276,100740,1,8,0:0:0:0:
281,276,100927,1,8,0:0:0:0:
161,280,101115,1,4,0:0:0:0:
264,289,101677,1,12,0:0:0:0:
161,280,102240,1,4,0:0:0:0:
264,289,102802,1,12,0:0:0:0:
150,216,103365,1,8,0:0:0:0:
96,192,104115,1,0,0:0:0:0:
96,192,104302,1,8,0:0:0:0:
96,192,104490,1,0,0:0:0:0:
128,192,104677,1,8,0:0:0:0:
128,192,104771,1,8,0:0:0:0:
128,192,104865,1,0,0:0:0:0:
160,160,105052,1,8,0:0:0:0:
160,128,105240,1,0,0:0:0:0:
128,128,105427,1,8,0:0:0:0:
96,160,105615,1,0,0:0:0:0:
96,160,105708,1,0,0:0:0:0:
64,160,105802,1,8,0:0:0:0:
64,192,105896,1,0,0:0:0:0:
64,160,105989,1,0,0:0:0:0:
64,192,106177,1,8,0:0:0:0:
96,224,106365,1,0,0:0:0:0:
96,224,106552,1,8,0:0:0:0:
96,224,106740,1,0,0:0:0:0:
64,224,106927,1,8,0:0:0:0:
96,224,107115,1,8,0:0:0:0:
96,224,107208,1,8,0:0:0:0:
96,224,107302,1,0,0:0:0:0:
96,224,107490,1,0,0:0:0:0:
96,224,107583,1,0,0:0:0:0:
96,224,107677,1,8,0:0:0:0:
96,224,107865,1,8,0:0:0:0:
96,224,107958,1,0,0:0:0:0:
96,224,108052,1,0,0:0:0:0:
96,224,108240,1,8,0:0:0:0:
96,224,108333,1,0,0:0:0:0:
96,224,108427,1,8,0:0:0:0:
96,224,108521,1,8,0:0:0:0:
96,224,108615,1,0,0:0:0:0:
96,224,108802,1,8,0:0:0:0:
96,224,108990,1,0,0:0:0:0:
64,224,109177,1,8,0:0:0:0:
128,160,109365,1,0,0:0:0:0:
96,192,109552,1,8,0:0:0:0:
96,224,109740,1,0,0:0:0:0:
96,192,109833,1,0,0:0:0:0:
96,160,109927,1,8,0:0:0:0:
96,192,110115,1,0,0:0:0:0:
96,192,110302,1,8,0:0:0:0:
96,192,110490,1,0,0:0:0:0:
128,192,110677,1,8,0:0:0:0:
128,192,110771,1,8,0:0:0:0:
128,192,110865,1,0,0:0:0:0:
160,160,111052,1,8,0:0:0:0:
160,128,111240,1,0,0:0:0:0:
128,128,111427,1,8,0:0:0:0:
96,160,111615,1,0,0:0:0:0:
96,160,111708,1,0,0:0:0:0:
64,160,111802,1,8,0:0:0:0:
64,192,111896,1,0,0:0:0:0:
64,160,111989,1,0,0:0:0:0:
64,192,112177,1,8,0:0:0:0:
96,224,112365,1,0,0:0:0:0:
96,224,112552,1,8,0:0:0:0:
96,224,112740,1,0,0:0:0:0:
64,224,112927,1,8,0:0:0:0:
96,224,113115,1,8,0:0:0:0:
96,224,113208,1,8,0:0:0:0:
96,224,113302,1,0,0:0:0:0:
96,224,113490,1,0,0:0:0:0:
96,224,113583,1,0,0:0:0:0:
96,224,113677,1,8,0:0:0:0:
96,224,113865,1,8,0:0:0:0:
96,224,113958,1,0,0:0:0:0:
96,224,114052,1,0,0:0:0:0:
96,224,114240,1,8,0:0:0:0:
96,224,114333,1,0,0:0:0:0:
96,224,114427,1,8,0:0:0:0:
96,224,114521,1,8,0:0:0:0:
96,224,114615,1,0,0:0:0:0:
64,224,114802,1,0,0:0:0:0:
64,224,114896,1,8,0:0:0:0:
96,224,115083,1,0,0:0:0:0:
96,256,115177,1,8,0:0:0:0:
84,222,115365,2,0,L|300:169,1,210
96,192,116115,1,0,0:0:0:0:
96,192,116302,1,8,0:0:0:0:
96,192,116490,1,0,0:0:0:0:
128,192,116677,1,8,0:0:0:0:
128,192,116771,1,8,0:0:0:0:
128,192,116865,1,0,0:0:0:0:
160,160,117052,1,8,0:0:0:0:
160,128,117240,1,0,0:0:0:0:
128,128,117427,1,8,0:0:0:0:
96,160,117615,1,0,0:0:0:0:
96,160,117708,1,0,0:0:0:0:
64,160,117802,1,8,0:0:0:0:
64,192,117896,1,0,0:0:0:0:
64,160,117989,1,0,0:0:0:0:
64,192,118177,1,8,0:0:0:0:
96,224,118365,1,0,0:0:0:0:
96,224,118552,1,8,0:0:0:0:
96,224,118740,1,0,0:0:0:0:
64,224,118927,1,8,0:0:0:0:
96,224,119115,1,8,0:0:0:0:
96,224,119208,1,8,0:0:0:0:
96,224,119302,1,0,0:0:0:0:
96,224,119490,1,0,0:0:0:0:
96,224,119583,1,0,0:0:0:0:
96,224,119677,1,8,0:0:0:0:
96,224,119865,1,8,0:0:0:0:
96,224,119958,1,0,0:0:0:0:
96,224,120052,1,0,0:0:0:0:
96,224,120240,1,8,0:0:0:0:
96,224,120333,1,0,0:0:0:0:
96,224,120427,1,8,0:0:0:0:
96,224,120521,1,8,0:0:0:0:
96,224,120615,1,0,0:0:0:0:
96,224,120802,1,8,0:0:0:0:
96,224,120990,1,0,0:0:0:0:
64,224,121177,1,8,0:0:0:0:
128,160,121365,1,0,0:0:0:0:
96,192,121552,1,8,0:0:0:0:
96,224,121740,1,0,0:0:0:0:
96,192,121833,1,0,0:0:0:0:
96,160,121927,1,8,0:0:0:0:
96,192,122115,1,0,0:0:0:0:
96,192,122302,1,8,0:0:0:0:
96,192,122490,1,0,0:0:0:0:
128,192,122677,1,8,0:0:0:0:
128,192,122771,1,8,0:0:0:0:
128,192,122865,1,0,0:0:0:0:
160,160,123052,1,8,0:0:0:0:
160,128,123240,1,0,0:0:0:0:
128,128,123427,1,8,0:0:0:0:
96,160,123615,1,0,0:0:0:0:
96,160,123708,1,0,0:0:0:0:
64,160,123802,1,8,0:0:0:0:
64,192,123896,1,0,0:0:0:0:
64,160,123989,1,0,0:0:0:0:
64,192,124177,1,8,0:0:0:0:
96,224,124365,1,0,0:0:0:0:
96,224,124552,1,8,0:0:0:0:
96,224,124740,1,0,0:0:0:0:
64,224,124927,1,8,0:0:0:0:
96,224,125115,1,8,0:0:0:0:
96,224,125208,1,8,0:0:0:0:
96,224,125302,1,0,0:0:0:0:
96,224,125490,1,0,0:0:0:0:
96,224,125583,1,0,0:0:0:0:
96,224,125677,1,8,0:0:0:0:
96,224,125865,1,8,0:0:0:0:
96,224,125958,1,0,0:0:0:0:
96,224,126052,1,0,0:0:0:0:
96,224,126240,1,8,0:0:0:0:
96,224,126333,1,0,0:0:0:0:
96,224,126427,1,8,0:0:0:0:
96,224,126521,1,8,0:0:0:0:
96,224,126615,1,0,0:0:0:0:
64,224,126802,1,0,0:0:0:0:
64,224,126896,1,8,0:0:0:0:
96,224,127083,1,0,0:0:0:0:
96,256,127177,1,8,0:0:0:0:
88,202,127552,1,8,0:0:0:0:
88,202,127740,1,8,0:0:0:0:
68,202,127833,1,8,0:0:0:0:
77,221,128115,1,4,0:0:0:0:
159,240,128302,1,8,0:0:0:0:
166,233,128490,1,0,0:0:0:0:
166,233,128677,1,0,0:0:0:0:
166,233,128865,1,8,0:0:0:0:
169,233,129052,1,0,0:0:0:0:
169,233,129240,1,8,0:0:0:0:
175,231,129427,1,0,0:0:0:0:
175,231,129521,1,8,0:0:0:0:
175,231,129615,1,0,0:0:0:0:
180,251,129802,1,8,0:0:0:0:
180,251,129896,1,8,0:0:0:0:
180,251,129990,1,8,0:0:0:0:
180,251,130177,1,0,0:0:0:0:
180,251,130365,1,8,0:0:0:0:
180,251,130458,1,8,0:0:0:0:
180,251,130552,1,0,0:0:0:0:
183,249,130740,1,8,0:0:0:0:
183,249,130833,1,8,0:0:0:0:
184,249,130927,1,0,0:0:0:0:
184,249,131115,1,0,0:0:0:0:
180,251,131302,1,8,0:0:0:0:
180,251,131396,1,8,0:0:0:0:
180,251,131490,1,8,0:0:0:0:
180,251,131583,1,8,0:0:0:0:
180,251,131677,1,8,0:0:0:0:
180,251,131771,1,8,0:0:0:0:
180,251,131865,1,8,0:0:0:0:
180,251,132052,1,0,0:0:0:0:
180,251,132146,1,8,0:0:0:0:
77,182,132240,1,0,0:0:0:0:
183,249,132427,1,8,0:0:0:0:
184,249,132521,1,8,0:0:0:0:
192,246,132615,1,0,0:0:0:0:
160,304,132708,1,8,0:0:0:0:
160,304,132802,1,8,0:0:0:0:
160,304,132990,1,0,0:0:0:0:
160,304,133083,1,0,0:0:0:0:
160,304,133271,1,8,0:0:0:0:
77,182,133365,1,0,0:0:0:0:
77,182,133552,1,8,0:0:0:0:
143,237,133740,1,0,0:0:0:0:
143,237,133833,1,0,0:0:0:0:
143,237,133927,1,0,0:0:0:0:
143,237,134021,1,0,0:0:0:0:
143,237,134115,1,0,0:0:0:0:
33,240,134302,1,0,0:0:0:0:
166,215,134396,1,0,0:0:0:0:
33,240,134490,1,0,0:0:0:0:
216,126,134677,1,0,0:0:0:0:
216,126,134865,1,0,0:0:0:0:
101,177,134958,1,0,0:0:0:0:
101,177,135052,1,8,0:0:0:0:
265,186,135146,1,8,0:0:0:0:
265,186,135240,1,8,0:0:0:0:
227,231,135333,1,8,0:0:0:0:
227,231,135427,1,0,0:0:0:0:
227,231,135521,1,0,0:0:0:0:
227,231,135615,1,0,0:0:0:0:
227,231,135708,1,0,0:0:0:0:
227,231,135802,1,8,0:0:0:0:
12,195,135990,1,0,0:0:0:0:
86,218,136083,1,0,0:0:0:0:
45,200,136177,1,8,0:0:0:0:
265,159,136365,1,8,0:0:0:0:
195,177,136458,1,8,0:0:0:0:
200,176,136552,1,0,0:0:0:0:
204,174,136740,1,0,0:0:0:0:
204,174,136833,1,0,0:0:0:0:
206,173,136927,1,8,0:0:0:0:
206,173,137021,1,8,0:0:0:0:
206,173,137115,1,0,0:0:0:0:
208,173,137208,1,0,0:0:0:0:
208,173,137302,1,8,0:0:0:0:
301,281,137490,1,0,0:0:0:0:
301,281,137583,1,0,0:0:0:0:
301,281,137677,1,8,0:0:0:0:
306,280,137771,1,0,0:0:0:0:
311,280,137865,1,0,0:0:0:0:
311,280,138052,1,8,0:0:0:0:
311,280,138146,1,8,0:0:0:0:
311,280,138240,1,0,0:0:0:0:
311,280,138333,1,0,0:0:0:0:
311,280,138427,1,0,0:0:0:0:
386,100,138615,1,0,0:0:0:0:
385,105,138677,1,0,0:0:0:0:
41,189,138740,1,0,0:0:0:0:
41,189,138802,1,8,0:0:0:0:
56,182,138897,1,8,0:0:0:0:
58,182,138990,1,0,0:0:0:0:
63,182,139084,1,0,0:0:0:0:
78,180,139177,1,8,0:0:0:0:
136,257,139271,1,0,0:0:0:0:
136,257,139365,1,8,0:0:0:0:
83,173,139458,1,0,0:0:0:0:
83,173,139552,1,8,0:0:0:0:
57,74,139646,1,8,0:0:0:0:
57,74,139740,1,0,0:0:0:0:
57,74,139833,1,0,0:0:0:0:
57,74,139927,1,8,0:0:0:0:
57,74,140021,1,8,0:0:0:0:
57,74,140115,1,0,0:0:0:0:
283,248,146115,5,0,0:0:0:0:
124,264,146208,1,0,0:0:0:0:
283,248,146396,1,0,0:0:0:0:
283,248,146490,1,0,0:0:0:0:
137,293,146677,1,8,0:0:0:0:
137,293,146771,1,0,0:0:0:0:
157,269,146865,1,0,0:0:0:0:
389,300,147052,1,0,0:0:0:0:
389,300,147240,1,8,0:0:0:0:
389,300,147427,1,0,0:0:0:0:
130,263,147615,1,0,0:0:0:0:
132,263,147708,1,0,0:0:0:0:
130,263,147896,1,0,0:0:0:0:
130,263,147990,1,0,0:0:0:0:
130,263,148177,1,0,0:0:0:0:
114,262,148365,1,8,0:0:0:0:
114,262,148458,1,8,0:0:0:0:
114,262,148552,1,0,0:0:0:0:
118,260,148740,1,8,0:0:0:0:
191,284,148927,1,0,0:0:0:0:
139,246,149115,1,0,0:0:0:0:
140,246,149302,1,0,0:0:0:0:
140,246,149490,1,8,0:0:0:0:
140,246,149677,1,0,0:0:0:0:
140,246,149771,1,0,0:0:0:0:
139,246,149865,1,0,0:0:0:0:
139,246,149958,1,0,0:0:0:0:
139,246,150052,1,0,0:0:0:0:
154,255,150146,1,0,0:0:0:0:
154,255,150240,1,8,0:0:0:0:
218,326,150427,1,0,0:0:0:0:
218,326,150521,1,0,0:0:0:0:
218,326,150615,1,8,0:0:0:0:
190,277,150708,1,0,0:0:0:0:
190,277,150802,1,0,0:0:0:0:
190,277,150896,1,0,0:0:0:0:
190,277,150990,1,8,0:0:0:0:
190,277,151083,1,0,0:0:0:0:
190,277,151177,1,0,0:0:0:0:
190,277,151271,1,0,0:0:0:0:
190,277,151365,1,8,0:0:0:0:
165,251,151458,1,8,0:0:0:0:
165,251,151552,1,8,0:0:0:0:
165,251,151646,1,8,0:0:0:0:
165,251,151740,1,8,0:0:0:0:
165,251,151833,1,8,0:0:0:0:
165,251,151927,1,8,0:0:0:0:
165,251,152021,1,8,0:0:0:0:
165,251,152115,1,0,0:0:0:0:
41,255,152490,1,8,0:0:0:0:
45,249,152865,1,0,0:0:0:0:
45,249,153052,1,0,0:0:0:0:
54,249,153240,1,8,0:0:0:0:
52,249,153333,1,8,0:0:0:0:
54,249,153427,1,8,0:0:0:0:
54,249,153521,1,8,0:0:0:0:
96,192,153615,1,0,0:0:0:0:
96,192,153802,1,8,0:0:0:0:
96,192,153990,1,0,0:0:0:0:
128,192,154177,1,8,0:0:0:0:
128,192,154271,1,8,0:0:0:0:
128,192,154365,1,0,0:0:0:0:
160,160,154552,1,8,0:0:0:0:
160,128,154740,1,0,0:0:0:0:
128,128,154927,1,8,0:0:0:0:
96,160,155115,1,0,0:0:0:0:
96,160,155208,1,0,0:0:0:0:
64,160,155302,1,8,0:0:0:0:
64,192,155396,1,0,0:0:0:0:
64,160,155489,1,0,0:0:0:0:
64,192,155677,1,8,0:0:0:0:
96,224,155865,1,0,0:0:0:0:
96,224,156052,1,8,0:0:0:0:
96,224,156240,1,0,0:0:0:0:
64,224,156427,1,8,0:0:0:0:
96,224,156615,1,8,0:0:0:0:
96,224,156708,1,8,0:0:0:0:
96,224,156802,1,0,0:0:0:0:
96,224,156990,1,0,0:0:0:0:
96,224,157083,1,0,0:0:0:0:
96,224,157177,1,8,0:0:0:0:
96,224,157365,1,8,0:0:0:0:
96,224,157458,1,0,0:0:0:0:
96,224,157552,1,0,0:0:0:0:
96,224,157740,1,8,0:0:0:0:
96,224,157833,1,0,0:0:0:0:
96,224,157927,1,8,0:0:0:0:
96,224,158021,1,8,0:0:0:0:
96,224,158115,1,0,0:0:0:0:
96,224,158302,1,8,0:0:0:0:
96,224,158490,1,0,0:0:0:0:
64,224,158677,1,8,0:0:0:0:
128,160,158865,1,0,0:0:0:0:
96,192,159052,1,8,0:0:0:0:
96,224,159240,1,0,0:0:0:0:
96,192,159333,1,0,0:0:0:0:
96,160,159427,1,8,0:0:0:0:
96,192,159615,1,0,0:0:0:0:
96,192,159802,1,8,0:0:0:0:
96,192,159990,1,0,0:0:0:0:
128,192,160177,1,8,0:0:0:0:
128,192,160271,1,8,0:0:0:0:
128,192,160365,1,0,0:0:0:0:
160,160,160552,1,8,0:0:0:0:
160,128,160740,1,0,0:0:0:0:
128,128,160927,1,8,0:0:0:0:
96,160,161115,1,0,0:0:0:0:
96,160,161208,1,0,0:0:0:0:
64,160,161302,1,8,0:0:0:0:
64,192,161396,1,0,0:0:0:0:
64,160,161489,1,0,0:0:0:0:
64,192,161677,1,8,0:0:0:0:
96,224,161865,1,0,0:0:0:0:
96,224,162052,1,8,0:0:0:0:
96,224,162240,1,0,0:0:0:0:
64,224,162427,1,8,0:0:0:0:
96,224,162615,1,8,0:0:0:0:
96,224,162708,1,8,0:0:0:0:
96,224,162802,1,0,0:0:0:0:
96,224,162990,1,0,0:0:0:0:
96,224,163083,1,0,0:0:0:0:
96,224,163177,1,8,0:0:0:0:
96,224,163365,1,8,0:0:0:0:
96,224,163458,1,0,0:0:0:0:
96,224,163552,1,0,0:0:0:0:
96,224,163740,1,8,0:0:0:0:
96,224,163833,1,0,0:0:0:0:
96,224,163927,1,8,0:0:0:0:
96,224,164021,1,8,0:0:0:0:
96,224,164115,1,0,0:0:0:0:
64,224,164302,1,0,0:0:0:0:
64,224,164396,1,8,0:0:0:0:
96,224,164583,1,0,0:0:0:0:
96,256,164677,1,8,0:0:0:0:
88,202,165052,1,8,0:0:0:0:
88,202,165240,1,8,0:0:0:0:
68,202,165333,1,8,0:0:0:0:
96,192,165615,1,0,0:0:0:0:
96,192,165802,1,8,0:0:0:0:
96,192,165990,1,0,0:0:0:0:
128,192,166177,1,8,0:0:0:0:
128,192,166271,1,8,0:0:0:0:
128,192,166365,1,0,0:0:0:0:
160,160,166552,1,8,0:0:0:0:
160,128,166740,1,0,0:0:0:0:
128,128,166927,1,8,0:0:0:0:
96,160,167115,1,0,0:0:0:0:
96,160,167208,1,0,0:0:0:0:
64,160,167302,1,8,0:0:0:0:
64,192,167396,1,0,0:0:0:0:
64,160,167489,1,0,0:0:0:0:
64,192,167677,1,8,0:0:0:0:
96,224,167865,1,0,0:0:0:0:
96,224,168052,1,8,0:0:0:0:
96,224,168240,1,0,0:0:0:0:
64,224,168427,1,8,0:0:0:0:
96,224,168615,1,8,0:0:0:0:
96,224,168708,1,8,0:0:0:0:
96,224,168802,1,0,0:0:0:0:
96,224,168990,1,0,0:0:0:0:
96,224,169083,1,0,0:0:0:0:
96,224,169177,1,8,0:0:0:0:
96,224,169365,1,8,0:0:0:0:
96,224,169458,1,0,0:0:0:0:
96,224,169552,1,0,0:0:0:0:
96,224,169740,1,8,0:0:0:0:
96,224,169833,1,0,0:0:0:0:
96,224,169927,1,8,0:0:0:0:
96,224,170021,1,8,0:0:0:0:
96,224,170115,1,0,0:0:0:0:
96,224,170302,1,8,0:0:0:0:
96,224,170490,1,0,0:0:0:0:
64,224,170677,1,8,0:0:0:0:
128,160,170865,1,0,0:0:0:0:
96,192,171052,1,8,0:0:0:0:
96,224,171240,1,0,0:0:0:0:
96,192,171333,1,0,0:0:0:0:
96,160,171427,1,8,0:0:0:0:
96,192,171615,1,0,0:0:0:0:
96,192,171802,1,8,0:0:0:0:
96,192,171990,1,0,0:0:0:0:
128,192,172177,1,8,0:0:0:0:
128,192,172271,1,8,0:0:0:0:
128,192,172365,1,0,0:0:0:0:
160,160,172552,1,8,0:0:0:0:
160,128,172740,1,0,0:0:0:0:
128,128,172927,1,8,0:0:0:0:
96,160,173115,1,0,0:0:0:0:
96,160,173208,1,0,0:0:0:0:
64,160,173302,1,8,0:0:0:0:
64,192,173396,1,0,0:0:0:0:
64,160,173489,1,0,0:0:0:0:
64,192,173677,1,8,0:0:0:0:
96,224,173865,1,0,0:0:0:0:
96,224,174052,1,8,0:0:0:0:
96,224,174240,1,0,0:0:0:0:
64,224,174427,1,8,0:0:0:0:
96,224,174615,1,8,0:0:0:0:
96,224,174708,1,8,0:0:0:0:
96,224,174802,1,0,0:0:0:0:
96,224,174990,1,0,0:0:0:0:
96,224,175083,1,0,0:0:0:0:
96,224,175177,1,8,0:0:0:0:
96,224,175365,1,8,0:0:0:0:
96,224,175458,1,0,0:0:0:0:
96,224,175552,1,0,0:0:0:0:
96,224,175740,1,8,0:0:0:0:
96,224,175833,1,0,0:0:0:0:
96,224,175927,1,8,0:0:0:0:
96,224,176021,1,8,0:0:0:0:
96,224,176115,1,0,0:0:0:0:
64,224,176302,1,0,0:0:0:0:
64,224,176396,1,8,0:0:0:0:
96,224,176583,1,0,0:0:0:0:
96,256,176677,1,8,0:0:0:0:
88,202,177052,1,8,0:0:0:0:
88,202,177240,1,8,0:0:0:0:
68,202,177333,1,8,0:0:0:0:
15,58,177615,2,0,L|237:262,10,280,0|0|0|0|0|0|0|0|0|0|0,0:0|0:0|0:0|0:0|0:0|0:0|0:0|0:0|0:0|0:0|0:0,0:0:0:0:
