osu file format v14

[General]
AudioFilename: 8bp117-02-rainbowdragoneyes-creatures_ov_deception.mp3
AudioLeadIn: 0
PreviewTime: 145851
Countdown: 0
SampleSet: Normal
StackLeniency: 0.7
Mode: 1
LetterboxInBreaks: 0
WidescreenStoryboard: 0

[Editor]
DistanceSpacing: 0.8
BeatDivisor: 4
GridSize: 32
TimelineZoom: 2.5

[Metadata]
Title:Creatures ov Deception
TitleUnicode:Creatures ov Deception
Artist:Rainbowdragoneyes
ArtistUnicode:Rainbowdragoneyes
Creator:Mew104
Version:Oni
Source:
Tags:chiptune retro 8-bit chromoxx
BeatmapID:935081
BeatmapSetID:413267

[Difficulty]
HPDrainRate:5
CircleSize:5
OverallDifficulty:5.5
ApproachRate:5
SliderMultiplier:1.4
SliderTickRate:1

[Events]
//Background and Video events
0,0,"tumblr_mb6i4pmodG1qh1z75o4_1280.png",0,0
//Break Periods
//Storyboard Layer 0 (Background)
//Storyboard Layer 1 (Fail)
//Storyboard Layer 2 (Pass)
//Storyboard Layer 3 (Foreground)
//Storyboard Sound Samples

[TimingPoints]
36,315.789473684211,4,1,0,70,1,0
20246,-100,4,1,0,100,0,0
50562,-100,4,1,0,100,0,1
70772,-100,4,1,0,100,0,0
113720,-100,4,1,0,100,0,1
143957,-100,4,1,0,100,0,0

[HitObjects]
256,192,36,5,0,0:0:0:0:
256,192,193,1,8,0:0:0:0:
256,192,351,1,8,0:0:0:0:
256,192,509,1,0,0:0:0:0:
256,192,667,1,0,0:0:0:0:
256,192,983,1,8,0:0:0:0:
256,192,1299,1,8,0:0:0:0:
256,192,1457,1,8,0:0:0:0:
256,192,1614,1,0,0:0:0:0:
256,192,1772,1,8,0:0:0:0:
256,192,1930,1,0,0:0:0:0:
256,192,2246,1,8,0:0:0:0:
256,192,2562,1,8,0:0:0:0:
256,192,2720,1,8,0:0:0:0:
256,192,2878,1,0,0:0:0:0:
256,192,3036,1,8,0:0:0:0:
256,192,3193,1,8,0:0:0:0:
256,192,3509,1,8,0:0:0:0:
256,192,3825,1,8,0:0:0:0:
256,192,3983,1,8,0:0:0:0:
256,192,4141,1,0,0:0:0:0:
256,192,4299,1,8,0:0:0:0:
256,192,4457,1,0,0:0:0:0:
256,192,4772,1,8,0:0:0:0:
256,192,5088,1,8,0:0:0:0:
256,192,5167,1,8,0:0:0:0:
256,192,5246,1,8,0:0:0:0:
256,192,5404,1,0,0:0:0:0:
256,192,5720,1,0,0:0:0:0:
256,192,5878,1,8,0:0:0:0:
256,192,6036,1,8,0:0:0:0:
256,192,6193,1,0,0:0:0:0:
256,192,6351,1,8,0:0:0:0:
256,192,6430,1,8,0:0:0:0:
256,192,6509,1,8,0:0:0:0:
256,192,6667,1,0,0:0:0:0:
256,192,6983,1,0,0:0:0:0:
256,192,7141,1,8,0:0:0:0:
256,192,7299,1,8,0:0:0:0:
256,192,7457,1,0,0:0:0:0:
256,192,7614,1,8,0:0:0:0:
256,192,7693,1,8,0:0:0:0:
256,192,7772,1,0,0:0:0:0:
256,192,7930,1,8,0:0:0:0:
256,192,8088,1,8,0:0:0:0:
256,192,8246,1,8,0:0:0:0:
256,192,8325,1,0,0:0:0:0:
256,192,8404,1,0,0:0:0:0:
256,192,8562,1,8,0:0:0:0:
256,192,8720,1,8,0:0:0:0:
256,192,8878,1,0,0:0:0:0:
256,192,9036,1,8,0:0:0:0:
256,192,9193,1,8,0:0:0:0:
256,192,9351,1,8,0:0:0:0:
256,192,9509,1,0,0:0:0:0:
256,192,9825,1,8,0:0:0:0:
256,192,10141,1,0,0:0:0:0:
256,192,10299,1,8,0:0:0:0:
256,192,10457,1,8,0:0:0:0:
256,192,10772,1,0,0:0:0:0:
256,192,10930,1,8,0:0:0:0:
256,192,11009,1,8,0:0:0:0:
256,192,11088,1,8,0:0:0:0:
256,192,11246,1,8,0:0:0:0:
256,192,11404,1,0,0:0:0:0:
256,192,11562,1,8,0:0:0:0:
256,192,11720,1,8,0:0:0:0:
256,192,12036,1,0,0:0:0:0:
256,192,12193,1,8,0:0:0:0:
256,192,12272,1,8,0:0:0:0:
256,192,12351,1,8,0:0:0:0:
256,192,12509,1,8,0:0:0:0:
256,192,12667,1,0,0:0:0:0:
256,192,12825,1,8,0:0:0:0:
256,192,12983,1,8,0:0:0:0:
256,192,13299,1,0,0:0:0:0:
256,192,13457,1,8,0:0:0:0:
256,192,13536,1,8,0:0:0:0:
256,192,13614,1,0,0:0:0:0:
256,192,13772,1,8,0:0:0:0:
256,192,13930,1,0,0:0:0:0:
256,192,14088,1,8,0:0:0:0:
256,192,14246,1,8,0:0:0:0:
256,192,14562,1,0,0:0:0:0:
256,192,14720,1,8,0:0:0:0:
256,192,14878,1,8,0:0:0:0:
256,192,15036,1,0,0:0:0:0:
256,192,15193,1,8,0:0:0:0:
256,192,15272,1,8,0:0:0:0:
256,192,15351,1,0,0:0:0:0:
256,192,15509,1,8,0:0:0:0:
256,192,15667,1,0,0:0:0:0:
256,192,15746,1,0,0:0:0:0:
256,192,15825,1,0,0:0:0:0:
256,192,15983,1,0,0:0:0:0:
256,192,16141,1,8,0:0:0:0:
256,192,16457,1,8,0:0:0:0:
256,192,16536,1,8,0:0:0:0:
256,192,16614,1,0,0:0:0:0:
256,192,16772,1,8,0:0:0:0:
256,192,16930,1,0,0:0:0:0:
256,192,17009,1,0,0:0:0:0:
256,192,17088,1,0,0:0:0:0:
256,192,17246,1,0,0:0:0:0:
256,192,17404,1,8,0:0:0:0:
256,192,17720,1,8,0:0:0:0:
256,192,17878,1,8,0:0:0:0:
256,192,18036,1,0,0:0:0:0:
256,192,18193,1,8,0:0:0:0:
256,192,18351,1,8,0:0:0:0:
256,192,18430,1,8,0:0:0:0:
256,192,18509,1,0,0:0:0:0:
256,192,18588,1,0,0:0:0:0:
256,192,18667,1,8,0:0:0:0:
256,192,18825,1,0,0:0:0:0:
256,192,18983,12,0,20088,0:0:0:0:
256,192,20246,5,12,0:0:0:0:
256,192,20562,1,0,0:0:0:0:
256,192,20720,1,0,0:0:0:0:
256,192,20799,1,0,0:0:0:0:
256,192,20878,1,8,0:0:0:0:
256,192,21036,1,0,0:0:0:0:
256,192,21193,1,8,0:0:0:0:
256,192,21272,1,8,0:0:0:0:
256,192,21351,1,0,0:0:0:0:
256,192,21509,1,0,0:0:0:0:
256,192,21667,1,0,0:0:0:0:
256,192,21825,1,8,0:0:0:0:
256,192,21983,1,8,0:0:0:0:
256,192,22299,1,0,0:0:0:0:
256,192,22457,1,8,0:0:0:0:
256,192,22614,1,8,0:0:0:0:
256,192,22693,1,8,0:0:0:0:
256,192,22772,1,0,0:0:0:0:
256,192,22930,1,0,0:0:0:0:
256,192,23009,1,0,0:0:0:0:
256,192,23088,1,8,0:0:0:0:
256,192,23246,1,0,0:0:0:0:
256,192,23404,1,8,0:0:0:0:
256,192,23720,1,8,0:0:0:0:
256,192,23878,1,8,0:0:0:0:
256,192,24193,1,0,0:0:0:0:
256,192,24351,1,8,0:0:0:0:
256,192,24509,1,0,0:0:0:0:
256,192,24667,1,8,0:0:0:0:
256,192,24746,1,8,0:0:0:0:
256,192,24904,1,0,0:0:0:0:
256,192,24983,1,8,0:0:0:0:
256,192,25141,1,0,0:0:0:0:
256,192,25299,1,8,0:0:0:0:
256,192,25457,1,0,0:0:0:0:
256,192,25772,1,0,0:0:0:0:
256,192,25930,1,8,0:0:0:0:
256,192,26088,1,0,0:0:0:0:
256,192,26246,1,8,0:0:0:0:
256,192,26325,1,8,0:0:0:0:
256,192,26404,1,0,0:0:0:0:
256,192,26562,1,0,0:0:0:0:
256,192,26720,1,0,0:0:0:0:
256,192,26878,1,8,0:0:0:0:
256,192,27036,1,8,0:0:0:0:
256,192,27351,1,8,0:0:0:0:
256,192,27509,1,8,0:0:0:0:
256,192,27667,1,0,0:0:0:0:
256,192,27825,1,8,0:0:0:0:
256,192,27904,1,8,0:0:0:0:
256,192,27983,1,0,0:0:0:0:
256,192,28062,1,0,0:0:0:0:
256,192,28141,1,8,0:0:0:0:
256,192,28299,1,8,0:0:0:0:
256,192,28457,1,0,0:0:0:0:
256,192,28536,1,0,0:0:0:0:
256,192,28614,1,0,0:0:0:0:
256,192,28693,1,0,0:0:0:0:
256,192,28772,1,8,0:0:0:0:
256,192,28930,1,8,0:0:0:0:
256,192,29088,1,0,0:0:0:0:
256,192,29246,1,8,0:0:0:0:
256,192,29404,1,8,0:0:0:0:
256,192,29562,1,0,0:0:0:0:
256,192,29720,1,8,0:0:0:0:
256,192,30351,1,4,0:0:0:0:
256,192,30667,1,8,0:0:0:0:
256,192,30983,1,0,0:0:0:0:
256,192,31141,1,0,0:0:0:0:
256,192,31220,1,0,0:0:0:0:
256,192,31299,1,8,0:0:0:0:
256,192,31457,1,0,0:0:0:0:
256,192,31614,1,8,0:0:0:0:
256,192,31772,1,0,0:0:0:0:
256,192,31930,1,8,0:0:0:0:
256,192,32088,1,8,0:0:0:0:
256,192,32246,1,0,0:0:0:0:
256,192,32404,1,8,0:0:0:0:
256,192,32562,1,8,0:0:0:0:
256,192,32641,1,8,0:0:0:0:
256,192,32720,1,0,0:0:0:0:
256,192,32878,1,8,0:0:0:0:
256,192,33193,1,0,0:0:0:0:
256,192,33351,1,8,0:0:0:0:
256,192,33509,1,8,0:0:0:0:
256,192,33667,1,0,0:0:0:0:
256,192,33746,1,0,0:0:0:0:
256,192,33825,1,8,0:0:0:0:
256,192,33983,1,0,0:0:0:0:
256,192,34141,1,12,0:0:0:0:
256,192,34457,1,4,0:0:0:0:
256,192,34772,1,12,0:0:0:0:
256,192,35088,1,4,0:0:0:0:
256,192,35246,1,0,0:0:0:0:
256,192,35404,1,12,0:0:0:0:
256,192,35562,1,0,0:0:0:0:
256,192,35641,1,0,0:0:0:0:
256,192,35720,1,8,0:0:0:0:
256,192,35878,1,0,0:0:0:0:
256,192,36036,1,8,0:0:0:0:
256,192,36114,1,8,0:0:0:0:
256,192,36193,1,0,0:0:0:0:
256,192,36351,1,8,0:0:0:0:
256,192,36509,1,8,0:0:0:0:
256,192,36667,1,8,0:0:0:0:
256,192,36746,1,8,0:0:0:0:
256,192,36825,1,0,0:0:0:0:
256,192,36904,1,0,0:0:0:0:
256,192,36983,1,8,0:0:0:0:
256,192,37141,1,0,0:0:0:0:
256,192,37299,1,8,0:0:0:0:
256,192,37614,1,8,0:0:0:0:
256,192,37772,1,0,0:0:0:0:
256,192,37851,1,0,0:0:0:0:
256,192,37930,1,8,0:0:0:0:
256,192,38088,1,0,0:0:0:0:
256,192,38246,1,8,0:0:0:0:
256,192,38325,1,0,0:0:0:0:
256,192,38404,1,0,0:0:0:0:
256,192,38483,1,0,0:0:0:0:
256,192,38562,1,8,0:0:0:0:
256,192,38720,1,0,0:0:0:0:
256,192,38878,1,8,0:0:0:0:
256,192,39036,1,0,0:0:0:0:
256,192,39193,1,8,0:0:0:0:
256,192,39272,1,8,0:0:0:0:
256,192,39351,1,0,0:0:0:0:
256,192,39430,1,0,0:0:0:0:
256,192,39509,1,8,0:0:0:0:
256,192,39667,1,0,0:0:0:0:
256,192,39825,1,8,0:0:0:0:
256,192,39983,1,8,0:0:0:0:
256,192,40141,1,0,0:0:0:0:
256,192,40299,1,8,0:0:0:0:
256,192,40457,1,0,0:0:0:0:
256,192,40772,1,8,0:0:0:0:
256,192,41088,1,0,0:0:0:0:
256,192,41246,1,0,0:0:0:0:
256,192,41325,1,0,0:0:0:0:
256,192,41404,1,8,0:0:0:0:
256,192,41562,1,0,0:0:0:0:
256,192,41720,1,8,0:0:0:0:
256,192,41878,1,0,0:0:0:0:
256,192,42036,1,8,0:0:0:0:
256,192,42193,1,8,0:0:0:0:
256,192,42351,1,0,0:0:0:0:
256,192,42509,1,8,0:0:0:0:
256,192,42667,1,8,0:0:0:0:
256,192,42746,1,8,0:0:0:0:
256,192,42825,1,0,0:0:0:0:
256,192,42983,1,8,0:0:0:0:
256,192,43299,1,0,0:0:0:0:
256,192,43457,1,8,0:0:0:0:
256,192,43614,1,8,0:0:0:0:
256,192,43772,1,0,0:0:0:0:
256,192,43851,1,0,0:0:0:0:
256,192,43930,1,8,0:0:0:0:
256,192,44088,1,0,0:0:0:0:
256,192,44246,1,12,0:0:0:0:
256,192,44404,1,0,0:0:0:0:
256,192,44483,1,0,0:0:0:0:
256,192,44562,1,8,0:0:0:0:
256,192,44641,1,8,0:0:0:0:
256,192,44720,1,0,0:0:0:0:
256,192,44878,1,12,0:0:0:0:
256,192,45193,1,4,0:0:0:0:
256,192,45351,1,0,0:0:0:0:
256,192,45509,1,12,0:0:0:0:
256,192,45825,1,0,0:0:0:0:
256,192,46141,1,8,0:0:0:0:
256,192,46299,1,0,0:0:0:0:
256,192,46378,1,0,0:0:0:0:
256,192,46457,1,8,0:0:0:0:
256,192,46614,1,0,0:0:0:0:
256,192,46772,1,8,0:0:0:0:
256,192,46851,1,8,0:0:0:0:
256,192,46930,1,0,0:0:0:0:
256,192,47088,1,8,0:0:0:0:
256,192,47167,1,8,0:0:0:0:
256,192,47246,1,0,0:0:0:0:
256,192,47404,1,8,0:0:0:0:
256,192,47483,1,8,0:0:0:0:
256,192,47562,1,0,0:0:0:0:
256,192,47641,1,0,0:0:0:0:
256,192,47720,1,8,0:0:0:0:
256,192,47878,1,0,0:0:0:0:
256,192,48036,1,8,0:0:0:0:
256,192,48114,1,0,0:0:0:0:
256,192,48272,1,0,0:0:0:0:
256,192,48351,1,8,0:0:0:0:
256,192,48509,1,0,0:0:0:0:
256,192,48667,1,8,0:0:0:0:
256,192,48825,1,0,0:0:0:0:
256,192,48904,1,0,0:0:0:0:
256,192,48983,1,8,0:0:0:0:
256,192,49141,1,0,0:0:0:0:
256,192,49299,1,8,0:0:0:0:
256,192,49378,1,8,0:0:0:0:
256,192,49457,1,0,0:0:0:0:
256,192,49536,1,0,0:0:0:0:
256,192,49614,1,8,0:0:0:0:
256,192,49772,1,0,0:0:0:0:
256,192,49930,1,8,0:0:0:0:
256,192,50246,1,8,0:0:0:0:
256,192,50404,1,8,0:0:0:0:
256,192,50562,1,4,0:0:0:0:
256,192,50720,1,8,0:0:0:0:
256,192,50878,1,0,0:0:0:0:
256,192,50957,1,0,0:0:0:0:
256,192,51036,1,8,0:0:0:0:
256,192,51193,1,0,0:0:0:0:
256,192,51351,1,8,0:0:0:0:
256,192,51509,1,8,0:0:0:0:
256,192,51825,1,0,0:0:0:0:
256,192,51983,1,8,0:0:0:0:
256,192,52062,1,8,0:0:0:0:
256,192,52141,1,0,0:0:0:0:
256,192,52299,1,8,0:0:0:0:
256,192,52457,1,0,0:0:0:0:
256,192,52614,1,8,0:0:0:0:
256,192,52693,1,8,0:0:0:0:
256,192,52772,1,0,0:0:0:0:
256,192,52851,1,0,0:0:0:0:
256,192,52930,1,8,0:0:0:0:
256,192,53088,1,0,0:0:0:0:
256,192,53404,1,8,0:0:0:0:
256,192,53562,1,8,0:0:0:0:
256,192,53720,1,0,0:0:0:0:
256,192,53878,1,8,0:0:0:0:
256,192,54036,1,8,0:0:0:0:
256,192,54193,1,0,0:0:0:0:
256,192,54272,1,0,0:0:0:0:
256,192,54351,1,0,0:0:0:0:
256,192,54509,1,0,0:0:0:0:
256,192,54667,1,8,0:0:0:0:
256,192,54746,1,0,0:0:0:0:
256,192,54825,1,8,0:0:0:0:
256,192,54983,1,0,0:0:0:0:
256,192,55141,1,8,0:0:0:0:
256,192,55299,1,8,0:0:0:0:
256,192,55378,1,8,0:0:0:0:
256,192,55457,1,8,0:0:0:0:
256,192,55536,1,8,0:0:0:0:
256,192,55614,1,0,0:0:0:0:
256,192,55772,1,8,0:0:0:0:
256,192,55930,1,0,0:0:0:0:
256,192,56009,1,0,0:0:0:0:
256,192,56088,1,8,0:0:0:0:
256,192,56246,1,0,0:0:0:0:
256,192,56404,1,8,0:0:0:0:
256,192,56562,1,8,0:0:0:0:
256,192,56878,1,0,0:0:0:0:
256,192,57036,1,8,0:0:0:0:
256,192,57114,1,8,0:0:0:0:
256,192,57193,1,0,0:0:0:0:
256,192,57351,1,8,0:0:0:0:
256,192,57509,1,0,0:0:0:0:
256,192,57667,1,8,0:0:0:0:
256,192,57746,1,0,0:0:0:0:
256,192,57825,1,8,0:0:0:0:
256,192,57904,1,8,0:0:0:0:
256,192,57983,1,0,0:0:0:0:
256,192,58141,1,8,0:0:0:0:
256,192,58299,1,0,0:0:0:0:
256,192,58378,1,0,0:0:0:0:
256,192,58457,1,8,0:0:0:0:
256,192,58614,1,0,0:0:0:0:
256,192,58772,1,8,0:0:0:0:
256,192,58851,1,0,0:0:0:0:
256,192,58930,1,0,0:0:0:0:
256,192,59009,1,0,0:0:0:0:
256,192,59088,1,8,0:0:0:0:
256,192,59246,1,8,0:0:0:0:
256,192,59404,1,0,0:0:0:0:
256,192,59720,1,8,0:0:0:0:
256,192,59878,1,8,0:0:0:0:
256,192,60036,1,0,0:0:0:0:
256,192,60193,1,0,0:0:0:0:
256,192,60272,1,0,0:0:0:0:
256,192,60351,1,8,0:0:0:0:
256,192,60430,1,8,0:0:0:0:
256,192,60509,1,0,0:0:0:0:
256,192,60588,1,0,0:0:0:0:
256,192,60667,1,8,0:0:0:0:
256,192,60983,1,8,0:0:0:0:
256,192,61299,1,0,0:0:0:0:
256,192,61457,1,8,0:0:0:0:
256,192,61536,1,8,0:0:0:0:
256,192,61614,1,0,0:0:0:0:
256,192,61772,1,8,0:0:0:0:
256,192,61930,1,0,0:0:0:0:
256,192,62088,1,8,0:0:0:0:
256,192,62167,1,8,0:0:0:0:
256,192,62246,1,0,0:0:0:0:
256,192,62325,1,0,0:0:0:0:
256,192,62404,1,8,0:0:0:0:
256,192,62562,1,0,0:0:0:0:
256,192,62641,1,0,0:0:0:0:
256,192,62720,1,0,0:0:0:0:
256,192,62799,1,0,0:0:0:0:
256,192,62878,1,8,0:0:0:0:
256,192,63036,1,8,0:0:0:0:
256,192,63193,1,8,0:0:0:0:
256,192,63351,1,0,0:0:0:0:
256,192,63430,1,8,0:0:0:0:
256,192,63509,1,0,0:0:0:0:
256,192,63667,1,8,0:0:0:0:
256,192,63825,1,0,0:0:0:0:
256,192,63983,1,8,0:0:0:0:
256,192,64141,1,8,0:0:0:0:
256,192,64299,1,0,0:0:0:0:
256,192,64378,1,0,0:0:0:0:
256,192,64457,1,0,0:0:0:0:
256,192,64614,1,0,0:0:0:0:
256,192,64772,1,8,0:0:0:0:
256,192,64851,1,0,0:0:0:0:
256,192,64930,1,8,0:0:0:0:
256,192,65088,1,0,0:0:0:0:
256,192,65246,1,8,0:0:0:0:
256,192,65404,1,8,0:0:0:0:
256,192,65483,1,8,0:0:0:0:
256,192,65562,1,8,0:0:0:0:
256,192,65641,1,8,0:0:0:0:
256,192,65720,1,0,0:0:0:0:
256,192,66036,1,8,0:0:0:0:
256,192,66351,1,0,0:0:0:0:
256,192,66509,1,8,0:0:0:0:
256,192,66588,1,8,0:0:0:0:
256,192,66667,1,0,0:0:0:0:
256,192,66825,1,8,0:0:0:0:
256,192,66983,1,0,0:0:0:0:
256,192,67141,1,0,0:0:0:0:
256,192,67220,1,0,0:0:0:0:
256,192,67299,1,8,0:0:0:0:
256,192,67457,1,8,0:0:0:0:
256,192,67614,1,0,0:0:0:0:
256,192,67772,1,8,0:0:0:0:
256,192,67851,1,0,0:0:0:0:
256,192,67930,1,8,0:0:0:0:
256,192,68009,1,8,0:0:0:0:
256,192,68088,1,0,0:0:0:0:
256,192,68246,1,0,0:0:0:0:
256,192,68562,1,8,0:0:0:0:
256,192,68720,1,0,0:0:0:0:
256,192,68799,1,0,0:0:0:0:
256,192,68878,1,8,0:0:0:0:
256,192,69036,1,8,0:0:0:0:
256,192,69193,1,0,0:0:0:0:
256,192,69272,1,0,0:0:0:0:
256,192,69351,1,8,0:0:0:0:
256,192,69430,1,8,0:0:0:0:
256,192,69509,1,0,0:0:0:0:
256,192,69667,1,8,0:0:0:0:
256,192,69825,1,0,0:0:0:0:
256,192,69983,1,8,0:0:0:0:
256,192,70141,1,0,0:0:0:0:
256,192,70299,1,8,0:0:0:0:
256,192,70378,1,8,0:0:0:0:
256,192,70457,1,8,0:0:0:0:
256,192,70536,1,8,0:0:0:0:
256,192,70614,1,8,0:0:0:0:
256,192,70772,1,0,0:0:0:0:
256,192,70930,1,8,0:0:0:0:
256,192,71088,1,8,0:0:0:0:
256,192,71404,1,8,0:0:0:0:
256,192,72036,1,4,0:0:0:0:
256,192,72351,1,8,0:0:0:0:
256,192,72509,1,0,0:0:0:0:
256,192,72588,1,0,0:0:0:0:
256,192,72667,1,8,0:0:0:0:
256,192,72825,1,0,0:0:0:0:
256,192,72983,1,8,0:0:0:0:
256,192,73062,1,8,0:0:0:0:
256,192,73141,1,0,0:0:0:0:
256,192,73220,1,0,0:0:0:0:
256,192,73299,1,0,0:0:0:0:
256,192,73457,1,0,0:0:0:0:
256,192,73536,1,0,0:0:0:0:
256,192,73614,1,8,0:0:0:0:
256,192,73772,1,8,0:0:0:0:
256,192,73930,1,0,0:0:0:0:
256,192,74088,1,8,0:0:0:0:
256,192,74246,1,8,0:0:0:0:
256,192,74325,1,8,0:0:0:0:
256,192,74404,1,0,0:0:0:0:
256,192,74562,1,0,0:0:0:0:
256,192,74878,1,8,0:0:0:0:
256,192,75036,1,0,0:0:0:0:
256,192,75114,1,0,0:0:0:0:
256,192,75193,1,8,0:0:0:0:
256,192,75351,1,8,0:0:0:0:
256,192,75509,1,0,0:0:0:0:
256,192,75588,1,0,0:0:0:0:
256,192,75667,1,8,0:0:0:0:
256,192,75746,1,8,0:0:0:0:
256,192,75825,1,0,0:0:0:0:
256,192,75983,1,8,0:0:0:0:
256,192,76062,1,8,0:0:0:0:
256,192,76141,1,8,0:0:0:0:
256,192,76299,1,0,0:0:0:0:
256,192,76457,1,8,0:0:0:0:
256,192,76614,1,8,0:0:0:0:
256,192,76772,1,0,0:0:0:0:
256,192,76930,1,8,0:0:0:0:
256,192,77088,1,0,0:0:0:0:
256,192,77404,1,8,0:0:0:0:
256,192,77562,1,0,0:0:0:0:
256,192,77641,1,0,0:0:0:0:
256,192,77720,1,8,0:0:0:0:
256,192,77878,1,8,0:0:0:0:
256,192,78036,1,8,0:0:0:0:
256,192,78114,1,8,0:0:0:0:
256,192,78193,1,0,0:0:0:0:
256,192,78272,1,0,0:0:0:0:
256,192,78351,1,8,0:0:0:0:
256,192,78509,1,0,0:0:0:0:
256,192,78667,1,8,0:0:0:0:
256,192,78825,1,0,0:0:0:0:
256,192,78904,1,0,0:0:0:0:
256,192,78983,1,8,0:0:0:0:
256,192,79141,1,0,0:0:0:0:
256,192,79299,1,8,0:0:0:0:
256,192,79457,1,8,0:0:0:0:
256,192,79614,1,0,0:0:0:0:
256,192,79930,1,8,0:0:0:0:
256,192,80246,1,0,0:0:0:0:
256,192,80404,1,8,0:0:0:0:
256,192,80483,1,8,0:0:0:0:
256,192,80562,1,0,0:0:0:0:
256,192,80720,1,8,0:0:0:0:
256,192,80878,1,8,0:0:0:0:
256,192,80957,1,8,0:0:0:0:
256,192,81114,1,0,0:0:0:0:
256,192,81193,1,8,0:0:0:0:
256,192,81351,1,0,0:0:0:0:
256,192,81509,1,12,0:0:0:0:
256,192,82141,1,4,0:0:0:0:
256,192,82457,1,8,0:0:0:0:
256,192,82615,1,0,0:0:0:0:
256,192,82772,1,8,0:0:0:0:
256,192,82851,1,8,0:0:0:0:
256,192,82931,1,0,0:0:0:0:
256,192,83009,1,0,0:0:0:0:
256,192,83088,1,8,0:0:0:0:
256,192,83247,1,0,0:0:0:0:
256,192,83404,1,8,0:0:0:0:
256,192,83562,1,0,0:0:0:0:
256,192,83641,1,0,0:0:0:0:
256,192,83720,1,8,0:0:0:0:
256,192,83878,1,8,0:0:0:0:
256,192,84036,1,0,0:0:0:0:
256,192,84193,1,8,0:0:0:0:
256,192,84272,1,0,0:0:0:0:
256,192,84351,1,8,0:0:0:0:
256,192,84509,1,0,0:0:0:0:
256,192,84667,1,0,0:0:0:0:
256,192,84983,1,8,0:0:0:0:
256,192,85141,1,0,0:0:0:0:
256,192,85299,1,8,0:0:0:0:
256,192,85457,1,0,0:0:0:0:
256,192,85536,1,8,0:0:0:0:
256,192,85614,1,0,0:0:0:0:
256,192,85772,1,8,0:0:0:0:
256,192,85930,1,8,0:0:0:0:
256,192,86009,1,8,0:0:0:0:
256,192,86088,1,8,0:0:0:0:
256,192,86167,1,8,0:0:0:0:
256,192,86246,1,0,0:0:0:0:
256,192,86404,1,8,0:0:0:0:
256,192,86562,1,0,0:0:0:0:
256,192,86641,1,0,0:0:0:0:
256,192,86720,1,8,0:0:0:0:
256,192,86799,1,8,0:0:0:0:
256,192,86878,1,0,0:0:0:0:
256,192,87036,1,8,0:0:0:0:
256,192,87193,1,0,0:0:0:0:
256,192,87509,1,8,0:0:0:0:
256,192,87667,1,0,0:0:0:0:
256,192,87746,1,0,0:0:0:0:
256,192,87825,1,8,0:0:0:0:
256,192,87983,1,8,0:0:0:0:
256,192,88141,1,8,0:0:0:0:
256,192,88219,1,8,0:0:0:0:
256,192,88298,1,0,0:0:0:0:
256,192,88377,1,0,0:0:0:0:
256,192,88456,1,8,0:0:0:0:
256,192,88614,1,0,0:0:0:0:
256,192,88772,1,8,0:0:0:0:
256,192,88930,1,0,0:0:0:0:
256,192,89009,1,0,0:0:0:0:
256,192,89088,1,8,0:0:0:0:
256,192,89246,1,0,0:0:0:0:
256,192,89404,1,8,0:0:0:0:
256,192,89562,1,8,0:0:0:0:
256,192,89719,1,0,0:0:0:0:
256,192,90036,1,8,0:0:0:0:
256,192,90351,1,0,0:0:0:0:
256,192,90509,1,8,0:0:0:0:
256,192,90667,1,8,0:0:0:0:
256,192,90825,1,0,0:0:0:0:
256,192,90904,1,0,0:0:0:0:
256,192,90983,1,0,0:0:0:0:
256,192,91141,1,8,0:0:0:0:
256,192,91299,1,8,0:0:0:0:
256,192,91457,1,0,0:0:0:0:
256,192,91614,1,8,0:0:0:0:
256,192,92246,1,12,0:0:0:0:
256,192,92562,1,0,0:0:0:0:
256,192,92720,1,0,0:0:0:0:
256,192,92799,1,0,0:0:0:0:
256,192,92878,1,8,0:0:0:0:
256,192,93036,1,0,0:0:0:0:
256,192,93193,1,8,0:0:0:0:
256,192,93272,1,8,0:0:0:0:
256,192,93351,1,0,0:0:0:0:
256,192,93509,1,0,0:0:0:0:
256,192,93667,1,0,0:0:0:0:
256,192,93825,1,8,0:0:0:0:
256,192,93983,1,8,0:0:0:0:
256,192,94299,1,0,0:0:0:0:
256,192,94457,1,8,0:0:0:0:
256,192,94614,1,8,0:0:0:0:
256,192,94693,1,8,0:0:0:0:
256,192,94772,1,0,0:0:0:0:
256,192,94930,1,0,0:0:0:0:
256,192,95009,1,0,0:0:0:0:
256,192,95088,1,8,0:0:0:0:
256,192,95246,1,0,0:0:0:0:
256,192,95404,1,8,0:0:0:0:
256,192,95720,1,8,0:0:0:0:
256,192,95878,1,8,0:0:0:0:
256,192,96193,1,0,0:0:0:0:
256,192,96351,1,8,0:0:0:0:
256,192,96509,1,0,0:0:0:0:
256,192,96667,1,8,0:0:0:0:
256,192,96746,1,8,0:0:0:0:
256,192,96904,1,0,0:0:0:0:
256,192,96983,1,8,0:0:0:0:
256,192,97141,1,0,0:0:0:0:
256,192,97299,1,8,0:0:0:0:
256,192,97457,1,0,0:0:0:0:
256,192,97772,1,0,0:0:0:0:
256,192,97930,1,8,0:0:0:0:
256,192,98088,1,0,0:0:0:0:
256,192,98246,1,8,0:0:0:0:
256,192,98325,1,8,0:0:0:0:
256,192,98404,1,0,0:0:0:0:
256,192,98562,1,0,0:0:0:0:
256,192,98720,1,0,0:0:0:0:
256,192,98878,1,8,0:0:0:0:
256,192,99036,1,8,0:0:0:0:
256,192,99351,1,8,0:0:0:0:
256,192,99509,1,8,0:0:0:0:
256,192,99667,1,0,0:0:0:0:
256,192,99825,1,8,0:0:0:0:
256,192,99904,1,8,0:0:0:0:
256,192,99983,1,0,0:0:0:0:
256,192,100062,1,0,0:0:0:0:
256,192,100141,1,8,0:0:0:0:
256,192,100299,1,8,0:0:0:0:
256,192,100457,1,0,0:0:0:0:
256,192,100536,1,0,0:0:0:0:
256,192,100614,1,0,0:0:0:0:
256,192,100693,1,0,0:0:0:0:
256,192,100772,1,8,0:0:0:0:
256,192,100930,1,8,0:0:0:0:
256,192,101088,1,0,0:0:0:0:
256,192,101246,1,8,0:0:0:0:
256,192,101404,1,8,0:0:0:0:
256,192,101562,1,0,0:0:0:0:
256,192,101720,1,12,0:0:0:0:
256,192,102351,1,8,0:0:0:0:
256,192,102509,1,8,0:0:0:0:
256,192,102667,1,8,0:0:0:0:
256,192,102825,1,4,0:0:0:0:
256,192,103614,1,12,0:0:0:0:
256,192,103930,1,0,0:0:0:0:
256,192,104246,1,8,0:0:0:0:
256,192,104404,1,0,0:0:0:0:
256,192,104483,1,0,0:0:0:0:
256,192,104562,1,8,0:0:0:0:
256,192,104720,1,0,0:0:0:0:
256,192,104877,1,8,0:0:0:0:
256,192,104957,1,8,0:0:0:0:
256,192,105035,1,0,0:0:0:0:
256,192,105193,1,8,0:0:0:0:
256,192,105351,1,8,0:0:0:0:
256,192,105509,1,0,0:0:0:0:
256,192,105667,1,8,0:0:0:0:
256,192,105825,1,8,0:0:0:0:
256,192,105904,1,8,0:0:0:0:
256,192,105983,1,0,0:0:0:0:
256,192,106141,1,8,0:0:0:0:
256,192,106457,1,0,0:0:0:0:
256,192,106614,1,8,0:0:0:0:
256,192,106772,1,8,0:0:0:0:
256,192,106930,1,0,0:0:0:0:
256,192,107009,1,0,0:0:0:0:
256,192,107088,1,8,0:0:0:0:
256,192,107246,1,0,0:0:0:0:
256,192,107404,1,12,0:0:0:0:
256,192,107562,1,0,0:0:0:0:
256,192,107641,1,0,0:0:0:0:
256,192,107720,1,8,0:0:0:0:
256,192,107878,1,0,0:0:0:0:
256,192,108035,1,12,0:0:0:0:
256,192,108351,1,4,0:0:0:0:
256,192,108509,1,0,0:0:0:0:
256,192,108667,1,12,0:0:0:0:
256,192,108825,1,0,0:0:0:0:
256,192,108904,1,0,0:0:0:0:
256,192,108983,1,8,0:0:0:0:
256,192,109141,1,0,0:0:0:0:
256,192,109299,1,8,0:0:0:0:
256,192,109377,1,8,0:0:0:0:
256,192,109456,1,0,0:0:0:0:
256,192,109614,1,8,0:0:0:0:
256,192,109772,1,8,0:0:0:0:
256,192,109930,1,8,0:0:0:0:
256,192,110009,1,8,0:0:0:0:
256,192,110088,1,0,0:0:0:0:
256,192,110167,1,0,0:0:0:0:
256,192,110246,1,8,0:0:0:0:
256,192,110404,1,8,0:0:0:0:
256,192,110562,1,0,0:0:0:0:
256,192,110720,1,8,0:0:0:0:
256,192,110878,1,8,0:0:0:0:
256,192,111036,1,0,0:0:0:0:
256,192,111114,1,0,0:0:0:0:
256,192,111193,1,0,0:0:0:0:
256,192,111509,1,0,0:0:0:0:
256,192,111825,1,0,0:0:0:0:
256,192,112141,1,0,0:0:0:0:
256,192,112220,1,0,0:0:0:0:
256,192,112299,1,0,0:0:0:0:
256,192,112378,1,0,0:0:0:0:
256,192,112457,1,0,0:0:0:0:
256,192,113720,1,4,0:0:0:0:
256,192,114036,1,8,0:0:0:0:
256,192,114193,1,0,0:0:0:0:
256,192,114351,1,8,0:0:0:0:
256,192,114509,1,8,0:0:0:0:
256,192,114667,1,0,0:0:0:0:
256,192,114746,1,0,0:0:0:0:
256,192,114825,1,8,0:0:0:0:
256,192,114983,1,8,0:0:0:0:
256,192,115062,1,8,0:0:0:0:
256,192,115141,1,0,0:0:0:0:
256,192,115299,1,8,0:0:0:0:
256,192,115378,1,8,0:0:0:0:
256,192,115457,1,0,0:0:0:0:
256,192,115536,1,0,0:0:0:0:
256,192,115614,1,8,0:0:0:0:
256,192,115693,1,8,0:0:0:0:
256,192,115772,1,0,0:0:0:0:
256,192,115851,1,0,0:0:0:0:
256,192,115930,1,8,0:0:0:0:
256,192,116088,1,0,0:0:0:0:
256,192,116246,1,8,0:0:0:0:
256,192,116562,1,8,0:0:0:0:
256,192,116799,1,0,0:0:0:0:
256,192,116878,1,8,0:0:0:0:
256,192,117036,1,0,0:0:0:0:
256,192,117193,1,8,0:0:0:0:
256,192,117272,1,8,0:0:0:0:
256,192,117351,1,0,0:0:0:0:
256,192,117509,1,8,0:0:0:0:
256,192,117667,1,0,0:0:0:0:
256,192,117825,1,8,0:0:0:0:
256,192,117983,1,8,0:0:0:0:
256,192,118141,1,0,0:0:0:0:
256,192,118299,1,8,0:0:0:0:
256,192,118457,1,8,0:0:0:0:
256,192,118614,1,0,0:0:0:0:
256,192,118693,1,0,0:0:0:0:
256,192,118772,1,0,0:0:0:0:
256,192,118930,1,8,0:0:0:0:
256,192,119088,1,8,0:0:0:0:
256,192,119404,1,8,0:0:0:0:
256,192,119562,1,0,0:0:0:0:
256,192,119720,1,8,0:0:0:0:
256,192,119878,1,8,0:0:0:0:
256,192,120036,1,8,0:0:0:0:
256,192,120193,1,0,0:0:0:0:
256,192,120272,1,8,0:0:0:0:
256,192,120351,1,8,0:0:0:0:
256,192,120509,1,0,0:0:0:0:
256,192,120588,1,0,0:0:0:0:
256,192,120667,1,8,0:0:0:0:
256,192,120825,1,0,0:0:0:0:
256,192,120983,1,8,0:0:0:0:
256,192,121062,1,0,0:0:0:0:
256,192,121141,1,8,0:0:0:0:
256,192,121220,1,8,0:0:0:0:
256,192,121299,1,0,0:0:0:0:
256,192,121457,1,8,0:0:0:0:
256,192,121536,1,8,0:0:0:0:
256,192,121614,1,0,0:0:0:0:
256,192,121772,1,0,0:0:0:0:
256,192,121930,1,8,0:0:0:0:
256,192,122088,1,0,0:0:0:0:
256,192,122167,1,0,0:0:0:0:
256,192,122246,1,8,0:0:0:0:
256,192,122404,1,0,0:0:0:0:
256,192,122562,1,8,0:0:0:0:
256,192,122878,1,0,0:0:0:0:
256,192,123193,1,0,0:0:0:0:
256,192,123351,1,8,0:0:0:0:
256,192,123667,1,8,0:0:0:0:
256,192,123825,1,4,0:0:0:0:
256,192,123983,1,8,0:0:0:0:
256,192,124141,1,0,0:0:0:0:
256,192,124220,1,0,0:0:0:0:
256,192,124299,1,8,0:0:0:0:
256,192,124456,1,0,0:0:0:0:
256,192,124614,1,8,0:0:0:0:
256,192,124772,1,8,0:0:0:0:
256,192,125088,1,0,0:0:0:0:
256,192,125246,1,8,0:0:0:0:
256,192,125325,1,8,0:0:0:0:
256,192,125404,1,0,0:0:0:0:
256,192,125562,1,8,0:0:0:0:
256,192,125720,1,0,0:0:0:0:
256,192,125877,1,8,0:0:0:0:
256,192,125956,1,8,0:0:0:0:
256,192,126035,1,0,0:0:0:0:
256,192,126114,1,0,0:0:0:0:
256,192,126193,1,8,0:0:0:0:
256,192,126351,1,0,0:0:0:0:
256,192,126667,1,8,0:0:0:0:
256,192,126825,1,8,0:0:0:0:
256,192,126983,1,0,0:0:0:0:
256,192,127062,1,0,0:0:0:0:
256,192,127141,1,8,0:0:0:0:
256,192,127220,1,0,0:0:0:0:
256,192,127299,1,8,0:0:0:0:
256,192,127456,1,0,0:0:0:0:
256,192,127535,1,0,0:0:0:0:
256,192,127614,1,0,0:0:0:0:
256,192,127772,1,0,0:0:0:0:
256,192,127851,1,0,0:0:0:0:
256,192,127930,1,8,0:0:0:0:
256,192,128088,1,8,0:0:0:0:
256,192,128246,1,0,0:0:0:0:
256,192,128404,1,8,0:0:0:0:
256,192,128562,1,8,0:0:0:0:
256,192,128641,1,8,0:0:0:0:
256,192,128720,1,8,0:0:0:0:
256,192,128799,1,8,0:0:0:0:
256,192,128877,1,0,0:0:0:0:
256,192,129035,1,8,0:0:0:0:
256,192,129193,1,0,0:0:0:0:
256,192,129272,1,0,0:0:0:0:
256,192,129351,1,8,0:0:0:0:
256,192,129509,1,0,0:0:0:0:
256,192,129667,1,8,0:0:0:0:
256,192,129825,1,8,0:0:0:0:
256,192,130141,1,0,0:0:0:0:
256,192,130299,1,8,0:0:0:0:
256,192,130377,1,8,0:0:0:0:
256,192,130456,1,0,0:0:0:0:
256,192,130614,1,8,0:0:0:0:
256,192,130772,1,0,0:0:0:0:
256,192,130930,1,8,0:0:0:0:
256,192,131009,1,0,0:0:0:0:
256,192,131088,1,8,0:0:0:0:
256,192,131167,1,8,0:0:0:0:
256,192,131246,1,0,0:0:0:0:
256,192,131404,1,8,0:0:0:0:
256,192,131562,1,0,0:0:0:0:
256,192,131641,1,0,0:0:0:0:
256,192,131720,1,8,0:0:0:0:
256,192,131877,1,0,0:0:0:0:
256,192,131957,1,0,0:0:0:0:
256,192,132035,1,8,0:0:0:0:
256,192,132114,1,8,0:0:0:0:
256,192,132193,1,0,0:0:0:0:
256,192,132351,1,8,0:0:0:0:
256,192,132509,1,8,0:0:0:0:
256,192,132667,1,0,0:0:0:0:
256,192,132983,1,8,0:0:0:0:
256,192,133141,1,8,0:0:0:0:
256,192,133299,1,0,0:0:0:0:
256,192,133378,1,0,0:0:0:0:
256,192,133456,1,0,0:0:0:0:
256,192,133535,1,0,0:0:0:0:
256,192,133614,1,8,0:0:0:0:
256,192,133693,1,8,0:0:0:0:
256,192,133772,1,0,0:0:0:0:
256,192,133851,1,0,0:0:0:0:
256,192,133930,1,8,0:0:0:0:
256,192,134246,1,8,0:0:0:0:
256,192,134562,1,0,0:0:0:0:
256,192,134720,1,8,0:0:0:0:
256,192,134799,1,8,0:0:0:0:
256,192,134877,1,0,0:0:0:0:
256,192,135035,1,8,0:0:0:0:
256,192,135193,1,0,0:0:0:0:
256,192,135351,1,8,0:0:0:0:
256,192,135430,1,8,0:0:0:0:
256,192,135509,1,0,0:0:0:0:
256,192,135588,1,0,0:0:0:0:
256,192,135667,1,8,0:0:0:0:
256,192,135825,1,0,0:0:0:0:
256,192,135904,1,0,0:0:0:0:
256,192,135983,1,0,0:0:0:0:
256,192,136062,1,0,0:0:0:0:
256,192,136141,1,8,0:0:0:0:
256,192,136299,1,8,0:0:0:0:
256,192,136457,1,8,0:0:0:0:
256,192,136614,1,0,0:0:0:0:
256,192,136693,1,8,0:0:0:0:
256,192,136772,1,0,0:0:0:0:
256,192,136930,1,8,0:0:0:0:
256,192,137088,1,0,0:0:0:0:
256,192,137246,1,8,0:0:0:0:
256,192,137325,1,8,0:0:0:0:
256,192,137404,1,0,0:0:0:0:
256,192,137562,1,8,0:0:0:0:
256,192,137720,1,0,0:0:0:0:
256,192,137877,1,0,0:0:0:0:
256,192,137957,1,0,0:0:0:0:
256,192,138035,1,8,0:0:0:0:
256,192,138193,1,0,0:0:0:0:
256,192,138272,1,0,0:0:0:0:
256,192,138351,1,0,0:0:0:0:
256,192,138509,1,8,0:0:0:0:
256,192,138667,1,8,0:0:0:0:
256,192,138746,1,8,0:0:0:0:
256,192,138825,1,8,0:0:0:0:
256,192,138904,1,8,0:0:0:0:
256,192,138983,1,0,0:0:0:0:
256,192,139299,1,8,0:0:0:0:
256,192,139614,1,0,0:0:0:0:
256,192,139772,1,8,0:0:0:0:
256,192,139851,1,8,0:0:0:0:
256,192,139930,1,0,0:0:0:0:
256,192,140088,1,8,0:0:0:0:
256,192,140246,1,0,0:0:0:0:
256,192,140404,1,0,0:0:0:0:
256,192,140483,1,0,0:0:0:0:
256,192,140562,1,8,0:0:0:0:
256,192,140720,1,8,0:0:0:0:
256,192,140877,1,0,0:0:0:0:
256,192,141035,1,8,0:0:0:0:
256,192,141114,1,0,0:0:0:0:
256,192,141193,1,8,0:0:0:0:
256,192,141272,1,8,0:0:0:0:
256,192,141351,1,0,0:0:0:0:
256,192,141509,1,0,0:0:0:0:
256,192,141667,1,0,0:0:0:0:
256,192,141746,1,0,0:0:0:0:
256,192,141825,1,8,0:0:0:0:
256,192,141983,1,0,0:0:0:0:
256,192,142062,1,0,0:0:0:0:
256,192,142141,1,8,0:0:0:0:
256,192,142220,1,8,0:0:0:0:
256,192,142299,1,0,0:0:0:0:
256,192,142457,1,8,0:0:0:0:
256,192,142536,1,8,0:0:0:0:
256,192,142614,1,0,0:0:0:0:
256,192,142693,1,0,0:0:0:0:
256,192,142772,1,8,0:0:0:0:
256,192,142930,1,8,0:0:0:0:
256,192,143088,1,0,0:0:0:0:
256,192,143246,1,8,0:0:0:0:
256,192,143404,1,0,0:0:0:0:
256,192,143562,1,8,0:0:0:0:
256,192,143641,1,8,0:0:0:0:
256,192,143720,1,8,0:0:0:0:
256,192,143799,1,8,0:0:0:0:
256,192,143877,1,8,0:0:0:0:
256,192,143957,1,8,0:0:0:0:
256,192,146562,1,4,0:0:0:0:
256,192,146877,1,8,0:0:0:0:
256,192,147035,1,0,0:0:0:0:
256,192,147114,1,0,0:0:0:0:
256,192,147193,1,8,0:0:0:0:
256,192,147351,1,0,0:0:0:0:
256,192,147509,1,8,0:0:0:0:
256,192,147588,1,8,0:0:0:0:
256,192,147667,1,0,0:0:0:0:
256,192,147746,1,0,0:0:0:0:
256,192,147825,1,0,0:0:0:0:
256,192,147983,1,0,0:0:0:0:
256,192,148062,1,0,0:0:0:0:
256,192,148140,1,8,0:0:0:0:
256,192,148298,1,8,0:0:0:0:
256,192,148456,1,0,0:0:0:0:
256,192,148614,1,8,0:0:0:0:
256,192,148772,1,8,0:0:0:0:
256,192,148851,1,8,0:0:0:0:
256,192,148930,1,0,0:0:0:0:
256,192,149088,1,0,0:0:0:0:
256,192,149404,1,8,0:0:0:0:
256,192,149562,1,0,0:0:0:0:
256,192,149640,1,0,0:0:0:0:
256,192,149719,1,8,0:0:0:0:
256,192,149877,1,8,0:0:0:0:
256,192,150035,1,0,0:0:0:0:
256,192,150114,1,0,0:0:0:0:
256,192,150193,1,8,0:0:0:0:
256,192,150272,1,8,0:0:0:0:
256,192,150351,1,0,0:0:0:0:
256,192,150509,1,8,0:0:0:0:
256,192,150588,1,8,0:0:0:0:
256,192,150667,1,8,0:0:0:0:
256,192,150825,1,0,0:0:0:0:
256,192,150983,1,8,0:0:0:0:
256,192,151140,1,8,0:0:0:0:
256,192,151298,1,0,0:0:0:0:
256,192,151456,1,8,0:0:0:0:
256,192,151614,1,0,0:0:0:0:
256,192,151930,1,8,0:0:0:0:
256,192,152088,1,0,0:0:0:0:
256,192,152167,1,0,0:0:0:0:
256,192,152246,1,8,0:0:0:0:
256,192,152404,1,8,0:0:0:0:
256,192,152562,1,8,0:0:0:0:
256,192,152640,1,8,0:0:0:0:
256,192,152719,1,0,0:0:0:0:
256,192,152798,1,0,0:0:0:0:
256,192,152877,1,8,0:0:0:0:
256,192,153035,1,0,0:0:0:0:
256,192,153193,1,8,0:0:0:0:
256,192,153351,1,0,0:0:0:0:
256,192,153430,1,0,0:0:0:0:
256,192,153509,1,8,0:0:0:0:
256,192,153667,1,0,0:0:0:0:
256,192,153825,1,8,0:0:0:0:
256,192,153983,1,8,0:0:0:0:
256,192,154140,1,0,0:0:0:0:
256,192,154456,1,8,0:0:0:0:
256,192,154772,1,0,0:0:0:0:
256,192,154930,1,8,0:0:0:0:
256,192,155009,1,8,0:0:0:0:
256,192,155088,1,0,0:0:0:0:
256,192,155246,1,8,0:0:0:0:
256,192,155404,1,8,0:0:0:0:
256,192,155483,1,8,0:0:0:0:
256,192,155640,1,0,0:0:0:0:
256,192,155719,1,8,0:0:0:0:
256,192,155877,1,0,0:0:0:0:
256,192,156035,1,12,0:0:0:0:
256,192,156667,1,4,0:0:0:0:
256,192,156983,1,8,0:0:0:0:
256,192,157141,1,0,0:0:0:0:
256,192,157299,1,8,0:0:0:0:
256,192,157378,1,8,0:0:0:0:
256,192,157457,1,0,0:0:0:0:
256,192,157536,1,0,0:0:0:0:
256,192,157614,1,8,0:0:0:0:
256,192,157773,1,0,0:0:0:0:
256,192,157930,1,8,0:0:0:0:
256,192,158088,1,0,0:0:0:0:
256,192,158167,1,0,0:0:0:0:
256,192,158246,1,8,0:0:0:0:
256,192,158404,1,8,0:0:0:0:
256,192,158562,1,0,0:0:0:0:
256,192,158719,1,8,0:0:0:0:
256,192,158798,1,0,0:0:0:0:
256,192,158877,1,8,0:0:0:0:
256,192,159035,1,0,0:0:0:0:
256,192,159193,1,0,0:0:0:0:
256,192,159509,1,8,0:0:0:0:
256,192,159667,1,0,0:0:0:0:
256,192,159825,1,8,0:0:0:0:
256,192,159983,1,0,0:0:0:0:
256,192,160062,1,8,0:0:0:0:
256,192,160140,1,0,0:0:0:0:
256,192,160298,1,8,0:0:0:0:
256,192,160456,1,8,0:0:0:0:
256,192,160535,1,8,0:0:0:0:
256,192,160614,1,8,0:0:0:0:
256,192,160693,1,8,0:0:0:0:
256,192,160772,1,0,0:0:0:0:
256,192,160930,1,8,0:0:0:0:
256,192,161088,1,0,0:0:0:0:
256,192,161167,1,0,0:0:0:0:
256,192,161246,1,8,0:0:0:0:
256,192,161325,1,8,0:0:0:0:
256,192,161404,1,0,0:0:0:0:
256,192,161562,1,8,0:0:0:0:
256,192,161719,1,0,0:0:0:0:
256,192,162036,1,8,0:0:0:0:
256,192,162194,1,0,0:0:0:0:
256,192,162273,1,0,0:0:0:0:
256,192,162352,1,8,0:0:0:0:
256,192,162510,1,8,0:0:0:0:
256,192,162668,1,8,0:0:0:0:
256,192,162746,1,8,0:0:0:0:
256,192,162825,1,0,0:0:0:0:
256,192,162904,1,0,0:0:0:0:
256,192,162983,1,8,0:0:0:0:
256,192,163141,1,0,0:0:0:0:
256,192,163299,1,8,0:0:0:0:
256,192,163457,1,0,0:0:0:0:
256,192,163536,1,0,0:0:0:0:
256,192,163615,1,8,0:0:0:0:
256,192,163773,1,0,0:0:0:0:
256,192,163931,1,8,0:0:0:0:
256,192,164089,1,8,0:0:0:0:
256,192,164246,1,0,0:0:0:0:
256,192,164562,1,8,0:0:0:0:
256,192,164877,1,0,0:0:0:0:
256,192,165035,1,8,0:0:0:0:
256,192,165193,1,8,0:0:0:0:
256,192,165351,1,0,0:0:0:0:
256,192,165430,1,0,0:0:0:0:
256,192,165509,1,0,0:0:0:0:
256,192,165667,1,8,0:0:0:0:
256,192,165825,1,8,0:0:0:0:
256,192,165983,1,0,0:0:0:0:
256,192,166140,1,8,0:0:0:0:
256,192,166457,1,0,0:0:0:0:
256,192,166772,12,0,167720,0:0:0:0:
256,192,168036,5,12,0:0:0:0:
256,192,168352,1,0,0:0:0:0:
256,192,168510,1,0,0:0:0:0:
256,192,168588,1,0,0:0:0:0:
256,192,168668,1,8,0:0:0:0:
256,192,168826,1,0,0:0:0:0:
256,192,168983,1,8,0:0:0:0:
256,192,169062,1,8,0:0:0:0:
256,192,169141,1,0,0:0:0:0:
256,192,169299,1,0,0:0:0:0:
256,192,169457,1,0,0:0:0:0:
256,192,169615,1,8,0:0:0:0:
256,192,169773,1,8,0:0:0:0:
256,192,170089,1,0,0:0:0:0:
256,192,170247,1,8,0:0:0:0:
256,192,170404,1,8,0:0:0:0:
256,192,170483,1,8,0:0:0:0:
256,192,170562,1,0,0:0:0:0:
256,192,170720,1,0,0:0:0:0:
256,192,170799,1,0,0:0:0:0:
256,192,170878,1,8,0:0:0:0:
256,192,171036,1,0,0:0:0:0:
256,192,171194,1,8,0:0:0:0:
256,192,171510,1,8,0:0:0:0:
256,192,171668,1,8,0:0:0:0:
256,192,171983,1,0,0:0:0:0:
256,192,172141,1,8,0:0:0:0:
256,192,172299,1,0,0:0:0:0:
256,192,172457,1,8,0:0:0:0:
256,192,172536,1,8,0:0:0:0:
256,192,172694,1,0,0:0:0:0:
256,192,172773,1,8,0:0:0:0:
256,192,172931,1,0,0:0:0:0:
256,192,173089,1,8,0:0:0:0:
256,192,173247,1,0,0:0:0:0:
256,192,173562,1,0,0:0:0:0:
256,192,173720,1,8,0:0:0:0:
256,192,173878,1,0,0:0:0:0:
256,192,174036,1,8,0:0:0:0:
256,192,174115,1,8,0:0:0:0:
256,192,174194,1,0,0:0:0:0:
256,192,174352,1,0,0:0:0:0:
256,192,174510,1,0,0:0:0:0:
256,192,174668,1,8,0:0:0:0:
256,192,174826,1,8,0:0:0:0:
256,192,175141,1,8,0:0:0:0:
256,192,175299,1,8,0:0:0:0:
256,192,175457,1,0,0:0:0:0:
256,192,175615,1,8,0:0:0:0:
256,192,175694,1,8,0:0:0:0:
256,192,175773,1,0,0:0:0:0:
256,192,175852,1,0,0:0:0:0:
256,192,175931,1,8,0:0:0:0:
256,192,176089,1,8,0:0:0:0:
256,192,176247,1,0,0:0:0:0:
256,192,176326,1,0,0:0:0:0:
256,192,176404,1,0,0:0:0:0:
256,192,176483,1,0,0:0:0:0:
256,192,176562,1,8,0:0:0:0:
256,192,176720,1,8,0:0:0:0:
256,192,176878,1,0,0:0:0:0:
256,192,177036,1,8,0:0:0:0:
256,192,177193,1,8,0:0:0:0:
256,192,177352,1,0,0:0:0:0:
256,192,177509,1,12,0:0:0:0:
