osu file format v14

[General]
AudioFilename: 8bp117-02-rainbowdragoneyes-creatures_ov_deception.mp3
AudioLeadIn: 0
PreviewTime: 145851
Countdown: 0
SampleSet: Normal
StackLeniency: 0.7
Mode: 1
LetterboxInBreaks: 0
WidescreenStoryboard: 0

[Editor]
DistanceSpacing: 0.8
BeatDivisor: 6
GridSize: 32
TimelineZoom: 2.5

[Metadata]
Title:Creatures ov Deception
TitleUnicode:Creatures ov Deception
Artist:Rainbowdragoneyes
ArtistUnicode:Rainbowdragoneyes
Creator:Mew104
Version:Inner Oni
Source:
Tags:chiptune retro 8-bit chromoxx
BeatmapID:896221
BeatmapSetID:413267

[Difficulty]
HPDrainRate:5.5
CircleSize:5
OverallDifficulty:6.5
ApproachRate:5
SliderMultiplier:1.4
SliderTickRate:1

[Events]
//Background and Video events
0,0,"tumblr_mb6i4pmodG1qh1z75o4_1280.png",0,0
//Break Periods
//Storyboard Layer 0 (Background)
//Storyboard Layer 1 (Fail)
//Storyboard Layer 2 (Pass)
//Storyboard Layer 3 (Foreground)
//Storyboard Sound Samples

[TimingPoints]
36,315.789473684211,4,1,0,70,1,0
20246,-100,4,1,0,100,0,0
50562,-100,4,1,0,100,0,1
70772,-100,4,1,0,100,0,0
113720,-100,4,1,0,100,0,1
133930,-90.9090909090909,4,1,0,100,0,1
143957,-90.9090909090909,4,1,0,100,0,0
146562,-100,4,1,0,100,0,0

[HitObjects]
256,192,36,5,0,0:0:0:0:
256,192,193,1,8,0:0:0:0:
256,192,351,1,8,0:0:0:0:
256,192,509,1,0,0:0:0:0:
256,192,667,1,8,0:0:0:0:
256,192,825,1,0,0:0:0:0:
256,192,983,1,8,0:0:0:0:
256,192,1299,1,8,0:0:0:0:
256,192,1614,1,8,0:0:0:0:
256,192,1772,1,8,0:0:0:0:
256,192,1930,1,0,0:0:0:0:
256,192,2088,1,8,0:0:0:0:
256,192,2246,1,8,0:0:0:0:
256,192,2404,1,0,0:0:0:0:
256,192,2562,1,8,0:0:0:0:
256,192,2878,1,8,0:0:0:0:
256,192,3036,1,8,0:0:0:0:
256,192,3193,1,0,0:0:0:0:
256,192,3351,1,0,0:0:0:0:
256,192,3509,1,8,0:0:0:0:
256,192,3667,1,0,0:0:0:0:
256,192,3825,1,8,0:0:0:0:
256,192,4141,1,8,0:0:0:0:
256,192,4299,1,8,0:0:0:0:
256,192,4457,1,0,0:0:0:0:
256,192,4614,1,8,0:0:0:0:
256,192,4772,1,8,0:0:0:0:
256,192,4930,1,0,0:0:0:0:
256,192,5088,1,8,0:0:0:0:
256,192,5167,1,8,0:0:0:0:
256,192,5246,1,8,0:0:0:0:
256,192,5325,1,8,0:0:0:0:
256,192,5404,1,0,0:0:0:0:
256,192,5562,1,8,0:0:0:0:
256,192,5641,1,8,0:0:0:0:
256,192,5720,1,8,0:0:0:0:
256,192,5878,1,0,0:0:0:0:
256,192,6036,1,8,0:0:0:0:
256,192,6193,1,0,0:0:0:0:
256,192,6351,1,8,0:0:0:0:
256,192,6667,1,8,0:0:0:0:
256,192,6825,1,8,0:0:0:0:
256,192,6983,1,0,0:0:0:0:
256,192,7141,1,8,0:0:0:0:
256,192,7299,1,8,0:0:0:0:
256,192,7457,1,0,0:0:0:0:
256,192,7614,1,8,0:0:0:0:
256,192,7693,1,0,0:0:0:0:
256,192,7772,1,8,0:0:0:0:
256,192,7851,1,8,0:0:0:0:
256,192,7930,1,0,0:0:0:0:
256,192,8088,1,8,0:0:0:0:
256,192,8246,1,8,0:0:0:0:
256,192,8325,1,8,0:0:0:0:
256,192,8404,1,0,0:0:0:0:
256,192,8483,1,0,0:0:0:0:
256,192,8562,1,0,0:0:0:0:
256,192,8720,1,0,0:0:0:0:
256,192,8878,1,8,0:0:0:0:
256,192,8957,1,8,0:0:0:0:
256,192,9036,1,0,0:0:0:0:
256,192,9193,1,8,0:0:0:0:
256,192,9351,1,8,0:0:0:0:
256,192,9509,2,0,L|480:192,1,210
256,192,10141,1,0,0:0:0:0:
256,192,10299,1,8,0:0:0:0:
256,192,10378,1,0,0:0:0:0:
256,192,10457,1,8,0:0:0:0:
256,192,10773,1,0,0:0:0:0:
256,192,10931,1,8,0:0:0:0:
256,192,11010,1,8,0:0:0:0:
256,192,11088,1,8,0:0:0:0:
256,192,11246,1,8,0:0:0:0:
256,192,11404,1,0,0:0:0:0:
256,192,11562,1,8,0:0:0:0:
256,192,11641,1,0,0:0:0:0:
256,192,11720,1,8,0:0:0:0:
256,192,12036,1,0,0:0:0:0:
256,192,12194,1,8,0:0:0:0:
256,192,12273,1,8,0:0:0:0:
256,192,12351,1,0,0:0:0:0:
256,192,12510,1,8,0:0:0:0:
256,192,12668,1,0,0:0:0:0:
256,192,12825,1,8,0:0:0:0:
256,192,12904,1,0,0:0:0:0:
256,192,12983,1,8,0:0:0:0:
256,192,13299,1,0,0:0:0:0:
256,192,13457,1,8,0:0:0:0:
256,192,13536,1,8,0:0:0:0:
256,192,13615,1,8,0:0:0:0:
256,192,13773,1,8,0:0:0:0:
256,192,13930,1,0,0:0:0:0:
256,192,14089,1,8,0:0:0:0:
256,192,14167,1,0,0:0:0:0:
256,192,14246,1,8,0:0:0:0:
256,192,14562,1,0,0:0:0:0:
256,192,14720,1,8,0:0:0:0:
256,192,14799,1,8,0:0:0:0:
256,192,14878,1,0,0:0:0:0:
256,192,15036,1,8,0:0:0:0:
256,192,15194,1,8,0:0:0:0:
256,192,15273,1,8,0:0:0:0:
256,192,15352,1,0,0:0:0:0:
256,192,15431,1,0,0:0:0:0:
256,192,15509,1,0,0:0:0:0:
256,192,15668,1,8,0:0:0:0:
256,192,15746,1,0,0:0:0:0:
256,192,15825,1,8,0:0:0:0:
256,192,15904,1,8,0:0:0:0:
256,192,15983,1,0,0:0:0:0:
256,192,16062,1,0,0:0:0:0:
256,192,16141,1,8,0:0:0:0:
256,192,16220,1,8,0:0:0:0:
256,192,16299,1,0,0:0:0:0:
256,192,16457,1,8,0:0:0:0:
256,192,16536,1,8,0:0:0:0:
256,192,16614,1,0,0:0:0:0:
256,192,16772,1,8,0:0:0:0:
256,192,16930,1,8,0:0:0:0:
256,192,17089,1,0,0:0:0:0:
256,192,17246,1,0,0:0:0:0:
256,192,17325,1,0,0:0:0:0:
256,192,17404,1,8,0:0:0:0:
256,192,17562,1,0,0:0:0:0:
256,192,17720,1,8,0:0:0:0:
256,192,17799,1,0,0:0:0:0:
256,192,17878,1,8,0:0:0:0:
256,192,17957,1,8,0:0:0:0:
256,192,18036,1,0,0:0:0:0:
256,192,18194,1,8,0:0:0:0:
256,192,18352,1,8,0:0:0:0:
256,192,18431,1,8,0:0:0:0:
256,192,18510,1,0,0:0:0:0:
256,192,18589,1,0,0:0:0:0:
256,192,18668,1,0,0:0:0:0:
256,192,18825,1,0,0:0:0:0:
256,192,18983,12,0,20089,0:0:0:0:
256,192,20246,5,12,0:0:0:0:
256,192,20562,1,8,0:0:0:0:
256,192,20720,1,0,0:0:0:0:
256,192,20799,1,0,0:0:0:0:
256,192,20878,1,8,0:0:0:0:
256,192,21036,1,0,0:0:0:0:
256,192,21194,1,8,0:0:0:0:
256,192,21272,1,8,0:0:0:0:
256,192,21351,1,0,0:0:0:0:
256,192,21430,1,0,0:0:0:0:
256,192,21509,1,0,0:0:0:0:
256,192,21667,1,0,0:0:0:0:
256,192,21746,1,0,0:0:0:0:
256,192,21825,1,8,0:0:0:0:
256,192,21983,1,8,0:0:0:0:
256,192,22141,1,0,0:0:0:0:
256,192,22299,1,8,0:0:0:0:
256,192,22378,1,0,0:0:0:0:
256,192,22457,1,8,0:0:0:0:
256,192,22536,1,8,0:0:0:0:
256,192,22615,1,8,0:0:0:0:
256,192,22694,1,8,0:0:0:0:
256,192,22773,1,0,0:0:0:0:
256,192,22931,1,0,0:0:0:0:
256,192,23009,1,0,0:0:0:0:
256,192,23089,1,8,0:0:0:0:
256,192,23247,1,0,0:0:0:0:
256,192,23404,1,8,0:0:0:0:
256,192,23483,1,8,0:0:0:0:
256,192,23562,1,0,0:0:0:0:
256,192,23641,1,0,0:0:0:0:
256,192,23720,1,8,0:0:0:0:
256,192,23799,1,0,0:0:0:0:
256,192,23878,1,8,0:0:0:0:
256,192,24036,1,0,0:0:0:0:
256,192,24194,1,0,0:0:0:0:
256,192,24273,1,0,0:0:0:0:
256,192,24352,1,8,0:0:0:0:
256,192,24510,1,0,0:0:0:0:
256,192,24668,1,8,0:0:0:0:
256,192,24747,1,8,0:0:0:0:
256,192,24825,1,0,0:0:0:0:
256,192,24904,1,8,0:0:0:0:
256,192,24983,1,8,0:0:0:0:
256,192,25062,1,0,0:0:0:0:
256,192,25141,1,8,0:0:0:0:
256,192,25220,1,8,0:0:0:0:
256,192,25299,1,0,0:0:0:0:
256,192,25457,1,0,0:0:0:0:
256,192,25615,1,8,0:0:0:0:
256,192,25773,1,0,0:0:0:0:
256,192,25852,1,0,0:0:0:0:
256,192,25931,1,8,0:0:0:0:
256,192,26010,1,8,0:0:0:0:
256,192,26089,1,0,0:0:0:0:
256,192,26168,1,8,0:0:0:0:
256,192,26247,1,0,0:0:0:0:
256,192,26325,1,0,0:0:0:0:
256,192,26404,1,8,0:0:0:0:
256,192,26562,1,0,0:0:0:0:
256,192,26720,1,8,0:0:0:0:
256,192,26799,1,0,0:0:0:0:
256,192,26878,1,8,0:0:0:0:
256,192,26957,1,8,0:0:0:0:
256,192,27036,1,0,0:0:0:0:
256,192,27114,1,0,0:0:0:0:
256,192,27193,1,8,0:0:0:0:
256,192,27352,1,0,0:0:0:0:
256,192,27430,1,0,0:0:0:0:
256,192,27509,1,8,0:0:0:0:
256,192,27667,1,8,0:0:0:0:
256,192,27825,1,8,0:0:0:0:
256,192,27904,1,8,0:0:0:0:
256,192,27983,1,0,0:0:0:0:
256,192,28062,1,0,0:0:0:0:
256,192,28141,1,8,0:0:0:0:
256,192,28299,1,8,0:0:0:0:
256,192,28457,1,0,0:0:0:0:
256,192,28536,1,8,0:0:0:0:
256,192,28614,1,0,0:0:0:0:
256,192,28693,1,0,0:0:0:0:
256,192,28772,1,8,0:0:0:0:
256,192,28931,1,8,0:0:0:0:
256,192,29089,1,0,0:0:0:0:
256,192,29167,1,0,0:0:0:0:
256,192,29246,1,8,0:0:0:0:
256,192,29325,1,0,0:0:0:0:
256,192,29404,1,8,0:0:0:0:
256,192,29483,1,8,0:0:0:0:
256,192,29562,1,0,0:0:0:0:
256,192,29641,1,0,0:0:0:0:
256,192,29720,1,8,0:0:0:0:
256,192,30352,1,12,0:0:0:0:
256,192,30510,1,0,0:0:0:0:
256,192,30588,1,0,0:0:0:0:
256,192,30668,1,8,0:0:0:0:
256,192,30825,1,0,0:0:0:0:
256,192,30983,1,8,0:0:0:0:
256,192,31062,1,8,0:0:0:0:
256,192,31141,1,0,0:0:0:0:
256,192,31220,1,0,0:0:0:0:
256,192,31299,1,8,0:0:0:0:
256,192,31457,1,0,0:0:0:0:
256,192,31536,1,0,0:0:0:0:
256,192,31615,1,8,0:0:0:0:
256,192,31693,1,0,0:0:0:0:
256,192,31773,1,8,0:0:0:0:
256,192,31851,1,0,0:0:0:0:
256,192,31931,1,8,0:0:0:0:
256,192,32010,1,8,0:0:0:0:
256,192,32088,1,0,0:0:0:0:
256,192,32168,1,0,0:0:0:0:
256,192,32247,1,8,0:0:0:0:
256,192,32404,1,0,0:0:0:0:
256,192,32483,1,8,0:0:0:0:
256,192,32562,1,0,0:0:0:0:
256,192,32720,1,8,0:0:0:0:
256,192,32878,1,8,0:0:0:0:
256,192,32957,1,8,0:0:0:0:
256,192,33036,1,0,0:0:0:0:
256,192,33115,1,0,0:0:0:0:
256,192,33194,1,8,0:0:0:0:
256,192,33351,1,0,0:0:0:0:
256,192,33510,1,8,0:0:0:0:
256,192,33588,1,0,0:0:0:0:
256,192,33668,1,0,0:0:0:0:
256,192,33747,1,8,0:0:0:0:
256,192,33825,1,0,0:0:0:0:
256,192,33904,1,0,0:0:0:0:
256,192,33983,1,8,0:0:0:0:
256,192,34141,1,12,0:0:0:0:
256,192,34299,1,0,0:0:0:0:
256,192,34457,1,4,0:0:0:0:
256,192,34615,1,0,0:0:0:0:
256,192,34773,1,12,0:0:0:0:
256,192,34931,1,0,0:0:0:0:
256,192,35010,1,0,0:0:0:0:
256,192,35089,1,8,0:0:0:0:
256,192,35247,1,8,0:0:0:0:
256,192,35404,1,12,0:0:0:0:
256,192,35562,1,0,0:0:0:0:
256,192,35641,1,0,0:0:0:0:
256,192,35720,1,8,0:0:0:0:
256,192,35878,1,0,0:0:0:0:
256,192,36036,1,8,0:0:0:0:
256,192,36194,1,0,0:0:0:0:
256,192,36272,1,0,0:0:0:0:
256,192,36351,1,8,0:0:0:0:
256,192,36431,1,0,0:0:0:0:
256,192,36510,1,8,0:0:0:0:
256,192,36589,1,0,0:0:0:0:
256,192,36668,1,8,0:0:0:0:
256,192,36747,1,8,0:0:0:0:
256,192,36825,1,8,0:0:0:0:
256,192,36904,1,0,0:0:0:0:
256,192,36983,1,8,0:0:0:0:
256,192,37062,1,8,0:0:0:0:
256,192,37141,1,0,0:0:0:0:
256,192,37220,1,0,0:0:0:0:
256,192,37299,1,8,0:0:0:0:
256,192,37457,1,8,0:0:0:0:
256,192,37536,1,0,0:0:0:0:
256,192,37615,1,8,0:0:0:0:
256,192,37694,1,8,0:0:0:0:
256,192,37773,1,8,0:0:0:0:
256,192,37852,1,0,0:0:0:0:
256,192,37931,1,8,0:0:0:0:
256,192,38010,1,0,0:0:0:0:
256,192,38089,1,0,0:0:0:0:
256,192,38168,1,8,0:0:0:0:
256,192,38247,1,0,0:0:0:0:
256,192,38325,1,0,0:0:0:0:
256,192,38404,1,8,0:0:0:0:
256,192,38483,1,0,0:0:0:0:
256,192,38562,1,8,0:0:0:0:
256,192,38641,1,8,0:0:0:0:
256,192,38720,1,0,0:0:0:0:
256,192,38878,1,8,0:0:0:0:
256,192,38957,1,8,0:0:0:0:
256,192,39036,1,0,0:0:0:0:
256,192,39114,1,0,0:0:0:0:
256,192,39194,1,8,0:0:0:0:
256,192,39273,1,0,0:0:0:0:
256,192,39352,1,8,0:0:0:0:
256,192,39431,1,0,0:0:0:0:
256,192,39510,1,8,0:0:0:0:
256,192,39588,1,8,0:0:0:0:
256,192,39667,1,0,0:0:0:0:
256,192,39825,1,8,0:0:0:0:
256,192,39983,1,8,0:0:0:0:
256,192,40141,1,0,0:0:0:0:
256,192,40299,1,8,0:0:0:0:
256,192,40457,1,4,0:0:0:0:
256,192,40614,1,0,0:0:0:0:
256,192,40693,1,0,0:0:0:0:
256,192,40772,1,8,0:0:0:0:
256,192,40930,1,0,0:0:0:0:
256,192,41088,1,8,0:0:0:0:
256,192,41167,1,8,0:0:0:0:
256,192,41246,1,0,0:0:0:0:
256,192,41325,1,0,0:0:0:0:
256,192,41404,1,8,0:0:0:0:
256,192,41562,1,8,0:0:0:0:
256,192,41720,1,8,0:0:0:0:
256,192,41799,1,8,0:0:0:0:
256,192,41878,1,0,0:0:0:0:
256,192,41957,1,0,0:0:0:0:
256,192,42036,1,8,0:0:0:0:
256,192,42114,1,0,0:0:0:0:
256,192,42193,1,8,0:0:0:0:
256,192,42272,1,0,0:0:0:0:
256,192,42351,1,8,0:0:0:0:
256,192,42430,1,8,0:0:0:0:
256,192,42509,1,0,0:0:0:0:
256,192,42588,1,8,0:0:0:0:
256,192,42667,1,0,0:0:0:0:
256,192,42746,1,0,0:0:0:0:
256,192,42825,1,8,0:0:0:0:
256,192,42983,1,0,0:0:0:0:
256,192,43141,1,8,0:0:0:0:
256,192,43220,1,8,0:0:0:0:
256,192,43299,1,0,0:0:0:0:
256,192,43457,1,8,0:0:0:0:
256,192,43536,1,0,0:0:0:0:
256,192,43614,1,8,0:0:0:0:
256,192,43693,1,8,0:0:0:0:
256,192,43772,1,0,0:0:0:0:
256,192,43851,1,0,0:0:0:0:
256,192,43930,1,8,0:0:0:0:
256,192,44088,1,0,0:0:0:0:
256,192,44246,1,8,0:0:0:0:
256,192,44404,1,0,0:0:0:0:
256,192,44483,1,0,0:0:0:0:
256,192,44562,1,8,0:0:0:0:
256,192,44641,1,8,0:0:0:0:
256,192,44720,1,0,0:0:0:0:
256,192,44799,1,0,0:0:0:0:
256,192,44878,1,8,0:0:0:0:
256,192,45035,1,0,0:0:0:0:
256,192,45114,1,0,0:0:0:0:
256,192,45193,1,8,0:0:0:0:
256,192,45272,1,8,0:0:0:0:
256,192,45351,1,8,0:0:0:0:
256,192,45430,1,0,0:0:0:0:
256,192,45509,1,8,0:0:0:0:
256,192,45667,1,0,0:0:0:0:
256,192,45825,1,8,0:0:0:0:
256,192,45983,1,0,0:0:0:0:
256,192,46062,1,0,0:0:0:0:
256,192,46141,1,8,0:0:0:0:
256,192,46299,1,0,0:0:0:0:
256,192,46457,1,8,0:0:0:0:
256,192,46614,1,0,0:0:0:0:
256,192,46693,1,0,0:0:0:0:
256,192,46772,1,8,0:0:0:0:
256,192,46851,1,8,0:0:0:0:
256,192,46930,1,8,0:0:0:0:
256,192,47009,1,0,0:0:0:0:
256,192,47088,1,8,0:0:0:0:
256,192,47167,1,8,0:0:0:0:
256,192,47246,1,0,0:0:0:0:
256,192,47325,1,0,0:0:0:0:
256,192,47404,1,8,0:0:0:0:
256,192,47562,1,0,0:0:0:0:
256,192,47641,1,8,0:0:0:0:
256,192,47720,1,0,0:0:0:0:
256,192,47799,1,0,0:0:0:0:
256,192,47878,1,8,0:0:0:0:
256,192,48035,1,8,0:0:0:0:
256,192,48114,1,0,0:0:0:0:
256,192,48193,1,0,0:0:0:0:
256,192,48272,1,8,0:0:0:0:
256,192,48351,1,0,0:0:0:0:
256,192,48430,1,0,0:0:0:0:
256,192,48509,1,8,0:0:0:0:
256,192,48588,1,0,0:0:0:0:
256,192,48667,1,8,0:0:0:0:
256,192,48746,1,8,0:0:0:0:
256,192,48825,1,0,0:0:0:0:
256,192,48904,1,0,0:0:0:0:
256,192,48983,1,8,0:0:0:0:
256,192,49062,1,8,0:0:0:0:
256,192,49141,1,0,0:0:0:0:
256,192,49220,1,0,0:0:0:0:
256,192,49299,1,8,0:0:0:0:
256,192,49378,1,0,0:0:0:0:
256,192,49457,1,8,0:0:0:0:
256,192,49536,1,0,0:0:0:0:
256,192,49615,1,8,0:0:0:0:
256,192,49693,1,8,0:0:0:0:
256,192,49772,1,0,0:0:0:0:
256,192,49930,1,8,0:0:0:0:
256,192,50088,1,8,0:0:0:0:
256,192,50246,1,0,0:0:0:0:
256,192,50404,1,8,0:0:0:0:
256,192,50562,1,4,0:0:0:0:
256,192,50720,1,8,0:0:0:0:
256,192,50878,1,0,0:0:0:0:
256,192,50957,1,0,0:0:0:0:
256,192,51036,1,8,0:0:0:0:
256,192,51194,1,0,0:0:0:0:
256,192,51352,1,8,0:0:0:0:
256,192,51510,1,0,0:0:0:0:
256,192,51588,1,0,0:0:0:0:
256,192,51668,1,8,0:0:0:0:
256,192,51825,1,0,0:0:0:0:
256,192,51983,1,8,0:0:0:0:
256,192,52141,1,0,0:0:0:0:
256,192,52220,1,0,0:0:0:0:
256,192,52299,1,8,0:0:0:0:
256,192,52378,1,0,0:0:0:0:
256,192,52457,1,8,0:0:0:0:
256,192,52536,1,8,0:0:0:0:
256,192,52615,1,0,0:0:0:0:
256,192,52694,1,8,0:0:0:0:
256,192,52773,1,0,0:0:0:0:
256,192,52852,1,0,0:0:0:0:
256,192,52931,1,8,0:0:0:0:
256,192,53010,1,8,0:0:0:0:
256,192,53089,1,0,0:0:0:0:
256,192,53247,1,8,0:0:0:0:
256,192,53404,1,0,0:0:0:0:
256,192,53483,1,0,0:0:0:0:
256,192,53562,1,8,0:0:0:0:
256,192,53720,1,0,0:0:0:0:
256,192,53878,1,8,0:0:0:0:
256,192,53957,1,0,0:0:0:0:
256,192,54036,1,8,0:0:0:0:
256,192,54114,1,8,0:0:0:0:
256,192,54193,1,0,0:0:0:0:
256,192,54273,1,0,0:0:0:0:
256,192,54352,1,8,0:0:0:0:
256,192,54431,1,8,0:0:0:0:
256,192,54510,1,0,0:0:0:0:
256,192,54589,1,8,0:0:0:0:
256,192,54668,1,8,0:0:0:0:
256,192,54747,1,0,0:0:0:0:
256,192,54825,1,8,0:0:0:0:
256,192,54904,1,0,0:0:0:0:
256,192,54983,1,8,0:0:0:0:
256,192,55062,1,8,0:0:0:0:
256,192,55141,1,0,0:0:0:0:
256,192,55220,1,0,0:0:0:0:
256,192,55299,1,8,0:0:0:0:
256,192,55378,1,8,0:0:0:0:
256,192,55457,1,8,0:0:0:0:
256,192,55536,1,8,0:0:0:0:
256,192,55615,1,0,0:0:0:0:
256,192,55773,1,8,0:0:0:0:
256,192,55931,1,0,0:0:0:0:
256,192,56010,1,0,0:0:0:0:
256,192,56089,1,8,0:0:0:0:
256,192,56247,1,0,0:0:0:0:
256,192,56404,1,8,0:0:0:0:
256,192,56483,1,8,0:0:0:0:
256,192,56562,1,0,0:0:0:0:
256,192,56720,1,8,0:0:0:0:
256,192,56878,1,0,0:0:0:0:
256,192,56957,1,0,0:0:0:0:
256,192,57036,1,8,0:0:0:0:
256,192,57115,1,0,0:0:0:0:
256,192,57194,1,8,0:0:0:0:
256,192,57273,1,8,0:0:0:0:
256,192,57352,1,0,0:0:0:0:
256,192,57431,1,8,0:0:0:0:
256,192,57510,1,0,0:0:0:0:
256,192,57589,1,0,0:0:0:0:
256,192,57668,1,8,0:0:0:0:
256,192,57747,1,0,0:0:0:0:
256,192,57825,1,8,0:0:0:0:
256,192,57904,1,8,0:0:0:0:
256,192,57983,1,8,0:0:0:0:
256,192,58062,1,0,0:0:0:0:
256,192,58141,1,8,0:0:0:0:
256,192,58220,1,0,0:0:0:0:
256,192,58299,1,0,0:0:0:0:
256,192,58378,1,8,0:0:0:0:
256,192,58457,1,0,0:0:0:0:
256,192,58536,1,0,0:0:0:0:
256,192,58615,1,8,0:0:0:0:
256,192,58694,1,0,0:0:0:0:
256,192,58773,1,8,0:0:0:0:
256,192,58852,1,8,0:0:0:0:
256,192,58931,1,0,0:0:0:0:
256,192,59010,1,8,0:0:0:0:
256,192,59088,1,0,0:0:0:0:
256,192,59168,1,0,0:0:0:0:
256,192,59247,1,8,0:0:0:0:
256,192,59325,1,8,0:0:0:0:
256,192,59404,1,0,0:0:0:0:
256,192,59562,1,8,0:0:0:0:
256,192,59641,1,0,0:0:0:0:
256,192,59720,1,8,0:0:0:0:
256,192,59799,1,8,0:0:0:0:
256,192,59878,1,0,0:0:0:0:
256,192,59957,1,0,0:0:0:0:
256,192,60036,1,8,0:0:0:0:
256,192,60115,1,0,0:0:0:0:
256,192,60194,1,8,0:0:0:0:
256,192,60273,1,0,0:0:0:0:
256,192,60352,1,8,0:0:0:0:
256,192,60431,1,8,0:0:0:0:
256,192,60510,1,8,0:0:0:0:
256,192,60589,1,8,0:0:0:0:
256,192,60668,1,0,0:0:0:0:
256,192,60825,1,8,0:0:0:0:
256,192,60983,1,0,0:0:0:0:
256,192,61062,1,0,0:0:0:0:
256,192,61141,1,8,0:0:0:0:
256,192,61299,1,0,0:0:0:0:
256,192,61457,1,8,0:0:0:0:
256,192,61615,1,0,0:0:0:0:
256,192,61693,1,0,0:0:0:0:
256,192,61772,1,8,0:0:0:0:
256,192,61852,1,0,0:0:0:0:
256,192,61931,1,8,0:0:0:0:
256,192,62010,1,0,0:0:0:0:
256,192,62089,1,8,0:0:0:0:
256,192,62168,1,8,0:0:0:0:
256,192,62247,1,0,0:0:0:0:
256,192,62325,1,8,0:0:0:0:
256,192,62404,1,8,0:0:0:0:
256,192,62483,1,0,0:0:0:0:
256,192,62562,1,8,0:0:0:0:
256,192,62641,1,8,0:0:0:0:
256,192,62720,1,0,0:0:0:0:
256,192,62799,1,0,0:0:0:0:
256,192,62878,1,8,0:0:0:0:
256,192,62957,1,0,0:0:0:0:
256,192,63036,1,8,0:0:0:0:
256,192,63194,1,0,0:0:0:0:
256,192,63352,1,8,0:0:0:0:
256,192,63510,1,0,0:0:0:0:
256,192,63589,1,0,0:0:0:0:
256,192,63668,1,8,0:0:0:0:
256,192,63747,1,0,0:0:0:0:
256,192,63825,1,8,0:0:0:0:
256,192,63904,1,8,0:0:0:0:
256,192,63983,1,0,0:0:0:0:
256,192,64062,1,8,0:0:0:0:
256,192,64141,1,0,0:0:0:0:
256,192,64220,1,0,0:0:0:0:
256,192,64299,1,8,0:0:0:0:
256,192,64457,1,0,0:0:0:0:
256,192,64615,1,8,0:0:0:0:
256,192,64693,1,0,0:0:0:0:
256,192,64772,1,8,0:0:0:0:
256,192,64851,1,8,0:0:0:0:
256,192,64930,1,0,0:0:0:0:
256,192,65009,1,0,0:0:0:0:
256,192,65089,1,8,0:0:0:0:
256,192,65167,1,0,0:0:0:0:
256,192,65246,1,8,0:0:0:0:
256,192,65325,1,0,0:0:0:0:
256,192,65404,1,8,0:0:0:0:
256,192,65483,1,8,0:0:0:0:
256,192,65562,1,8,0:0:0:0:
256,192,65641,1,8,0:0:0:0:
256,192,65720,1,0,0:0:0:0:
256,192,65878,1,8,0:0:0:0:
256,192,66036,1,0,0:0:0:0:
256,192,66114,1,0,0:0:0:0:
256,192,66194,1,8,0:0:0:0:
256,192,66352,1,0,0:0:0:0:
256,192,66510,1,8,0:0:0:0:
256,192,66589,1,0,0:0:0:0:
256,192,66668,1,8,0:0:0:0:
256,192,66747,1,8,0:0:0:0:
256,192,66825,1,8,0:0:0:0:
256,192,66904,1,0,0:0:0:0:
256,192,66983,1,8,0:0:0:0:
256,192,67062,1,8,0:0:0:0:
256,192,67141,1,0,0:0:0:0:
256,192,67220,1,8,0:0:0:0:
256,192,67299,1,0,0:0:0:0:
256,192,67378,1,0,0:0:0:0:
256,192,67457,1,8,0:0:0:0:
256,192,67536,1,0,0:0:0:0:
256,192,67615,1,8,0:0:0:0:
256,192,67693,1,8,0:0:0:0:
256,192,67773,1,0,0:0:0:0:
256,192,67852,1,0,0:0:0:0:
256,192,67931,1,8,0:0:0:0:
256,192,68089,1,8,0:0:0:0:
256,192,68247,1,8,0:0:0:0:
256,192,68325,1,0,0:0:0:0:
256,192,68404,1,0,0:0:0:0:
256,192,68483,1,8,0:0:0:0:
256,192,68562,1,0,0:0:0:0:
256,192,68641,1,0,0:0:0:0:
256,192,68720,1,8,0:0:0:0:
256,192,68799,1,0,0:0:0:0:
256,192,68878,1,8,0:0:0:0:
256,192,68957,1,8,0:0:0:0:
256,192,69036,1,0,0:0:0:0:
256,192,69114,1,0,0:0:0:0:
256,192,69194,1,8,0:0:0:0:
256,192,69272,1,8,0:0:0:0:
256,192,69351,1,8,0:0:0:0:
256,192,69430,1,8,0:0:0:0:
256,192,69510,1,0,0:0:0:0:
256,192,69668,1,8,0:0:0:0:
256,192,69825,1,0,0:0:0:0:
256,192,69904,1,0,0:0:0:0:
256,192,69983,1,8,0:0:0:0:
256,192,70141,1,0,0:0:0:0:
256,192,70220,1,0,0:0:0:0:
256,192,70299,1,8,0:0:0:0:
256,192,70378,1,8,0:0:0:0:
256,192,70457,1,0,0:0:0:0:
256,192,70536,1,0,0:0:0:0:
256,192,70615,1,8,0:0:0:0:
256,192,70773,1,0,0:0:0:0:
256,192,70931,1,8,0:0:0:0:
256,192,71089,1,8,0:0:0:0:
256,192,71247,1,0,0:0:0:0:
256,192,71404,1,8,0:0:0:0:
256,192,72036,1,4,0:0:0:0:
256,192,72194,1,0,0:0:0:0:
256,192,72273,1,0,0:0:0:0:
256,192,72352,1,8,0:0:0:0:
256,192,72510,1,0,0:0:0:0:
256,192,72589,1,0,0:0:0:0:
256,192,72668,1,8,0:0:0:0:
256,192,72747,1,8,0:0:0:0:
256,192,72825,1,0,0:0:0:0:
256,192,72983,1,8,0:0:0:0:
256,192,73141,1,8,0:0:0:0:
256,192,73220,1,8,0:0:0:0:
256,192,73299,1,0,0:0:0:0:
256,192,73457,1,0,0:0:0:0:
256,192,73536,1,0,0:0:0:0:
256,192,73615,1,8,0:0:0:0:
256,192,73772,1,8,0:0:0:0:
256,192,73930,1,0,0:0:0:0:
256,192,74088,1,8,0:0:0:0:
256,192,74168,1,0,0:0:0:0:
256,192,74247,1,8,0:0:0:0:
256,192,74325,1,8,0:0:0:0:
256,192,74404,1,0,0:0:0:0:
256,192,74483,1,0,0:0:0:0:
256,192,74562,1,8,0:0:0:0:
256,192,74720,1,0,0:0:0:0:
256,192,74878,1,8,0:0:0:0:
256,192,74957,1,8,0:0:0:0:
256,192,75036,1,0,0:0:0:0:
256,192,75115,1,0,0:0:0:0:
256,192,75194,1,8,0:0:0:0:
256,192,75352,1,0,0:0:0:0:
256,192,75510,1,8,0:0:0:0:
256,192,75668,1,8,0:0:0:0:
256,192,75825,1,8,0:0:0:0:
256,192,75904,1,8,0:0:0:0:
256,192,75983,1,8,0:0:0:0:
256,192,76062,1,0,0:0:0:0:
256,192,76141,1,8,0:0:0:0:
256,192,76299,1,8,0:0:0:0:
256,192,76378,1,8,0:0:0:0:
256,192,76457,1,0,0:0:0:0:
256,192,76615,1,8,0:0:0:0:
256,192,76694,1,0,0:0:0:0:
256,192,76773,1,8,0:0:0:0:
256,192,76852,1,8,0:0:0:0:
256,192,76931,1,0,0:0:0:0:
256,192,77009,1,0,0:0:0:0:
256,192,77088,1,8,0:0:0:0:
256,192,77247,1,0,0:0:0:0:
256,192,77325,1,0,0:0:0:0:
256,192,77404,1,8,0:0:0:0:
256,192,77562,1,0,0:0:0:0:
256,192,77720,1,8,0:0:0:0:
256,192,77799,1,8,0:0:0:0:
256,192,77878,1,0,0:0:0:0:
256,192,77957,1,0,0:0:0:0:
256,192,78036,1,8,0:0:0:0:
256,192,78193,1,0,0:0:0:0:
256,192,78351,1,8,0:0:0:0:
256,192,78430,1,8,0:0:0:0:
256,192,78509,1,0,0:0:0:0:
256,192,78668,1,8,0:0:0:0:
256,192,78825,1,8,0:0:0:0:
256,192,78983,1,0,0:0:0:0:
256,192,79062,1,0,0:0:0:0:
256,192,79141,1,8,0:0:0:0:
256,192,79220,1,0,0:0:0:0:
256,192,79299,1,8,0:0:0:0:
256,192,79378,1,8,0:0:0:0:
256,192,79457,1,8,0:0:0:0:
256,192,79536,1,0,0:0:0:0:
256,192,79615,1,8,0:0:0:0:
256,192,79773,1,0,0:0:0:0:
256,192,79931,1,8,0:0:0:0:
256,192,80089,1,0,0:0:0:0:
256,192,80168,1,8,0:0:0:0:
256,192,80247,1,0,0:0:0:0:
256,192,80325,1,0,0:0:0:0:
256,192,80404,1,8,0:0:0:0:
256,192,80562,1,8,0:0:0:0:
256,192,80720,1,0,0:0:0:0:
256,192,80878,1,8,0:0:0:0:
256,192,80957,1,0,0:0:0:0:
256,192,81036,1,0,0:0:0:0:
256,192,81115,1,0,0:0:0:0:
256,192,81194,1,8,0:0:0:0:
256,192,81273,1,8,0:0:0:0:
256,192,81352,1,0,0:0:0:0:
256,192,81509,2,0,L|416:192,1,140
256,192,82141,1,4,0:0:0:0:
256,192,82299,1,0,0:0:0:0:
256,192,82378,1,0,0:0:0:0:
256,192,82457,1,8,0:0:0:0:
256,192,82615,1,0,0:0:0:0:
256,192,82694,1,0,0:0:0:0:
256,192,82773,1,8,0:0:0:0:
256,192,82852,1,8,0:0:0:0:
256,192,82930,1,0,0:0:0:0:
256,192,83088,1,8,0:0:0:0:
256,192,83246,1,8,0:0:0:0:
256,192,83325,1,8,0:0:0:0:
256,192,83404,1,0,0:0:0:0:
256,192,83562,1,0,0:0:0:0:
256,192,83641,1,0,0:0:0:0:
256,192,83720,1,8,0:0:0:0:
256,192,83878,1,8,0:0:0:0:
256,192,84036,1,0,0:0:0:0:
256,192,84114,1,0,0:0:0:0:
256,192,84193,1,8,0:0:0:0:
256,192,84273,1,0,0:0:0:0:
256,192,84352,1,8,0:0:0:0:
256,192,84430,1,8,0:0:0:0:
256,192,84509,1,0,0:0:0:0:
256,192,84588,1,0,0:0:0:0:
256,192,84667,1,8,0:0:0:0:
256,192,84825,1,0,0:0:0:0:
256,192,84983,1,8,0:0:0:0:
256,192,85062,1,8,0:0:0:0:
256,192,85141,1,0,0:0:0:0:
256,192,85220,1,0,0:0:0:0:
256,192,85299,1,8,0:0:0:0:
256,192,85457,1,0,0:0:0:0:
256,192,85615,1,8,0:0:0:0:
256,192,85773,1,8,0:0:0:0:
256,192,85931,1,8,0:0:0:0:
256,192,86010,1,8,0:0:0:0:
256,192,86089,1,0,0:0:0:0:
256,192,86168,1,8,0:0:0:0:
256,192,86247,1,0,0:0:0:0:
256,192,86325,1,0,0:0:0:0:
256,192,86404,1,8,0:0:0:0:
256,192,86483,1,0,0:0:0:0:
256,192,86562,1,8,0:0:0:0:
256,192,86641,1,8,0:0:0:0:
256,192,86720,1,0,0:0:0:0:
256,192,86799,1,0,0:0:0:0:
256,192,86878,1,8,0:0:0:0:
256,192,86957,1,8,0:0:0:0:
256,192,87036,1,8,0:0:0:0:
256,192,87115,1,8,0:0:0:0:
256,192,87194,1,0,0:0:0:0:
256,192,87352,1,0,0:0:0:0:
256,192,87510,1,8,0:0:0:0:
256,192,87668,1,0,0:0:0:0:
256,192,87747,1,0,0:0:0:0:
256,192,87825,1,8,0:0:0:0:
256,192,87904,1,8,0:0:0:0:
256,192,87983,1,0,0:0:0:0:
256,192,88141,1,8,0:0:0:0:
256,192,88299,1,0,0:0:0:0:
256,192,88378,1,0,0:0:0:0:
256,192,88457,1,8,0:0:0:0:
256,192,88615,1,0,0:0:0:0:
256,192,88694,1,0,0:0:0:0:
256,192,88773,1,8,0:0:0:0:
256,192,88930,1,8,0:0:0:0:
256,192,89088,1,0,0:0:0:0:
256,192,89246,1,8,0:0:0:0:
256,192,89325,1,0,0:0:0:0:
256,192,89404,1,8,0:0:0:0:
256,192,89483,1,8,0:0:0:0:
256,192,89562,1,0,0:0:0:0:
256,192,89641,1,0,0:0:0:0:
256,192,89720,1,8,0:0:0:0:
256,192,89799,1,8,0:0:0:0:
256,192,89878,1,0,0:0:0:0:
256,192,89957,1,0,0:0:0:0:
256,192,90036,1,8,0:0:0:0:
256,192,90115,1,0,0:0:0:0:
256,192,90194,1,8,0:0:0:0:
256,192,90273,1,0,0:0:0:0:
256,192,90352,1,8,0:0:0:0:
256,192,90431,1,8,0:0:0:0:
256,192,90510,1,0,0:0:0:0:
256,192,90589,1,8,0:0:0:0:
256,192,90668,1,8,0:0:0:0:
256,192,90747,1,0,0:0:0:0:
256,192,90825,1,8,0:0:0:0:
256,192,90983,1,0,0:0:0:0:
256,192,91141,1,8,0:0:0:0:
256,192,91299,1,8,0:0:0:0:
256,192,91457,1,0,0:0:0:0:
256,192,91536,1,0,0:0:0:0:
256,192,91615,1,0,0:0:0:0:
256,192,92246,1,12,0:0:0:0:
256,192,92404,1,0,0:0:0:0:
256,192,92562,1,8,0:0:0:0:
256,192,92720,1,0,0:0:0:0:
256,192,92799,1,0,0:0:0:0:
256,192,92878,1,8,0:0:0:0:
256,192,92957,1,8,0:0:0:0:
256,192,93036,1,0,0:0:0:0:
256,192,93194,1,8,0:0:0:0:
256,192,93352,1,0,0:0:0:0:
256,192,93430,1,0,0:0:0:0:
256,192,93509,1,8,0:0:0:0:
256,192,93667,1,0,0:0:0:0:
256,192,93747,1,0,0:0:0:0:
256,192,93825,1,8,0:0:0:0:
256,192,93904,1,0,0:0:0:0:
256,192,93983,1,8,0:0:0:0:
256,192,94141,1,0,0:0:0:0:
256,192,94220,1,0,0:0:0:0:
256,192,94299,1,8,0:0:0:0:
256,192,94378,1,0,0:0:0:0:
256,192,94457,1,8,0:0:0:0:
256,192,94536,1,8,0:0:0:0:
256,192,94614,1,8,0:0:0:0:
256,192,94693,1,8,0:0:0:0:
256,192,94772,1,0,0:0:0:0:
256,192,94930,1,0,0:0:0:0:
256,192,95009,1,0,0:0:0:0:
256,192,95089,1,8,0:0:0:0:
256,192,95247,1,0,0:0:0:0:
256,192,95404,1,8,0:0:0:0:
256,192,95483,1,8,0:0:0:0:
256,192,95562,1,0,0:0:0:0:
256,192,95641,1,0,0:0:0:0:
256,192,95720,1,8,0:0:0:0:
256,192,95878,1,8,0:0:0:0:
256,192,96036,1,0,0:0:0:0:
256,192,96194,1,0,0:0:0:0:
256,192,96273,1,0,0:0:0:0:
256,192,96352,1,8,0:0:0:0:
256,192,96510,1,0,0:0:0:0:
256,192,96668,1,8,0:0:0:0:
256,192,96747,1,8,0:0:0:0:
256,192,96825,1,0,0:0:0:0:
256,192,96904,1,8,0:0:0:0:
256,192,96983,1,8,0:0:0:0:
256,192,97062,1,0,0:0:0:0:
256,192,97141,1,8,0:0:0:0:
256,192,97194,1,8,0:0:0:0:
256,192,97247,1,8,0:0:0:0:
256,192,97299,1,0,0:0:0:0:
256,192,97457,1,0,0:0:0:0:
256,192,97614,1,8,0:0:0:0:
256,192,97772,1,0,0:0:0:0:
256,192,97851,1,0,0:0:0:0:
256,192,97930,1,8,0:0:0:0:
256,192,98009,1,8,0:0:0:0:
256,192,98088,1,0,0:0:0:0:
256,192,98167,1,8,0:0:0:0:
256,192,98246,1,0,0:0:0:0:
256,192,98325,1,0,0:0:0:0:
256,192,98404,1,8,0:0:0:0:
256,192,98483,1,8,0:0:0:0:
256,192,98562,1,0,0:0:0:0:
256,192,98720,1,8,0:0:0:0:
256,192,98799,1,0,0:0:0:0:
256,192,98878,1,8,0:0:0:0:
256,192,98957,1,8,0:0:0:0:
256,192,99036,1,0,0:0:0:0:
256,192,99114,1,0,0:0:0:0:
256,192,99193,1,8,0:0:0:0:
256,192,99351,1,8,0:0:0:0:
256,192,99509,1,0,0:0:0:0:
256,192,99667,1,8,0:0:0:0:
256,192,99825,1,0,0:0:0:0:
256,192,99904,1,0,0:0:0:0:
256,192,99983,1,0,0:0:0:0:
256,192,100062,1,0,0:0:0:0:
256,192,100141,1,8,0:0:0:0:
256,192,100220,1,0,0:0:0:0:
256,192,100299,1,0,0:0:0:0:
256,192,100378,1,0,0:0:0:0:
256,192,100457,1,0,0:0:0:0:
256,192,100536,1,0,0:0:0:0:
256,192,100615,1,0,0:0:0:0:
256,192,100694,1,0,0:0:0:0:
256,192,100773,1,8,0:0:0:0:
256,192,100931,1,8,0:0:0:0:
256,192,101089,1,0,0:0:0:0:
256,192,101246,1,8,0:0:0:0:
256,192,101325,1,0,0:0:0:0:
256,192,101404,1,8,0:0:0:0:
256,192,101562,1,0,0:0:0:0:
256,192,101720,1,4,0:0:0:0:
256,192,102352,1,8,0:0:0:0:
256,192,102510,1,8,0:0:0:0:
256,192,102668,1,8,0:0:0:0:
256,192,102825,1,4,0:0:0:0:
256,192,103614,1,12,0:0:0:0:
256,192,103772,1,0,0:0:0:0:
256,192,103851,1,0,0:0:0:0:
256,192,103930,1,8,0:0:0:0:
256,192,104087,1,0,0:0:0:0:
256,192,104245,1,8,0:0:0:0:
256,192,104324,1,8,0:0:0:0:
256,192,104403,1,0,0:0:0:0:
256,192,104483,1,0,0:0:0:0:
256,192,104561,1,8,0:0:0:0:
256,192,104720,1,8,0:0:0:0:
256,192,104878,1,8,0:0:0:0:
256,192,104957,1,8,0:0:0:0:
256,192,105036,1,0,0:0:0:0:
256,192,105114,1,0,0:0:0:0:
256,192,105193,1,8,0:0:0:0:
256,192,105272,1,0,0:0:0:0:
256,192,105351,1,8,0:0:0:0:
256,192,105430,1,0,0:0:0:0:
256,192,105509,1,8,0:0:0:0:
256,192,105588,1,8,0:0:0:0:
256,192,105666,1,0,0:0:0:0:
256,192,105746,1,8,0:0:0:0:
256,192,105824,1,0,0:0:0:0:
256,192,105982,1,8,0:0:0:0:
256,192,106141,1,8,0:0:0:0:
256,192,106220,1,8,0:0:0:0:
256,192,106298,1,0,0:0:0:0:
256,192,106377,1,0,0:0:0:0:
256,192,106456,1,8,0:0:0:0:
256,192,106614,1,0,0:0:0:0:
256,192,106772,1,8,0:0:0:0:
256,192,106851,1,0,0:0:0:0:
256,192,106930,1,0,0:0:0:0:
256,192,107009,1,8,0:0:0:0:
256,192,107087,1,0,0:0:0:0:
256,192,107166,1,0,0:0:0:0:
256,192,107245,1,8,0:0:0:0:
256,192,107404,1,12,0:0:0:0:
256,192,107562,1,0,0:0:0:0:
256,192,107720,1,4,0:0:0:0:
256,192,107878,1,0,0:0:0:0:
256,192,108036,1,12,0:0:0:0:
256,192,108194,1,0,0:0:0:0:
256,192,108272,1,0,0:0:0:0:
256,192,108351,1,8,0:0:0:0:
256,192,108510,1,8,0:0:0:0:
256,192,108668,1,12,0:0:0:0:
256,192,108825,1,0,0:0:0:0:
256,192,108904,1,0,0:0:0:0:
256,192,108983,1,8,0:0:0:0:
256,192,109141,1,0,0:0:0:0:
256,192,109220,1,0,0:0:0:0:
256,192,109299,1,8,0:0:0:0:
256,192,109378,1,0,0:0:0:0:
256,192,109457,1,8,0:0:0:0:
256,192,109536,1,0,0:0:0:0:
256,192,109614,1,8,0:0:0:0:
256,192,109693,1,8,0:0:0:0:
256,192,109772,1,0,0:0:0:0:
256,192,109931,1,8,0:0:0:0:
256,192,110010,1,8,0:0:0:0:
256,192,110089,1,0,0:0:0:0:
256,192,110168,1,0,0:0:0:0:
256,192,110247,1,8,0:0:0:0:
256,192,110325,1,8,0:0:0:0:
256,192,110404,1,8,0:0:0:0:
256,192,110483,1,0,0:0:0:0:
256,192,110562,1,8,0:0:0:0:
256,192,110641,1,8,0:0:0:0:
256,192,110720,1,0,0:0:0:0:
256,192,110799,1,8,0:0:0:0:
256,192,110878,1,0,0:0:0:0:
256,192,110957,1,0,0:0:0:0:
256,192,111036,1,8,0:0:0:0:
256,192,111194,1,0,0:0:0:0:
256,192,111510,1,0,0:0:0:0:
256,192,111825,1,0,0:0:0:0:
256,192,112141,1,0,0:0:0:0:
256,192,112220,1,0,0:0:0:0:
256,192,112299,1,0,0:0:0:0:
256,192,112378,1,0,0:0:0:0:
256,192,112457,1,0,0:0:0:0:
256,192,113089,1,8,0:0:0:0:
256,192,113168,1,0,0:0:0:0:
256,192,113247,1,8,0:0:0:0:
256,192,113325,1,0,0:0:0:0:
256,192,113404,1,8,0:0:0:0:
256,192,113483,1,8,0:0:0:0:
256,192,113562,1,0,0:0:0:0:
256,192,113720,1,4,0:0:0:0:
256,192,114036,1,8,0:0:0:0:
256,192,114194,1,0,0:0:0:0:
256,192,114273,1,0,0:0:0:0:
256,192,114352,1,8,0:0:0:0:
256,192,114510,1,8,0:0:0:0:
256,192,114668,1,8,0:0:0:0:
256,192,114747,1,8,0:0:0:0:
256,192,114825,1,8,0:0:0:0:
256,192,114904,1,0,0:0:0:0:
256,192,114983,1,8,0:0:0:0:
256,192,115062,1,8,0:0:0:0:
256,192,115141,1,0,0:0:0:0:
256,192,115220,1,0,0:0:0:0:
256,192,115299,1,8,0:0:0:0:
256,192,115378,1,8,0:0:0:0:
256,192,115457,1,0,0:0:0:0:
256,192,115536,1,8,0:0:0:0:
256,192,115615,1,0,0:0:0:0:
256,192,115694,1,0,0:0:0:0:
256,192,115773,1,8,0:0:0:0:
256,192,115852,1,0,0:0:0:0:
256,192,115931,1,8,0:0:0:0:
256,192,116010,1,8,0:0:0:0:
256,192,116089,1,0,0:0:0:0:
256,192,116168,1,0,0:0:0:0:
256,192,116247,1,8,0:0:0:0:
256,192,116325,1,0,0:0:0:0:
256,192,116404,1,0,0:0:0:0:
256,192,116483,1,0,0:0:0:0:
256,192,116562,1,8,0:0:0:0:
256,192,116641,1,0,0:0:0:0:
256,192,116720,1,0,0:0:0:0:
256,192,116799,1,0,0:0:0:0:
256,192,116878,1,8,0:0:0:0:
256,192,116957,1,0,0:0:0:0:
256,192,117036,1,8,0:0:0:0:
256,192,117115,1,0,0:0:0:0:
256,192,117194,1,8,0:0:0:0:
256,192,117273,1,0,0:0:0:0:
256,192,117352,1,8,0:0:0:0:
256,192,117431,1,0,0:0:0:0:
256,192,117510,1,8,0:0:0:0:
256,192,117668,1,0,0:0:0:0:
256,192,117747,1,8,0:0:0:0:
256,192,117825,1,0,0:0:0:0:
256,192,117983,1,8,0:0:0:0:
256,192,118141,1,0,0:0:0:0:
256,192,118220,1,8,0:0:0:0:
256,192,118299,1,0,0:0:0:0:
256,192,118352,1,0,0:0:0:0:
256,192,118404,1,0,0:0:0:0:
256,192,118457,1,8,0:0:0:0:
256,192,118615,1,0,0:0:0:0:
256,192,118668,1,0,0:0:0:0:
256,192,118720,1,0,0:0:0:0:
256,192,118773,1,0,0:0:0:0:
256,192,118931,1,8,0:0:0:0:
256,192,119089,1,8,0:0:0:0:
256,192,119247,1,0,0:0:0:0:
256,192,119404,1,8,0:0:0:0:
256,192,119562,1,8,0:0:0:0:
256,192,119641,1,0,0:0:0:0:
256,192,119720,1,8,0:0:0:0:
256,192,119878,1,8,0:0:0:0:
256,192,119957,1,0,0:0:0:0:
256,192,120036,1,8,0:0:0:0:
256,192,120088,1,8,0:0:0:0:
256,192,120141,1,8,0:0:0:0:
256,192,120193,1,0,0:0:0:0:
256,192,120272,1,8,0:0:0:0:
256,192,120352,1,8,0:0:0:0:
256,192,120510,1,0,0:0:0:0:
256,192,120588,1,0,0:0:0:0:
256,192,120668,1,8,0:0:0:0:
256,192,120747,1,0,0:0:0:0:
256,192,120825,1,8,0:0:0:0:
256,192,120904,1,0,0:0:0:0:
256,192,120983,1,8,0:0:0:0:
256,192,121062,1,8,0:0:0:0:
256,192,121141,1,8,0:0:0:0:
256,192,121220,1,0,0:0:0:0:
256,192,121299,1,8,0:0:0:0:
256,192,121378,1,8,0:0:0:0:
256,192,121457,1,0,0:0:0:0:
256,192,121536,1,8,0:0:0:0:
256,192,121615,1,8,0:0:0:0:
256,192,121694,1,0,0:0:0:0:
256,192,121773,1,8,0:0:0:0:
256,192,121852,1,0,0:0:0:0:
256,192,121931,1,8,0:0:0:0:
256,192,121983,1,8,0:0:0:0:
256,192,122036,1,8,0:0:0:0:
256,192,122089,1,0,0:0:0:0:
256,192,122168,1,0,0:0:0:0:
256,192,122247,1,8,0:0:0:0:
256,192,122299,1,8,0:0:0:0:
256,192,122352,1,0,0:0:0:0:
256,192,122404,1,0,0:0:0:0:
256,192,122483,1,0,0:0:0:0:
256,192,122562,1,8,0:0:0:0:
256,192,122878,1,0,0:0:0:0:
256,192,123036,1,0,0:0:0:0:
256,192,123193,1,8,0:0:0:0:
256,192,123351,1,8,0:0:0:0:
256,192,123509,1,0,0:0:0:0:
256,192,123668,1,8,0:0:0:0:
256,192,123825,1,4,0:0:0:0:
256,192,123983,1,8,0:0:0:0:
256,192,124141,1,0,0:0:0:0:
256,192,124220,1,0,0:0:0:0:
256,192,124299,1,8,0:0:0:0:
256,192,124457,1,0,0:0:0:0:
256,192,124614,1,8,0:0:0:0:
256,192,124772,1,0,0:0:0:0:
256,192,124851,1,0,0:0:0:0:
256,192,124930,1,8,0:0:0:0:
256,192,125088,1,0,0:0:0:0:
256,192,125167,1,0,0:0:0:0:
256,192,125246,1,8,0:0:0:0:
256,192,125325,1,0,0:0:0:0:
256,192,125404,1,8,0:0:0:0:
256,192,125483,1,8,0:0:0:0:
256,192,125562,1,8,0:0:0:0:
256,192,125641,1,0,0:0:0:0:
256,192,125720,1,8,0:0:0:0:
256,192,125799,1,8,0:0:0:0:
256,192,125878,1,0,0:0:0:0:
256,192,125957,1,8,0:0:0:0:
256,192,126036,1,0,0:0:0:0:
256,192,126115,1,0,0:0:0:0:
256,192,126194,1,8,0:0:0:0:
256,192,126352,1,0,0:0:0:0:
256,192,126510,1,8,0:0:0:0:
256,192,126667,1,0,0:0:0:0:
256,192,126746,1,0,0:0:0:0:
256,192,126825,1,8,0:0:0:0:
256,192,126983,1,0,0:0:0:0:
256,192,127141,1,8,0:0:0:0:
256,192,127220,1,0,0:0:0:0:
256,192,127299,1,8,0:0:0:0:
256,192,127378,1,8,0:0:0:0:
256,192,127457,1,0,0:0:0:0:
256,192,127536,1,0,0:0:0:0:
256,192,127615,1,8,0:0:0:0:
256,192,127694,1,8,0:0:0:0:
256,192,127773,1,0,0:0:0:0:
256,192,127852,1,8,0:0:0:0:
256,192,127931,1,8,0:0:0:0:
256,192,128010,1,0,0:0:0:0:
256,192,128088,1,8,0:0:0:0:
256,192,128167,1,0,0:0:0:0:
256,192,128246,1,8,0:0:0:0:
256,192,128325,1,8,0:0:0:0:
256,192,128404,1,0,0:0:0:0:
256,192,128483,1,0,0:0:0:0:
256,192,128562,1,8,0:0:0:0:
256,192,128641,1,8,0:0:0:0:
256,192,128720,1,8,0:0:0:0:
256,192,128799,1,8,0:0:0:0:
256,192,128878,1,0,0:0:0:0:
256,192,129036,1,8,0:0:0:0:
256,192,129194,1,0,0:0:0:0:
256,192,129273,1,0,0:0:0:0:
256,192,129352,1,8,0:0:0:0:
256,192,129510,1,0,0:0:0:0:
256,192,129667,1,8,0:0:0:0:
256,192,129746,1,8,0:0:0:0:
256,192,129825,1,0,0:0:0:0:
256,192,129983,1,8,0:0:0:0:
256,192,130141,1,0,0:0:0:0:
256,192,130220,1,0,0:0:0:0:
256,192,130299,1,8,0:0:0:0:
256,192,130378,1,0,0:0:0:0:
256,192,130457,1,8,0:0:0:0:
256,192,130536,1,8,0:0:0:0:
256,192,130615,1,0,0:0:0:0:
256,192,130694,1,8,0:0:0:0:
256,192,130772,1,8,0:0:0:0:
256,192,130852,1,0,0:0:0:0:
256,192,130931,1,8,0:0:0:0:
256,192,131010,1,0,0:0:0:0:
256,192,131088,1,8,0:0:0:0:
256,192,131167,1,8,0:0:0:0:
256,192,131246,1,8,0:0:0:0:
256,192,131325,1,0,0:0:0:0:
256,192,131404,1,8,0:0:0:0:
256,192,131483,1,0,0:0:0:0:
256,192,131562,1,0,0:0:0:0:
256,192,131641,1,8,0:0:0:0:
256,192,131720,1,0,0:0:0:0:
256,192,131799,1,0,0:0:0:0:
256,192,131878,1,8,0:0:0:0:
256,192,131957,1,0,0:0:0:0:
256,192,132036,1,8,0:0:0:0:
256,192,132115,1,8,0:0:0:0:
256,192,132194,1,0,0:0:0:0:
256,192,132273,1,8,0:0:0:0:
256,192,132351,1,0,0:0:0:0:
256,192,132431,1,0,0:0:0:0:
256,192,132510,1,8,0:0:0:0:
256,192,132588,1,8,0:0:0:0:
256,192,132667,1,0,0:0:0:0:
256,192,132825,1,8,0:0:0:0:
256,192,132904,1,0,0:0:0:0:
256,192,132983,1,8,0:0:0:0:
256,192,133062,1,8,0:0:0:0:
256,192,133141,1,0,0:0:0:0:
256,192,133220,1,0,0:0:0:0:
256,192,133299,1,8,0:0:0:0:
256,192,133378,1,0,0:0:0:0:
256,192,133457,1,8,0:0:0:0:
256,192,133536,1,0,0:0:0:0:
256,192,133615,1,8,0:0:0:0:
256,192,133694,1,8,0:0:0:0:
256,192,133773,1,8,0:0:0:0:
256,192,133852,1,8,0:0:0:0:
256,192,133930,1,4,0:0:0:0:
256,192,134088,1,8,0:0:0:0:
256,192,134246,1,0,0:0:0:0:
256,192,134325,1,0,0:0:0:0:
256,192,134404,1,8,0:0:0:0:
256,192,134562,1,0,0:0:0:0:
256,192,134720,1,8,0:0:0:0:
256,192,134878,1,0,0:0:0:0:
256,192,134957,1,8,0:0:0:0:
256,192,135036,1,8,0:0:0:0:
256,192,135115,1,0,0:0:0:0:
256,192,135194,1,8,0:0:0:0:
256,192,135273,1,0,0:0:0:0:
256,192,135352,1,8,0:0:0:0:
256,192,135431,1,8,0:0:0:0:
256,192,135510,1,0,0:0:0:0:
256,192,135588,1,8,0:0:0:0:
256,192,135667,1,8,0:0:0:0:
256,192,135746,1,0,0:0:0:0:
256,192,135825,1,8,0:0:0:0:
256,192,135904,1,8,0:0:0:0:
256,192,135983,1,0,0:0:0:0:
256,192,136062,1,0,0:0:0:0:
256,192,136141,1,8,0:0:0:0:
256,192,136220,1,8,0:0:0:0:
256,192,136299,1,0,0:0:0:0:
256,192,136378,1,8,0:0:0:0:
256,192,136457,1,0,0:0:0:0:
256,192,136615,1,8,0:0:0:0:
256,192,136773,1,0,0:0:0:0:
256,192,136852,1,0,0:0:0:0:
256,192,136931,1,8,0:0:0:0:
256,192,137010,1,0,0:0:0:0:
256,192,137088,1,8,0:0:0:0:
256,192,137167,1,8,0:0:0:0:
256,192,137246,1,0,0:0:0:0:
256,192,137325,1,8,0:0:0:0:
256,192,137404,1,0,0:0:0:0:
256,192,137483,1,0,0:0:0:0:
256,192,137562,1,8,0:0:0:0:
256,192,137641,1,8,0:0:0:0:
256,192,137720,1,0,0:0:0:0:
256,192,137878,1,8,0:0:0:0:
256,192,138036,1,0,0:0:0:0:
256,192,138114,1,0,0:0:0:0:
256,192,138193,1,8,0:0:0:0:
256,192,138273,1,0,0:0:0:0:
256,192,138352,1,8,0:0:0:0:
256,192,138431,1,8,0:0:0:0:
256,192,138509,1,8,0:0:0:0:
256,192,138588,1,0,0:0:0:0:
256,192,138667,1,8,0:0:0:0:
256,192,138746,1,8,0:0:0:0:
256,192,138825,1,8,0:0:0:0:
256,192,138904,1,8,0:0:0:0:
256,192,138983,1,0,0:0:0:0:
256,192,139141,1,8,0:0:0:0:
256,192,139299,1,0,0:0:0:0:
256,192,139378,1,0,0:0:0:0:
256,192,139457,1,8,0:0:0:0:
256,192,139615,1,0,0:0:0:0:
256,192,139773,1,8,0:0:0:0:
256,192,139852,1,0,0:0:0:0:
256,192,139931,1,8,0:0:0:0:
256,192,140010,1,8,0:0:0:0:
256,192,140088,1,8,0:0:0:0:
256,192,140167,1,0,0:0:0:0:
256,192,140246,1,8,0:0:0:0:
256,192,140325,1,8,0:0:0:0:
256,192,140404,1,0,0:0:0:0:
256,192,140483,1,8,0:0:0:0:
256,192,140562,1,0,0:0:0:0:
256,192,140641,1,0,0:0:0:0:
256,192,140720,1,8,0:0:0:0:
256,192,140799,1,0,0:0:0:0:
256,192,140878,1,8,0:0:0:0:
256,192,140957,1,8,0:0:0:0:
256,192,141036,1,0,0:0:0:0:
256,192,141115,1,0,0:0:0:0:
256,192,141194,1,8,0:0:0:0:
256,192,141352,1,8,0:0:0:0:
256,192,141510,1,8,0:0:0:0:
256,192,141588,1,0,0:0:0:0:
256,192,141667,1,0,0:0:0:0:
256,192,141746,1,8,0:0:0:0:
256,192,141825,1,0,0:0:0:0:
256,192,141904,1,0,0:0:0:0:
256,192,141983,1,8,0:0:0:0:
256,192,142062,1,0,0:0:0:0:
256,192,142141,1,8,0:0:0:0:
256,192,142220,1,8,0:0:0:0:
256,192,142299,1,0,0:0:0:0:
256,192,142378,1,8,0:0:0:0:
256,192,142457,1,0,0:0:0:0:
256,192,142536,1,8,0:0:0:0:
256,192,142615,1,8,0:0:0:0:
256,192,142693,1,8,0:0:0:0:
256,192,142773,1,0,0:0:0:0:
256,192,142931,1,8,0:0:0:0:
256,192,143088,1,0,0:0:0:0:
256,192,143167,1,0,0:0:0:0:
256,192,143246,1,8,0:0:0:0:
256,192,143404,1,0,0:0:0:0:
256,192,143483,1,0,0:0:0:0:
256,192,143562,1,8,0:0:0:0:
256,192,143641,1,8,0:0:0:0:
256,192,143720,1,0,0:0:0:0:
256,192,143799,1,8,0:0:0:0:
256,192,143878,1,8,0:0:0:0:
256,192,143957,1,8,0:0:0:0:
256,192,146562,1,4,0:0:0:0:
256,192,146720,1,0,0:0:0:0:
256,192,146799,1,0,0:0:0:0:
256,192,146878,1,8,0:0:0:0:
256,192,147036,1,0,0:0:0:0:
256,192,147115,1,0,0:0:0:0:
256,192,147194,1,8,0:0:0:0:
256,192,147273,1,8,0:0:0:0:
256,192,147351,1,0,0:0:0:0:
256,192,147509,1,8,0:0:0:0:
256,192,147667,1,8,0:0:0:0:
256,192,147746,1,8,0:0:0:0:
256,192,147825,1,0,0:0:0:0:
256,192,147983,1,0,0:0:0:0:
256,192,148062,1,0,0:0:0:0:
256,192,148141,1,8,0:0:0:0:
256,192,148220,1,0,0:0:0:0:
256,192,148299,1,8,0:0:0:0:
256,192,148457,1,0,0:0:0:0:
256,192,148614,1,8,0:0:0:0:
256,192,148694,1,0,0:0:0:0:
256,192,148773,1,8,0:0:0:0:
256,192,148851,1,8,0:0:0:0:
256,192,148930,1,0,0:0:0:0:
256,192,149009,1,0,0:0:0:0:
256,192,149088,1,8,0:0:0:0:
256,192,149246,1,0,0:0:0:0:
256,192,149404,1,8,0:0:0:0:
256,192,149483,1,8,0:0:0:0:
256,192,149562,1,0,0:0:0:0:
256,192,149641,1,0,0:0:0:0:
256,192,149720,1,8,0:0:0:0:
256,192,149878,1,0,0:0:0:0:
256,192,150036,1,8,0:0:0:0:
256,192,150194,1,8,0:0:0:0:
256,192,150351,1,8,0:0:0:0:
256,192,150430,1,8,0:0:0:0:
256,192,150509,1,8,0:0:0:0:
256,192,150588,1,0,0:0:0:0:
256,192,150667,1,8,0:0:0:0:
256,192,150825,1,8,0:0:0:0:
256,192,150904,1,8,0:0:0:0:
256,192,150983,1,0,0:0:0:0:
256,192,151141,1,8,0:0:0:0:
256,192,151220,1,0,0:0:0:0:
256,192,151299,1,8,0:0:0:0:
256,192,151378,1,8,0:0:0:0:
256,192,151457,1,0,0:0:0:0:
256,192,151536,1,0,0:0:0:0:
256,192,151614,1,8,0:0:0:0:
256,192,151773,1,0,0:0:0:0:
256,192,151851,1,0,0:0:0:0:
256,192,151930,1,8,0:0:0:0:
256,192,152088,1,0,0:0:0:0:
256,192,152246,1,8,0:0:0:0:
256,192,152325,1,8,0:0:0:0:
256,192,152404,1,0,0:0:0:0:
256,192,152483,1,0,0:0:0:0:
256,192,152562,1,8,0:0:0:0:
256,192,152720,1,0,0:0:0:0:
256,192,152878,1,8,0:0:0:0:
256,192,152957,1,8,0:0:0:0:
256,192,153036,1,0,0:0:0:0:
256,192,153194,1,8,0:0:0:0:
256,192,153351,1,8,0:0:0:0:
256,192,153509,1,0,0:0:0:0:
256,192,153588,1,0,0:0:0:0:
256,192,153667,1,8,0:0:0:0:
256,192,153746,1,0,0:0:0:0:
256,192,153825,1,8,0:0:0:0:
256,192,153904,1,8,0:0:0:0:
256,192,153983,1,8,0:0:0:0:
256,192,154062,1,0,0:0:0:0:
256,192,154141,1,8,0:0:0:0:
256,192,154299,1,0,0:0:0:0:
256,192,154457,1,8,0:0:0:0:
256,192,154615,1,0,0:0:0:0:
256,192,154694,1,8,0:0:0:0:
256,192,154773,1,0,0:0:0:0:
256,192,154851,1,0,0:0:0:0:
256,192,154930,1,8,0:0:0:0:
256,192,155088,1,8,0:0:0:0:
256,192,155246,1,0,0:0:0:0:
256,192,155404,1,8,0:0:0:0:
256,192,155483,1,0,0:0:0:0:
256,192,155562,1,0,0:0:0:0:
256,192,155641,1,0,0:0:0:0:
256,192,155720,1,8,0:0:0:0:
256,192,155799,1,8,0:0:0:0:
256,192,155878,1,0,0:0:0:0:
256,192,156036,2,0,L|416:192,1,140
256,192,156667,1,4,0:0:0:0:
256,192,156825,1,0,0:0:0:0:
256,192,156904,1,0,0:0:0:0:
256,192,156983,1,8,0:0:0:0:
256,192,157141,1,0,0:0:0:0:
256,192,157220,1,0,0:0:0:0:
256,192,157299,1,8,0:0:0:0:
256,192,157378,1,8,0:0:0:0:
256,192,157456,1,0,0:0:0:0:
256,192,157614,1,8,0:0:0:0:
256,192,157772,1,8,0:0:0:0:
256,192,157851,1,8,0:0:0:0:
256,192,157930,1,0,0:0:0:0:
256,192,158088,1,0,0:0:0:0:
256,192,158167,1,0,0:0:0:0:
256,192,158246,1,8,0:0:0:0:
256,192,158404,1,8,0:0:0:0:
256,192,158562,1,0,0:0:0:0:
256,192,158641,1,0,0:0:0:0:
256,192,158720,1,8,0:0:0:0:
256,192,158799,1,0,0:0:0:0:
256,192,158878,1,8,0:0:0:0:
256,192,158957,1,8,0:0:0:0:
256,192,159036,1,0,0:0:0:0:
256,192,159114,1,0,0:0:0:0:
256,192,159193,1,8,0:0:0:0:
256,192,159351,1,0,0:0:0:0:
256,192,159509,1,8,0:0:0:0:
256,192,159588,1,8,0:0:0:0:
256,192,159667,1,0,0:0:0:0:
256,192,159746,1,0,0:0:0:0:
256,192,159825,1,8,0:0:0:0:
256,192,159983,1,0,0:0:0:0:
256,192,160141,1,8,0:0:0:0:
256,192,160299,1,8,0:0:0:0:
256,192,160457,1,8,0:0:0:0:
256,192,160536,1,8,0:0:0:0:
256,192,160614,1,0,0:0:0:0:
256,192,160693,1,8,0:0:0:0:
256,192,160772,1,0,0:0:0:0:
256,192,160851,1,0,0:0:0:0:
256,192,160930,1,8,0:0:0:0:
256,192,161009,1,0,0:0:0:0:
256,192,161088,1,8,0:0:0:0:
256,192,161167,1,8,0:0:0:0:
256,192,161246,1,0,0:0:0:0:
256,192,161325,1,0,0:0:0:0:
256,192,161404,1,8,0:0:0:0:
256,192,161483,1,8,0:0:0:0:
256,192,161562,1,8,0:0:0:0:
256,192,161641,1,8,0:0:0:0:
256,192,161720,1,0,0:0:0:0:
256,192,161878,1,0,0:0:0:0:
256,192,162036,1,8,0:0:0:0:
256,192,162194,1,0,0:0:0:0:
256,192,162273,1,0,0:0:0:0:
256,192,162351,1,8,0:0:0:0:
256,192,162430,1,8,0:0:0:0:
256,192,162509,1,0,0:0:0:0:
256,192,162667,1,8,0:0:0:0:
256,192,162825,1,0,0:0:0:0:
256,192,162904,1,0,0:0:0:0:
256,192,162983,1,8,0:0:0:0:
256,192,163141,1,0,0:0:0:0:
256,192,163220,1,0,0:0:0:0:
256,192,163299,1,8,0:0:0:0:
256,192,163457,1,8,0:0:0:0:
256,192,163614,1,0,0:0:0:0:
256,192,163772,1,8,0:0:0:0:
256,192,163851,1,0,0:0:0:0:
256,192,163930,1,8,0:0:0:0:
256,192,164009,1,8,0:0:0:0:
256,192,164088,1,0,0:0:0:0:
256,192,164167,1,0,0:0:0:0:
256,192,164246,1,8,0:0:0:0:
256,192,164325,1,8,0:0:0:0:
256,192,164404,1,0,0:0:0:0:
256,192,164483,1,0,0:0:0:0:
256,192,164562,1,8,0:0:0:0:
256,192,164641,1,0,0:0:0:0:
256,192,164720,1,8,0:0:0:0:
256,192,164799,1,0,0:0:0:0:
256,192,164878,1,8,0:0:0:0:
256,192,164957,1,8,0:0:0:0:
256,192,165036,1,0,0:0:0:0:
256,192,165115,1,8,0:0:0:0:
256,192,165194,1,8,0:0:0:0:
256,192,165273,1,0,0:0:0:0:
256,192,165351,1,8,0:0:0:0:
256,192,165509,1,0,0:0:0:0:
256,192,165667,1,8,0:0:0:0:
256,192,165825,1,8,0:0:0:0:
256,192,165983,1,0,0:0:0:0:
256,192,166062,1,0,0:0:0:0:
256,192,166141,1,8,0:0:0:0:
256,192,166457,1,0,0:0:0:0:
256,192,166772,12,0,167720,0:0:0:0:
256,192,168036,5,12,0:0:0:0:
256,192,168194,1,0,0:0:0:0:
256,192,168352,1,8,0:0:0:0:
256,192,168510,1,0,0:0:0:0:
256,192,168589,1,0,0:0:0:0:
256,192,168668,1,8,0:0:0:0:
256,192,168747,1,8,0:0:0:0:
256,192,168826,1,0,0:0:0:0:
256,192,168984,1,8,0:0:0:0:
256,192,169142,1,0,0:0:0:0:
256,192,169220,1,0,0:0:0:0:
256,192,169299,1,8,0:0:0:0:
256,192,169457,1,0,0:0:0:0:
256,192,169536,1,0,0:0:0:0:
256,192,169615,1,8,0:0:0:0:
256,192,169693,1,0,0:0:0:0:
256,192,169772,1,8,0:0:0:0:
256,192,169930,1,0,0:0:0:0:
256,192,170009,1,0,0:0:0:0:
256,192,170088,1,8,0:0:0:0:
256,192,170167,1,0,0:0:0:0:
256,192,170246,1,8,0:0:0:0:
256,192,170325,1,8,0:0:0:0:
256,192,170405,1,8,0:0:0:0:
256,192,170483,1,8,0:0:0:0:
256,192,170562,1,0,0:0:0:0:
256,192,170721,1,0,0:0:0:0:
256,192,170800,1,0,0:0:0:0:
256,192,170879,1,8,0:0:0:0:
256,192,171037,1,0,0:0:0:0:
256,192,171194,1,8,0:0:0:0:
256,192,171273,1,8,0:0:0:0:
256,192,171352,1,0,0:0:0:0:
256,192,171431,1,0,0:0:0:0:
256,192,171510,1,8,0:0:0:0:
256,192,171668,1,8,0:0:0:0:
256,192,171826,1,0,0:0:0:0:
256,192,171984,1,0,0:0:0:0:
256,192,172063,1,0,0:0:0:0:
256,192,172142,1,8,0:0:0:0:
256,192,172300,1,0,0:0:0:0:
256,192,172458,1,8,0:0:0:0:
256,192,172537,1,8,0:0:0:0:
256,192,172615,1,0,0:0:0:0:
256,192,172694,1,8,0:0:0:0:
256,192,172773,1,8,0:0:0:0:
256,192,172852,1,0,0:0:0:0:
256,192,172931,1,8,0:0:0:0:
256,192,172984,1,8,0:0:0:0:
256,192,173037,1,8,0:0:0:0:
256,192,173089,1,0,0:0:0:0:
256,192,173246,1,0,0:0:0:0:
256,192,173404,1,8,0:0:0:0:
256,192,173562,1,0,0:0:0:0:
256,192,173641,1,0,0:0:0:0:
256,192,173720,1,8,0:0:0:0:
256,192,173799,1,8,0:0:0:0:
256,192,173878,1,0,0:0:0:0:
256,192,173957,1,8,0:0:0:0:
256,192,174036,1,0,0:0:0:0:
256,192,174114,1,0,0:0:0:0:
256,192,174193,1,8,0:0:0:0:
256,192,174272,1,8,0:0:0:0:
256,192,174351,1,0,0:0:0:0:
256,192,174509,1,8,0:0:0:0:
256,192,174588,1,0,0:0:0:0:
256,192,174667,1,8,0:0:0:0:
256,192,174746,1,8,0:0:0:0:
256,192,174825,1,0,0:0:0:0:
256,192,174904,1,0,0:0:0:0:
256,192,174983,1,8,0:0:0:0:
256,192,175141,1,8,0:0:0:0:
256,192,175299,1,0,0:0:0:0:
256,192,175457,1,8,0:0:0:0:
256,192,175614,1,8,0:0:0:0:
256,192,175693,1,8,0:0:0:0:
256,192,175772,1,0,0:0:0:0:
256,192,175851,1,0,0:0:0:0:
256,192,175930,1,8,0:0:0:0:
256,192,176009,1,0,0:0:0:0:
256,192,176088,1,8,0:0:0:0:
256,192,176167,1,0,0:0:0:0:
256,192,176246,1,8,0:0:0:0:
256,192,176325,1,8,0:0:0:0:
256,192,176404,1,0,0:0:0:0:
256,192,176483,1,0,0:0:0:0:
256,192,176562,1,8,0:0:0:0:
256,192,176641,1,0,0:0:0:0:
256,192,176720,1,8,0:0:0:0:
256,192,176799,1,0,0:0:0:0:
256,192,176878,1,8,0:0:0:0:
256,192,176957,1,8,0:0:0:0:
256,192,177036,1,0,0:0:0:0:
256,192,177114,1,8,0:0:0:0:
256,192,177193,1,8,0:0:0:0:
256,192,177272,1,8,0:0:0:0:
256,192,177351,1,0,0:0:0:0:
256,192,177430,1,0,0:0:0:0:
256,192,177509,1,8,0:0:0:0:
