osu file format v14

[General]
AudioFilename: Rainbow SocialismRainbow Tylenol.mp3
AudioLeadIn: 0
PreviewTime: 14026
Countdown: 0
SampleSet: Normal
StackLeniency: 0.7
Mode: 3
LetterboxInBreaks: 0
SpecialStyle: 0
WidescreenStoryboard: 0

[Editor]
DistanceSpacing: 1.1
BeatDivisor: 4
GridSize: 4
TimelineZoom: 1.3

[Metadata]
Title:Rainbow Socialism
TitleUnicode:Rainbow Socialism
Artist:
ArtistUnicode:
Creator:Fresh Chicken
Version:4K Simyeong
Source:
Tags:leqek jakads
BeatmapID:960182
BeatmapSetID:447168

[Difficulty]
HPDrainRate:8
CircleSize:4
OverallDifficulty:8
ApproachRate:5
SliderMultiplier:1.4
SliderTickRate:1

[Events]
//Background and Video events
0,0,"Gojarani.png",0,0
//Break Periods
2,43559,47492
//Storyboard Layer 0 (Background)
//Storyboard Layer 1 (Fail)
//Storyboard Layer 2 (Pass)
//Storyboard Layer 3 (Foreground)
//Storyboard Sound Samples

[TimingPoints]
693,444.444444444444,4,1,0,0,1,0
29137,-100,4,1,0,0,0,1
43359,-100,4,1,0,0,0,0
50470,-100,4,1,0,0,0,1
64581,-100,4,1,0,0,0,0
64692,-100,4,1,0,0,0,1
78915,-100,4,1,0,0,0,0
93137,-100,4,1,0,0,0,1
107359,-100,4,1,0,0,0,0

[HitObjects]
64,192,248,5,0,0:0:0:0:
192,192,304,1,0,0:0:0:0:
320,192,359,1,0,0:0:0:0:
448,192,415,1,0,0:0:0:0:
64,192,470,1,0,0:0:0:0:
192,192,526,1,0,0:0:0:0:
320,192,581,1,0,0:0:0:0:
448,192,637,1,0,0:0:0:0:
64,192,693,128,0,1026:0:0:0:0:
192,192,1026,1,0,0:0:0:0:
448,192,1137,128,0,1359:0:0:0:0:
320,192,1359,1,0,0:0:0:0:
64,192,1581,1,0,0:0:0:0:
448,192,1581,1,0,0:0:0:0:
320,192,1581,1,0,0:0:0:0:
192,192,1692,1,0,0:0:0:0:
448,192,1692,1,0,0:0:0:0:
320,192,1804,1,0,0:0:0:0:
64,192,1804,1,0,0:0:0:0:
192,192,1915,1,0,0:0:0:0:
448,192,1915,1,0,0:0:0:0:
192,192,2026,1,0,0:0:0:0:
64,192,2026,1,0,0:0:0:0:
448,192,2026,1,0,0:0:0:0:
320,192,2248,1,0,0:0:0:0:
64,192,2248,1,0,0:0:0:0:
448,192,2470,128,0,2804:0:0:0:0:
320,192,2804,1,0,0:0:0:0:
64,192,2915,128,0,3137:0:0:0:0:
192,192,3137,1,0,0:0:0:0:
64,192,3359,1,0,0:0:0:0:
320,192,3359,1,0,0:0:0:0:
448,192,3359,1,0,0:0:0:0:
192,192,3470,1,0,0:0:0:0:
64,192,3470,1,0,0:0:0:0:
320,192,3581,1,0,0:0:0:0:
448,192,3581,1,0,0:0:0:0:
64,192,3692,1,0,0:0:0:0:
448,192,3692,1,0,0:0:0:0:
320,192,3804,1,0,0:0:0:0:
192,192,3804,1,0,0:0:0:0:
64,192,3804,1,0,0:0:0:0:
448,192,4026,1,0,0:0:0:0:
192,192,4026,1,0,0:0:0:0:
320,192,4248,128,0,4581:0:0:0:0:
448,192,4581,1,0,0:0:0:0:
192,192,4692,128,0,4915:0:0:0:0:
64,192,4915,1,0,0:0:0:0:
64,192,5137,128,0,5470:0:0:0:0:
192,192,5470,1,0,0:0:0:0:
448,192,5581,128,0,5804:0:0:0:0:
320,192,5804,1,0,0:0:0:0:
192,192,6026,1,0,0:0:0:0:
64,192,6026,1,0,0:0:0:0:
192,192,6137,1,0,0:0:0:0:
64,192,6137,1,0,0:0:0:0:
192,192,6248,1,0,0:0:0:0:
64,192,6248,1,0,0:0:0:0:
192,192,6359,1,0,0:0:0:0:
64,192,6359,1,0,0:0:0:0:
448,192,6470,1,0,0:0:0:0:
320,192,6470,1,0,0:0:0:0:
448,192,6581,1,0,0:0:0:0:
320,192,6581,1,0,0:0:0:0:
448,192,6692,1,0,0:0:0:0:
320,192,6692,1,0,0:0:0:0:
448,192,6804,1,0,0:0:0:0:
320,192,6804,1,0,0:0:0:0:
192,192,6915,1,0,0:0:0:0:
64,192,6915,1,0,0:0:0:0:
320,192,7026,1,0,0:0:0:0:
448,192,7026,1,0,0:0:0:0:
192,192,7137,1,0,0:0:0:0:
64,192,7137,1,0,0:0:0:0:
192,192,7248,1,0,0:0:0:0:
64,192,7248,1,0,0:0:0:0:
320,192,7359,1,0,0:0:0:0:
448,192,7359,1,0,0:0:0:0:
192,192,7470,1,0,0:0:0:0:
64,192,7470,1,0,0:0:0:0:
320,192,7581,1,0,0:0:0:0:
448,192,7581,1,0,0:0:0:0:
448,192,7692,1,0,0:0:0:0:
320,192,7692,1,0,0:0:0:0:
192,192,7804,1,0,0:0:0:0:
320,192,7915,1,0,0:0:0:0:
64,192,8026,128,0,8137:0:0:0:0:
448,192,8026,1,0,0:0:0:0:
320,192,8137,1,0,0:0:0:0:
192,192,8248,1,0,0:0:0:0:
64,192,8470,128,0,8581:0:0:0:0:
448,192,8470,1,0,0:0:0:0:
320,192,8692,1,0,0:0:0:0:
64,192,8915,128,0,9026:0:0:0:0:
448,192,8915,1,0,0:0:0:0:
320,192,9026,1,0,0:0:0:0:
192,192,9137,1,0,0:0:0:0:
64,192,9359,128,0,9470:0:0:0:0:
320,192,9359,1,0,0:0:0:0:
192,192,9581,1,0,0:0:0:0:
448,192,9804,128,0,9915:0:0:0:0:
64,192,9804,1,0,0:0:0:0:
192,192,9915,1,0,0:0:0:0:
192,192,10137,1,0,0:0:0:0:
448,192,10248,128,0,10359:0:0:0:0:
64,192,10248,1,0,0:0:0:0:
192,192,10470,1,0,0:0:0:0:
192,192,10581,1,0,0:0:0:0:
448,192,10692,128,0,10804:0:0:0:0:
64,192,10692,1,0,0:0:0:0:
64,192,10804,1,0,0:0:0:0:
320,192,10915,1,0,0:0:0:0:
192,192,11026,1,0,0:0:0:0:
448,192,11137,128,0,11248:0:0:0:0:
64,192,11137,1,0,0:0:0:0:
192,192,11359,1,0,0:0:0:0:
320,192,11470,1,0,0:0:0:0:
448,192,11581,1,0,0:0:0:0:
64,192,11581,128,0,11692:0:0:0:0:
320,192,11692,1,0,0:0:0:0:
192,192,11804,1,0,0:0:0:0:
64,192,12026,128,0,12137:0:0:0:0:
448,192,12026,1,0,0:0:0:0:
320,192,12248,1,0,0:0:0:0:
64,192,12470,128,0,12581:0:0:0:0:
448,192,12470,1,0,0:0:0:0:
320,192,12581,1,0,0:0:0:0:
192,192,12692,1,0,0:0:0:0:
64,192,12915,128,0,13026:0:0:0:0:
320,192,12915,1,0,0:0:0:0:
448,192,13137,1,0,0:0:0:0:
320,192,13137,1,0,0:0:0:0:
192,192,13137,1,0,0:0:0:0:
64,192,13137,1,0,0:0:0:0:
448,192,14470,1,0,0:0:0:0:
320,192,14470,1,0,0:0:0:0:
192,192,14470,1,0,0:0:0:0:
64,192,14470,1,0,0:0:0:0:
320,192,14915,1,0,0:0:0:0:
192,192,14915,128,0,15248:0:0:0:0:
64,192,14915,128,0,15248:0:0:0:0:
320,192,15248,1,0,0:0:0:0:
448,192,15248,1,0,0:0:0:0:
320,192,15359,128,0,15581:0:0:0:0:
448,192,15359,128,0,15581:0:0:0:0:
192,192,15581,1,0,0:0:0:0:
64,192,15581,1,0,0:0:0:0:
448,192,15804,1,0,0:0:0:0:
320,192,15804,1,0,0:0:0:0:
192,192,15915,1,0,0:0:0:0:
64,192,15915,1,0,0:0:0:0:
64,192,16026,1,0,0:0:0:0:
448,192,16026,1,0,0:0:0:0:
448,192,16137,1,0,0:0:0:0:
192,192,16137,1,0,0:0:0:0:
320,192,16248,1,0,0:0:0:0:
64,192,16248,1,0,0:0:0:0:
192,192,16470,1,0,0:0:0:0:
320,192,16470,1,0,0:0:0:0:
192,192,16692,1,0,0:0:0:0:
448,192,16692,128,0,17026:0:0:0:0:
320,192,16692,128,0,17026:0:0:0:0:
64,192,17026,1,0,0:0:0:0:
192,192,17026,1,0,0:0:0:0:
192,192,17137,128,0,17359:0:0:0:0:
64,192,17137,128,0,17359:0:0:0:0:
320,192,17359,1,0,0:0:0:0:
448,192,17359,1,0,0:0:0:0:
192,192,17581,1,0,0:0:0:0:
64,192,17581,1,0,0:0:0:0:
448,192,17692,1,0,0:0:0:0:
320,192,17692,1,0,0:0:0:0:
448,192,17804,1,0,0:0:0:0:
64,192,17804,1,0,0:0:0:0:
320,192,17915,1,0,0:0:0:0:
64,192,17915,1,0,0:0:0:0:
448,192,18026,1,0,0:0:0:0:
192,192,18026,1,0,0:0:0:0:
320,192,18248,1,0,0:0:0:0:
192,192,18248,1,0,0:0:0:0:
448,192,18470,128,0,18804:0:0:0:0:
64,192,18470,128,0,18804:0:0:0:0:
320,192,18804,1,0,0:0:0:0:
64,192,18915,128,0,19137:0:0:0:0:
448,192,18915,128,0,19137:0:0:0:0:
192,192,19137,1,0,0:0:0:0:
320,192,19359,128,0,19692:0:0:0:0:
192,192,19359,128,0,19692:0:0:0:0:
448,192,19692,1,0,0:0:0:0:
320,192,19804,128,0,20026:0:0:0:0:
192,192,19804,128,0,20026:0:0:0:0:
64,192,20026,1,0,0:0:0:0:
192,192,20248,1,0,0:0:0:0:
448,192,20248,1,0,0:0:0:0:
320,192,20359,1,0,0:0:0:0:
64,192,20359,1,0,0:0:0:0:
192,192,20470,1,0,0:0:0:0:
448,192,20470,1,0,0:0:0:0:
320,192,20581,1,0,0:0:0:0:
64,192,20581,1,0,0:0:0:0:
192,192,20692,1,0,0:0:0:0:
64,192,20692,1,0,0:0:0:0:
192,192,20804,1,0,0:0:0:0:
320,192,20804,1,0,0:0:0:0:
320,192,20915,1,0,0:0:0:0:
448,192,20915,1,0,0:0:0:0:
192,192,21026,1,0,0:0:0:0:
64,192,21026,1,0,0:0:0:0:
448,192,21137,1,0,0:0:0:0:
64,192,21137,1,0,0:0:0:0:
192,192,21248,1,0,0:0:0:0:
320,192,21248,1,0,0:0:0:0:
448,192,21359,1,0,0:0:0:0:
64,192,21359,1,0,0:0:0:0:
320,192,21470,1,0,0:0:0:0:
192,192,21470,1,0,0:0:0:0:
448,192,21581,1,0,0:0:0:0:
64,192,21581,1,0,0:0:0:0:
192,192,21804,1,0,0:0:0:0:
448,192,21804,1,0,0:0:0:0:
320,192,22026,1,0,0:0:0:0:
192,192,22026,128,0,22359:0:0:0:0:
64,192,22026,128,0,22359:0:0:0:0:
448,192,22248,1,0,0:0:0:0:
320,192,22359,1,0,0:0:0:0:
448,192,22470,128,0,22692:0:0:0:0:
320,192,22470,128,0,22692:0:0:0:0:
192,192,22470,1,0,0:0:0:0:
64,192,22581,1,0,0:0:0:0:
192,192,22692,1,0,0:0:0:0:
64,192,22804,1,0,0:0:0:0:
320,192,22915,1,0,0:0:0:0:
448,192,22915,1,0,0:0:0:0:
192,192,23026,1,0,0:0:0:0:
64,192,23026,1,0,0:0:0:0:
448,192,23137,1,0,0:0:0:0:
64,192,23137,1,0,0:0:0:0:
448,192,23248,1,0,0:0:0:0:
192,192,23248,1,0,0:0:0:0:
320,192,23359,1,0,0:0:0:0:
64,192,23359,1,0,0:0:0:0:
448,192,23470,1,0,0:0:0:0:
320,192,23581,1,0,0:0:0:0:
192,192,23581,1,0,0:0:0:0:
64,192,23692,1,0,0:0:0:0:
448,192,23804,128,0,24137:0:0:0:0:
192,192,23804,1,0,0:0:0:0:
320,192,23804,128,0,24137:0:0:0:0:
64,192,23915,1,0,0:0:0:0:
192,192,24026,1,0,0:0:0:0:
64,192,24137,1,0,0:0:0:0:
192,192,24248,128,0,24470:0:0:0:0:
64,192,24248,128,0,24470:0:0:0:0:
320,192,24248,1,0,0:0:0:0:
448,192,24359,1,0,0:0:0:0:
320,192,24470,1,0,0:0:0:0:
448,192,24581,1,0,0:0:0:0:
64,192,24692,1,0,0:0:0:0:
192,192,24692,1,0,0:0:0:0:
320,192,24804,1,0,0:0:0:0:
448,192,24804,1,0,0:0:0:0:
64,192,24915,1,0,0:0:0:0:
448,192,24915,1,0,0:0:0:0:
320,192,25026,1,0,0:0:0:0:
64,192,25026,1,0,0:0:0:0:
192,192,25137,1,0,0:0:0:0:
448,192,25137,1,0,0:0:0:0:
64,192,25248,1,0,0:0:0:0:
320,192,25359,1,0,0:0:0:0:
192,192,25359,1,0,0:0:0:0:
192,192,25470,1,0,0:0:0:0:
448,192,25581,128,0,25915:0:0:0:0:
64,192,25581,128,0,25915:0:0:0:0:
320,192,25692,1,0,0:0:0:0:
192,192,25804,1,0,0:0:0:0:
320,192,25915,1,0,0:0:0:0:
64,192,26026,128,0,26248:0:0:0:0:
448,192,26026,128,0,26248:0:0:0:0:
192,192,26026,1,0,0:0:0:0:
320,192,26137,1,0,0:0:0:0:
192,192,26248,1,0,0:0:0:0:
448,192,26359,1,0,0:0:0:0:
320,192,26470,128,0,26804:0:0:0:0:
192,192,26470,128,0,26804:0:0:0:0:
64,192,26581,1,0,0:0:0:0:
448,192,26692,1,0,0:0:0:0:
64,192,26804,1,0,0:0:0:0:
320,192,26915,128,0,27137:0:0:0:0:
192,192,26915,128,0,27137:0:0:0:0:
448,192,26915,1,0,0:0:0:0:
64,192,27026,1,0,0:0:0:0:
448,192,27137,1,0,0:0:0:0:
64,192,27248,1,0,0:0:0:0:
192,192,27359,1,0,0:0:0:0:
448,192,27359,1,0,0:0:0:0:
64,192,27470,1,0,0:0:0:0:
320,192,27470,1,0,0:0:0:0:
448,192,27581,1,0,0:0:0:0:
192,192,27581,1,0,0:0:0:0:
64,192,27692,1,0,0:0:0:0:
320,192,27692,1,0,0:0:0:0:
192,192,27804,1,0,0:0:0:0:
64,192,27804,1,0,0:0:0:0:
320,192,27915,1,0,0:0:0:0:
192,192,27915,1,0,0:0:0:0:
448,192,28026,1,0,0:0:0:0:
320,192,28026,1,0,0:0:0:0:
64,192,28137,1,0,0:0:0:0:
192,192,28137,1,0,0:0:0:0:
64,192,28248,1,0,0:0:0:0:
448,192,28248,1,0,0:0:0:0:
192,192,28359,1,0,0:0:0:0:
320,192,28359,1,0,0:0:0:0:
448,192,28470,1,0,0:0:0:0:
64,192,28470,1,0,0:0:0:0:
320,192,28581,1,0,0:0:0:0:
192,192,28581,1,0,0:0:0:0:
448,192,28692,1,0,0:0:0:0:
64,192,28692,1,0,0:0:0:0:
192,192,28915,1,0,0:0:0:0:
448,192,28915,1,0,0:0:0:0:
448,192,29137,128,0,29470:0:0:0:0:
320,192,29248,128,0,29581:0:0:0:0:
192,192,29359,128,0,29692:0:0:0:0:
64,192,29470,128,0,29804:0:0:0:0:
448,192,29581,128,0,29804:0:0:0:0:
320,192,29692,128,0,29915:0:0:0:0:
192,192,29804,128,0,30026:0:0:0:0:
64,192,29915,128,0,30137:0:0:0:0:
448,192,30026,1,0,0:0:0:0:
320,192,30026,1,0,0:0:0:0:
320,192,30137,1,0,0:0:0:0:
192,192,30137,1,0,0:0:0:0:
192,192,30248,1,0,0:0:0:0:
64,192,30248,1,0,0:0:0:0:
448,192,30359,1,0,0:0:0:0:
320,192,30359,1,0,0:0:0:0:
192,192,30470,128,0,30692:0:0:0:0:
64,192,30470,128,0,30692:0:0:0:0:
320,192,30915,128,0,31137:0:0:0:0:
448,192,30915,1,0,0:0:0:0:
192,192,31026,128,0,31248:0:0:0:0:
64,192,31026,1,0,0:0:0:0:
448,192,31137,128,0,31359:0:0:0:0:
64,192,31248,128,0,31359:0:0:0:0:
320,192,31248,1,0,0:0:0:0:
192,192,31359,1,0,0:0:0:0:
320,192,31581,1,0,0:0:0:0:
192,192,31692,1,0,0:0:0:0:
64,192,31915,128,0,32137:0:0:0:0:
192,192,31915,1,0,0:0:0:0:
320,192,32026,128,0,32248:0:0:0:0:
448,192,32026,1,0,0:0:0:0:
192,192,32137,1,0,0:0:0:0:
64,192,32248,1,0,0:0:0:0:
192,192,32359,128,0,32581:0:0:0:0:
320,192,32359,1,0,0:0:0:0:
448,192,32470,128,0,32692:0:0:0:0:
64,192,32470,1,0,0:0:0:0:
320,192,32581,1,0,0:0:0:0:
320,192,32692,1,0,0:0:0:0:
192,192,32692,1,0,0:0:0:0:
64,192,32692,128,0,33137:0:0:0:0:
448,192,32915,1,0,0:0:0:0:
448,192,33137,1,0,0:0:0:0:
320,192,33137,1,0,0:0:0:0:
320,192,33248,1,0,0:0:0:0:
192,192,33248,1,0,0:0:0:0:
192,192,33359,1,0,0:0:0:0:
64,192,33359,1,0,0:0:0:0:
320,192,33470,1,0,0:0:0:0:
448,192,33470,1,0,0:0:0:0:
192,192,33581,1,0,0:0:0:0:
64,192,33581,1,0,0:0:0:0:
192,192,33692,1,0,0:0:0:0:
64,192,33692,1,0,0:0:0:0:
320,192,33804,1,0,0:0:0:0:
448,192,33804,1,0,0:0:0:0:
448,192,33915,1,0,0:0:0:0:
320,192,33915,1,0,0:0:0:0:
192,192,34026,1,0,0:0:0:0:
64,192,34026,1,0,0:0:0:0:
320,192,34248,1,0,0:0:0:0:
448,192,34248,1,0,0:0:0:0:
320,192,34470,1,0,0:0:0:0:
64,192,34470,1,0,0:0:0:0:
192,192,34581,1,0,0:0:0:0:
448,192,34581,1,0,0:0:0:0:
320,192,34692,1,0,0:0:0:0:
192,192,34692,1,0,0:0:0:0:
448,192,34804,1,0,0:0:0:0:
64,192,34804,1,0,0:0:0:0:
320,192,34915,1,0,0:0:0:0:
192,192,34915,1,0,0:0:0:0:
448,192,35026,1,0,0:0:0:0:
64,192,35137,1,0,0:0:0:0:
192,192,35359,1,0,0:0:0:0:
448,192,35359,1,0,0:0:0:0:
320,192,35470,1,0,0:0:0:0:
64,192,35470,1,0,0:0:0:0:
320,192,35581,1,0,0:0:0:0:
192,192,35581,1,0,0:0:0:0:
64,192,35692,1,0,0:0:0:0:
448,192,35692,1,0,0:0:0:0:
192,192,35804,1,0,0:0:0:0:
320,192,35804,1,0,0:0:0:0:
64,192,35915,1,0,0:0:0:0:
448,192,36026,1,0,0:0:0:0:
64,192,36248,128,0,36581:0:0:0:0:
320,192,36248,1,0,0:0:0:0:
448,192,36248,1,0,0:0:0:0:
192,192,36359,128,0,36692:0:0:0:0:
320,192,36470,128,0,36804:0:0:0:0:
448,192,36581,128,0,36915:0:0:0:0:
64,192,36692,128,0,36915:0:0:0:0:
192,192,36804,128,0,37026:0:0:0:0:
320,192,36915,128,0,37137:0:0:0:0:
448,192,37026,128,0,37248:0:0:0:0:
192,192,37137,1,0,0:0:0:0:
64,192,37137,1,0,0:0:0:0:
192,192,37248,1,0,0:0:0:0:
320,192,37248,1,0,0:0:0:0:
320,192,37359,1,0,0:0:0:0:
448,192,37359,1,0,0:0:0:0:
192,192,37470,1,0,0:0:0:0:
64,192,37470,1,0,0:0:0:0:
320,192,37581,128,0,37804:0:0:0:0:
448,192,37581,128,0,38026:0:0:0:0:
64,192,38026,1,0,0:0:0:0:
192,192,38026,128,0,38248:0:0:0:0:
448,192,38137,1,0,0:0:0:0:
320,192,38137,128,0,38359:0:0:0:0:
64,192,38248,128,0,38470:0:0:0:0:
448,192,38359,128,0,38470:0:0:0:0:
192,192,38359,1,0,0:0:0:0:
320,192,38470,1,0,0:0:0:0:
192,192,38581,1,0,0:0:0:0:
192,192,38692,1,0,0:0:0:0:
320,192,38804,1,0,0:0:0:0:
448,192,39026,128,0,39248:0:0:0:0:
320,192,39026,1,0,0:0:0:0:
64,192,39137,1,0,0:0:0:0:
192,192,39137,128,0,39359:0:0:0:0:
320,192,39248,1,0,0:0:0:0:
448,192,39359,1,0,0:0:0:0:
192,192,39470,1,0,0:0:0:0:
320,192,39470,128,0,39692:0:0:0:0:
448,192,39581,1,0,0:0:0:0:
64,192,39581,128,0,39804:0:0:0:0:
192,192,39692,128,0,40026:0:0:0:0:
448,192,39804,1,0,0:0:0:0:
64,192,40026,1,0,0:0:0:0:
192,192,40248,1,0,0:0:0:0:
64,192,40248,1,0,0:0:0:0:
320,192,40359,1,0,0:0:0:0:
192,192,40359,1,0,0:0:0:0:
448,192,40470,1,0,0:0:0:0:
320,192,40470,1,0,0:0:0:0:
192,192,40581,128,0,40804:0:0:0:0:
64,192,40581,128,0,40804:0:0:0:0:
448,192,40804,1,0,0:0:0:0:
320,192,40804,1,0,0:0:0:0:
320,192,40915,1,0,0:0:0:0:
192,192,40915,1,0,0:0:0:0:
192,192,41026,1,0,0:0:0:0:
64,192,41026,1,0,0:0:0:0:
448,192,41137,1,0,0:0:0:0:
320,192,41137,1,0,0:0:0:0:
192,192,41359,1,0,0:0:0:0:
64,192,41359,1,0,0:0:0:0:
320,192,41581,1,0,0:0:0:0:
192,192,41581,1,0,0:0:0:0:
64,192,41581,1,0,0:0:0:0:
320,192,41692,1,0,0:0:0:0:
192,192,41692,1,0,0:0:0:0:
64,192,41692,1,0,0:0:0:0:
320,192,41804,1,0,0:0:0:0:
192,192,41804,1,0,0:0:0:0:
64,192,41804,1,0,0:0:0:0:
320,192,41915,1,0,0:0:0:0:
192,192,41915,1,0,0:0:0:0:
64,192,41915,1,0,0:0:0:0:
448,192,42137,1,0,0:0:0:0:
320,192,42137,1,0,0:0:0:0:
64,192,42137,1,0,0:0:0:0:
192,192,42248,1,0,0:0:0:0:
64,192,42248,1,0,0:0:0:0:
448,192,42248,1,0,0:0:0:0:
448,192,42470,1,0,0:0:0:0:
320,192,42470,1,0,0:0:0:0:
192,192,42470,1,0,0:0:0:0:
448,192,42581,1,0,0:0:0:0:
320,192,42581,1,0,0:0:0:0:
192,192,42581,1,0,0:0:0:0:
448,192,42692,1,0,0:0:0:0:
320,192,42692,1,0,0:0:0:0:
192,192,42692,1,0,0:0:0:0:
448,192,42804,1,0,0:0:0:0:
320,192,42804,1,0,0:0:0:0:
192,192,42804,1,0,0:0:0:0:
192,192,43026,1,0,0:0:0:0:
64,192,43026,1,0,0:0:0:0:
448,192,43026,1,0,0:0:0:0:
448,192,43137,1,0,0:0:0:0:
64,192,43137,1,0,0:0:0:0:
320,192,43137,1,0,0:0:0:0:
448,192,43359,1,0,0:0:0:0:
320,192,43359,1,0,0:0:0:0:
64,192,43359,1,0,0:0:0:0:
192,192,43359,1,0,0:0:0:0:
448,192,48692,5,0,0:0:0:0:
320,192,48692,1,0,0:0:0:0:
192,192,48692,1,0,0:0:0:0:
64,192,48692,1,0,0:0:0:0:
448,192,50026,1,0,0:0:0:0:
320,192,50026,1,0,0:0:0:0:
192,192,50026,1,0,0:0:0:0:
64,192,50026,1,0,0:0:0:0:
448,192,50470,5,0,0:0:0:0:
64,192,50470,1,0,0:0:0:0:
192,192,50544,1,0,0:0:0:0:
320,192,50618,1,0,0:0:0:0:
64,192,50692,1,0,0:0:0:0:
448,192,50692,1,0,0:0:0:0:
192,192,50767,1,0,0:0:0:0:
320,192,50841,1,0,0:0:0:0:
448,192,50915,128,0,51137:0:0:0:0:
64,192,51137,128,0,51359:0:0:0:0:
192,192,51137,1,0,0:0:0:0:
320,192,51248,1,0,0:0:0:0:
448,192,51359,1,0,0:0:0:0:
192,192,51359,1,0,0:0:0:0:
320,192,51470,1,0,0:0:0:0:
64,192,51470,1,0,0:0:0:0:
192,192,51581,1,0,0:0:0:0:
448,192,51581,1,0,0:0:0:0:
320,192,51692,128,0,51915:0:0:0:0:
64,192,51692,128,0,51915:0:0:0:0:
192,192,51915,1,0,0:0:0:0:
448,192,51915,1,0,0:0:0:0:
320,192,52026,1,0,0:0:0:0:
64,192,52026,1,0,0:0:0:0:
448,192,52248,1,0,0:0:0:0:
64,192,52248,1,0,0:0:0:0:
320,192,52359,1,0,0:0:0:0:
192,192,52415,1,0,0:0:0:0:
320,192,52470,1,0,0:0:0:0:
448,192,52526,1,0,0:0:0:0:
320,192,52581,1,0,0:0:0:0:
192,192,52637,1,0,0:0:0:0:
64,192,52692,1,0,0:0:0:0:
448,192,52692,1,0,0:0:0:0:
192,192,52804,1,0,0:0:0:0:
320,192,52915,1,0,0:0:0:0:
448,192,53026,128,0,53248:0:0:0:0:
64,192,53137,1,0,0:0:0:0:
320,192,53248,1,0,0:0:0:0:
192,192,53248,1,0,0:0:0:0:
192,192,53359,1,0,0:0:0:0:
64,192,53359,1,0,0:0:0:0:
320,192,53470,1,0,0:0:0:0:
448,192,53470,1,0,0:0:0:0:
192,192,53581,1,0,0:0:0:0:
64,192,53581,1,0,0:0:0:0:
448,192,53692,1,0,0:0:0:0:
320,192,53692,1,0,0:0:0:0:
320,192,53804,1,0,0:0:0:0:
192,192,53804,1,0,0:0:0:0:
192,192,53915,1,0,0:0:0:0:
64,192,53915,1,0,0:0:0:0:
448,192,54026,1,0,0:0:0:0:
320,192,54248,1,0,0:0:0:0:
448,192,54248,128,0,54470:0:0:0:0:
192,192,54470,1,0,0:0:0:0:
320,192,54470,128,0,54692:0:0:0:0:
64,192,54692,1,0,0:0:0:0:
192,192,54692,128,0,54915:0:0:0:0:
448,192,54915,1,0,0:0:0:0:
64,192,54915,1,0,0:0:0:0:
192,192,55026,1,0,0:0:0:0:
448,192,55026,1,0,0:0:0:0:
320,192,55137,1,0,0:0:0:0:
64,192,55137,1,0,0:0:0:0:
192,192,55248,1,0,0:0:0:0:
448,192,55248,1,0,0:0:0:0:
192,192,55359,1,0,0:0:0:0:
64,192,55359,1,0,0:0:0:0:
448,192,55359,1,0,0:0:0:0:
320,192,55470,1,0,0:0:0:0:
64,192,55470,1,0,0:0:0:0:
192,192,55581,1,0,0:0:0:0:
448,192,55581,1,0,0:0:0:0:
320,192,55692,128,0,55915:0:0:0:0:
192,192,55692,128,0,55915:0:0:0:0:
64,192,55915,1,0,0:0:0:0:
448,192,55915,1,0,0:0:0:0:
192,192,56026,1,0,0:0:0:0:
320,192,56026,1,0,0:0:0:0:
448,192,56137,1,0,0:0:0:0:
64,192,56137,1,0,0:0:0:0:
320,192,56248,1,0,0:0:0:0:
192,192,56248,1,0,0:0:0:0:
448,192,56359,1,0,0:0:0:0:
192,192,56359,1,0,0:0:0:0:
320,192,56470,1,0,0:0:0:0:
64,192,56470,1,0,0:0:0:0:
192,192,56581,1,0,0:0:0:0:
320,192,56581,1,0,0:0:0:0:
64,192,56692,1,0,0:0:0:0:
192,192,56767,1,0,0:0:0:0:
320,192,56841,1,0,0:0:0:0:
448,192,56915,1,0,0:0:0:0:
64,192,57026,1,0,0:0:0:0:
448,192,57137,1,0,0:0:0:0:
320,192,57192,1,0,0:0:0:0:
192,192,57248,1,0,0:0:0:0:
448,192,57359,1,0,0:0:0:0:
320,192,57415,1,0,0:0:0:0:
192,192,57470,1,0,0:0:0:0:
64,192,57581,1,0,0:0:0:0:
320,192,57637,1,0,0:0:0:0:
192,192,57692,1,0,0:0:0:0:
448,192,57748,1,0,0:0:0:0:
64,192,57804,1,0,0:0:0:0:
320,192,57859,1,0,0:0:0:0:
192,192,57915,1,0,0:0:0:0:
448,192,57970,1,0,0:0:0:0:
320,192,58026,1,0,0:0:0:0:
64,192,58081,1,0,0:0:0:0:
448,192,58137,1,0,0:0:0:0:
192,192,58192,1,0,0:0:0:0:
320,192,58248,1,0,0:0:0:0:
64,192,58304,1,0,0:0:0:0:
448,192,58359,1,0,0:0:0:0:
192,192,58415,1,0,0:0:0:0:
448,192,58470,1,0,0:0:0:0:
320,192,58526,1,0,0:0:0:0:
192,192,58581,1,0,0:0:0:0:
448,192,58637,1,0,0:0:0:0:
320,192,58692,1,0,0:0:0:0:
192,192,58748,1,0,0:0:0:0:
448,192,58804,1,0,0:0:0:0:
320,192,58859,1,0,0:0:0:0:
64,192,58915,1,0,0:0:0:0:
192,192,58970,1,0,0:0:0:0:
320,192,59026,1,0,0:0:0:0:
64,192,59081,1,0,0:0:0:0:
192,192,59137,1,0,0:0:0:0:
320,192,59192,1,0,0:0:0:0:
64,192,59248,1,0,0:0:0:0:
448,192,59470,1,0,0:0:0:0:
320,192,59470,1,0,0:0:0:0:
320,192,59581,1,0,0:0:0:0:
192,192,59581,1,0,0:0:0:0:
192,192,59692,128,0,59804:0:0:0:0:
64,192,59692,128,0,59804:0:0:0:0:
192,192,59915,1,0,0:0:0:0:
64,192,59915,1,0,0:0:0:0:
192,192,60026,1,0,0:0:0:0:
320,192,60026,1,0,0:0:0:0:
320,192,60137,1,0,0:0:0:0:
448,192,60137,1,0,0:0:0:0:
64,192,60174,1,0,0:0:0:0:
192,192,60248,1,0,0:0:0:0:
320,192,60322,1,0,0:0:0:0:
448,192,60396,1,0,0:0:0:0:
64,192,60470,1,0,0:0:0:0:
192,192,60544,1,0,0:0:0:0:
320,192,60618,1,0,0:0:0:0:
64,192,60692,1,0,0:0:0:0:
448,192,60767,1,0,0:0:0:0:
192,192,60841,1,0,0:0:0:0:
320,192,60915,1,0,0:0:0:0:
64,192,60989,1,0,0:0:0:0:
448,192,61063,1,0,0:0:0:0:
320,192,61137,1,0,0:0:0:0:
192,192,61137,1,0,0:0:0:0:
448,192,61359,1,0,0:0:0:0:
320,192,61359,1,0,0:0:0:0:
320,192,61470,1,0,0:0:0:0:
192,192,61470,1,0,0:0:0:0:
448,192,61581,1,0,0:0:0:0:
64,192,61581,1,0,0:0:0:0:
320,192,61692,1,0,0:0:0:0:
64,192,61692,1,0,0:0:0:0:
192,192,61804,1,0,0:0:0:0:
448,192,61804,1,0,0:0:0:0:
320,192,61915,1,0,0:0:0:0:
64,192,61915,1,0,0:0:0:0:
448,192,62026,1,0,0:0:0:0:
320,192,62026,1,0,0:0:0:0:
192,192,62100,1,0,0:0:0:0:
64,192,62174,1,0,0:0:0:0:
320,192,62248,1,0,0:0:0:0:
192,192,62248,1,0,0:0:0:0:
64,192,62322,1,0,0:0:0:0:
448,192,62396,1,0,0:0:0:0:
192,192,62470,1,0,0:0:0:0:
64,192,62470,1,0,0:0:0:0:
320,192,62544,1,0,0:0:0:0:
192,192,62618,1,0,0:0:0:0:
448,192,62692,1,0,0:0:0:0:
64,192,62692,1,0,0:0:0:0:
320,192,62767,1,0,0:0:0:0:
192,192,62841,1,0,0:0:0:0:
448,192,62915,1,0,0:0:0:0:
64,192,62915,1,0,0:0:0:0:
320,192,62970,1,0,0:0:0:0:
192,192,63026,1,0,0:0:0:0:
320,192,63081,1,0,0:0:0:0:
192,192,63137,1,0,0:0:0:0:
64,192,63192,1,0,0:0:0:0:
448,192,63248,1,0,0:0:0:0:
320,192,63304,1,0,0:0:0:0:
64,192,63359,1,0,0:0:0:0:
448,192,63359,1,0,0:0:0:0:
192,192,63415,1,0,0:0:0:0:
320,192,63470,1,0,0:0:0:0:
192,192,63526,1,0,0:0:0:0:
320,192,63581,1,0,0:0:0:0:
448,192,63637,1,0,0:0:0:0:
64,192,63692,1,0,0:0:0:0:
192,192,63748,1,0,0:0:0:0:
448,192,63804,1,0,0:0:0:0:
320,192,63804,1,0,0:0:0:0:
64,192,63859,1,0,0:0:0:0:
448,192,63915,1,0,0:0:0:0:
64,192,63970,1,0,0:0:0:0:
448,192,64026,1,0,0:0:0:0:
320,192,64081,1,0,0:0:0:0:
192,192,64137,1,0,0:0:0:0:
448,192,64192,1,0,0:0:0:0:
192,192,64248,1,0,0:0:0:0:
64,192,64248,1,0,0:0:0:0:
448,192,64304,1,0,0:0:0:0:
64,192,64359,1,0,0:0:0:0:
448,192,64415,1,0,0:0:0:0:
64,192,64470,1,0,0:0:0:0:
192,192,64526,1,0,0:0:0:0:
320,192,64581,1,0,0:0:0:0:
64,192,64637,1,0,0:0:0:0:
192,192,64692,1,0,0:0:0:0:
448,192,64692,1,0,0:0:0:0:
320,192,64915,1,0,0:0:0:0:
64,192,65026,1,0,0:0:0:0:
192,192,65137,1,0,0:0:0:0:
320,192,65165,1,0,0:0:0:0:
448,192,65192,128,0,65359:0:0:0:0:
64,192,65248,1,0,0:0:0:0:
192,192,65359,1,0,0:0:0:0:
448,192,65470,1,0,0:0:0:0:
320,192,65581,1,0,0:0:0:0:
192,192,65609,1,0,0:0:0:0:
64,192,65637,128,0,65804:0:0:0:0:
448,192,65692,1,0,0:0:0:0:
320,192,65804,1,0,0:0:0:0:
192,192,65915,1,0,0:0:0:0:
320,192,65970,1,0,0:0:0:0:
448,192,66026,128,0,66470:0:0:0:0:
64,192,66026,1,0,0:0:0:0:
192,192,66137,1,0,0:0:0:0:
320,192,66248,1,0,0:0:0:0:
192,192,66359,1,0,0:0:0:0:
320,192,66470,1,0,0:0:0:0:
64,192,66470,1,0,0:0:0:0:
192,192,66581,1,0,0:0:0:0:
448,192,66581,1,0,0:0:0:0:
320,192,66692,1,0,0:0:0:0:
448,192,66692,1,0,0:0:0:0:
192,192,66804,1,0,0:0:0:0:
64,192,66804,1,0,0:0:0:0:
64,192,66915,1,0,0:0:0:0:
448,192,66915,1,0,0:0:0:0:
448,192,67026,1,0,0:0:0:0:
192,192,67026,1,0,0:0:0:0:
320,192,67137,1,0,0:0:0:0:
192,192,67137,1,0,0:0:0:0:
320,192,67248,128,0,67470:0:0:0:0:
64,192,67248,128,0,67470:0:0:0:0:
192,192,67470,1,0,0:0:0:0:
448,192,67470,1,0,0:0:0:0:
320,192,67581,128,0,67804:0:0:0:0:
192,192,67804,1,0,0:0:0:0:
64,192,67804,128,0,68026:0:0:0:0:
320,192,68026,1,0,0:0:0:0:
448,192,68026,128,0,68248:0:0:0:0:
192,192,68137,1,0,0:0:0:0:
320,192,68248,1,0,0:0:0:0:
192,192,68276,1,0,0:0:0:0:
64,192,68304,128,0,68470:0:0:0:0:
448,192,68359,1,0,0:0:0:0:
320,192,68470,1,0,0:0:0:0:
64,192,68581,1,0,0:0:0:0:
192,192,68692,1,0,0:0:0:0:
320,192,68720,1,0,0:0:0:0:
448,192,68748,128,0,68915:0:0:0:0:
64,192,68804,1,0,0:0:0:0:
192,192,68915,1,0,0:0:0:0:
320,192,69026,1,0,0:0:0:0:
192,192,69081,1,0,0:0:0:0:
64,192,69137,128,0,69581:0:0:0:0:
448,192,69137,1,0,0:0:0:0:
320,192,69248,1,0,0:0:0:0:
192,192,69359,1,0,0:0:0:0:
320,192,69470,1,0,0:0:0:0:
448,192,69581,128,0,70026:0:0:0:0:
192,192,69692,1,0,0:0:0:0:
320,192,69804,1,0,0:0:0:0:
64,192,69915,1,0,0:0:0:0:
192,192,70026,1,0,0:0:0:0:
320,192,70137,1,0,0:0:0:0:
64,192,70137,1,0,0:0:0:0:
192,192,70248,1,0,0:0:0:0:
448,192,70248,1,0,0:0:0:0:
320,192,70359,1,0,0:0:0:0:
64,192,70359,1,0,0:0:0:0:
192,192,70470,1,0,0:0:0:0:
64,192,70470,1,0,0:0:0:0:
320,192,70581,1,0,0:0:0:0:
448,192,70581,1,0,0:0:0:0:
448,192,70692,1,0,0:0:0:0:
320,192,70692,1,0,0:0:0:0:
192,192,70804,1,0,0:0:0:0:
64,192,70804,1,0,0:0:0:0:
448,192,70915,1,0,0:0:0:0:
64,192,70915,1,0,0:0:0:0:
192,192,71026,1,0,0:0:0:0:
448,192,71026,1,0,0:0:0:0:
320,192,71137,1,0,0:0:0:0:
64,192,71137,1,0,0:0:0:0:
192,192,71248,1,0,0:0:0:0:
320,192,71248,1,0,0:0:0:0:
192,192,71359,1,0,0:0:0:0:
64,192,71359,1,0,0:0:0:0:
320,192,71470,1,0,0:0:0:0:
448,192,71470,1,0,0:0:0:0:
192,192,71581,1,0,0:0:0:0:
64,192,71581,1,0,0:0:0:0:
320,192,71692,1,0,0:0:0:0:
448,192,71692,1,0,0:0:0:0:
192,192,71804,1,0,0:0:0:0:
64,192,71804,1,0,0:0:0:0:
192,192,71915,1,0,0:0:0:0:
320,192,71915,1,0,0:0:0:0:
320,192,72026,1,0,0:0:0:0:
448,192,72026,1,0,0:0:0:0:
192,192,72137,1,0,0:0:0:0:
64,192,72137,1,0,0:0:0:0:
448,192,72248,1,0,0:0:0:0:
320,192,72248,1,0,0:0:0:0:
320,192,72359,1,0,0:0:0:0:
192,192,72359,1,0,0:0:0:0:
192,192,72470,1,0,0:0:0:0:
64,192,72470,1,0,0:0:0:0:
320,192,72581,1,0,0:0:0:0:
448,192,72581,1,0,0:0:0:0:
192,192,72692,1,0,0:0:0:0:
64,192,72692,1,0,0:0:0:0:
192,192,72804,1,0,0:0:0:0:
64,192,72804,1,0,0:0:0:0:
320,192,72915,1,0,0:0:0:0:
448,192,72915,1,0,0:0:0:0:
448,192,73026,1,0,0:0:0:0:
320,192,73026,1,0,0:0:0:0:
192,192,73137,1,0,0:0:0:0:
64,192,73137,1,0,0:0:0:0:
64,192,73248,1,0,0:0:0:0:
448,192,73248,1,0,0:0:0:0:
448,192,73359,1,0,0:0:0:0:
320,192,73359,1,0,0:0:0:0:
192,192,73470,1,0,0:0:0:0:
64,192,73470,1,0,0:0:0:0:
448,192,73581,1,0,0:0:0:0:
320,192,73581,1,0,0:0:0:0:
448,192,73692,1,0,0:0:0:0:
320,192,73692,1,0,0:0:0:0:
192,192,73804,1,0,0:0:0:0:
64,192,73804,1,0,0:0:0:0:
192,192,73915,1,0,0:0:0:0:
64,192,73915,1,0,0:0:0:0:
320,192,74026,1,0,0:0:0:0:
448,192,74026,1,0,0:0:0:0:
320,192,74137,1,0,0:0:0:0:
192,192,74137,1,0,0:0:0:0:
192,192,74248,1,0,0:0:0:0:
64,192,74248,1,0,0:0:0:0:
448,192,74359,1,0,0:0:0:0:
320,192,74359,1,0,0:0:0:0:
192,192,74470,1,0,0:0:0:0:
64,192,74470,1,0,0:0:0:0:
64,192,74581,1,0,0:0:0:0:
320,192,74581,1,0,0:0:0:0:
192,192,74692,1,0,0:0:0:0:
320,192,74692,1,0,0:0:0:0:
192,192,74804,1,0,0:0:0:0:
448,192,74804,1,0,0:0:0:0:
448,192,74915,1,0,0:0:0:0:
320,192,74915,1,0,0:0:0:0:
192,192,75026,1,0,0:0:0:0:
64,192,75026,1,0,0:0:0:0:
192,192,75137,1,0,0:0:0:0:
64,192,75137,1,0,0:0:0:0:
320,192,75248,1,0,0:0:0:0:
448,192,75248,1,0,0:0:0:0:
192,192,75359,1,0,0:0:0:0:
64,192,75359,1,0,0:0:0:0:
448,192,75415,1,0,0:0:0:0:
320,192,75470,1,0,0:0:0:0:
64,192,75526,1,0,0:0:0:0:
192,192,75581,1,0,0:0:0:0:
448,192,75637,1,0,0:0:0:0:
64,192,75692,1,0,0:0:0:0:
320,192,75748,1,0,0:0:0:0:
448,192,75804,1,0,0:0:0:0:
192,192,75804,1,0,0:0:0:0:
64,192,75859,1,0,0:0:0:0:
320,192,75915,1,0,0:0:0:0:
192,192,75970,1,0,0:0:0:0:
448,192,76026,1,0,0:0:0:0:
64,192,76081,1,0,0:0:0:0:
320,192,76137,1,0,0:0:0:0:
192,192,76192,1,0,0:0:0:0:
448,192,76248,1,0,0:0:0:0:
64,192,76248,1,0,0:0:0:0:
320,192,76304,1,0,0:0:0:0:
192,192,76359,1,0,0:0:0:0:
448,192,76415,1,0,0:0:0:0:
64,192,76470,1,0,0:0:0:0:
320,192,76526,1,0,0:0:0:0:
192,192,76581,1,0,0:0:0:0:
64,192,76637,1,0,0:0:0:0:
448,192,76692,1,0,0:0:0:0:
320,192,76692,1,0,0:0:0:0:
192,192,76748,1,0,0:0:0:0:
448,192,76804,1,0,0:0:0:0:
320,192,76831,1,0,0:0:0:0:
192,192,76859,1,0,0:0:0:0:
64,192,76887,1,0,0:0:0:0:
448,192,76915,1,0,0:0:0:0:
320,192,76970,1,0,0:0:0:0:
64,192,77026,1,0,0:0:0:0:
448,192,77081,1,0,0:0:0:0:
192,192,77137,1,0,0:0:0:0:
64,192,77137,1,0,0:0:0:0:
320,192,77192,1,0,0:0:0:0:
448,192,77248,1,0,0:0:0:0:
64,192,77248,1,0,0:0:0:0:
192,192,77304,1,0,0:0:0:0:
320,192,77359,1,0,0:0:0:0:
448,192,77359,1,0,0:0:0:0:
192,192,77415,1,0,0:0:0:0:
448,192,77470,1,0,0:0:0:0:
64,192,77470,1,0,0:0:0:0:
320,192,77526,1,0,0:0:0:0:
192,192,77581,1,0,0:0:0:0:
64,192,77581,1,0,0:0:0:0:
448,192,77637,1,0,0:0:0:0:
320,192,77692,1,0,0:0:0:0:
192,192,77692,1,0,0:0:0:0:
64,192,77748,1,0,0:0:0:0:
448,192,77804,1,0,0:0:0:0:
320,192,77804,1,0,0:0:0:0:
192,192,77859,1,0,0:0:0:0:
448,192,77915,1,0,0:0:0:0:
64,192,77915,1,0,0:0:0:0:
320,192,77970,1,0,0:0:0:0:
192,192,78026,1,0,0:0:0:0:
64,192,78026,1,0,0:0:0:0:
448,192,78081,1,0,0:0:0:0:
320,192,78137,1,0,0:0:0:0:
448,192,78192,1,0,0:0:0:0:
320,192,78248,1,0,0:0:0:0:
64,192,78304,1,0,0:0:0:0:
192,192,78359,1,0,0:0:0:0:
320,192,78415,1,0,0:0:0:0:
64,192,78470,1,0,0:0:0:0:
192,192,78526,1,0,0:0:0:0:
320,192,78581,1,0,0:0:0:0:
448,192,78637,1,0,0:0:0:0:
320,192,78692,128,0,78915:0:0:0:0:
64,192,78915,128,0,79248:0:0:0:0:
192,192,79248,1,0,0:0:0:0:
448,192,79359,128,0,79581:0:0:0:0:
320,192,79581,1,0,0:0:0:0:
64,192,79804,1,0,0:0:0:0:
448,192,79804,1,0,0:0:0:0:
320,192,79804,1,0,0:0:0:0:
192,192,79915,1,0,0:0:0:0:
448,192,79915,1,0,0:0:0:0:
320,192,80026,1,0,0:0:0:0:
64,192,80026,1,0,0:0:0:0:
192,192,80137,1,0,0:0:0:0:
448,192,80137,1,0,0:0:0:0:
64,192,80248,1,0,0:0:0:0:
448,192,80248,1,0,0:0:0:0:
192,192,80248,1,0,0:0:0:0:
320,192,80470,1,0,0:0:0:0:
64,192,80470,1,0,0:0:0:0:
448,192,80692,128,0,81026:0:0:0:0:
320,192,81026,1,0,0:0:0:0:
64,192,81137,128,0,81359:0:0:0:0:
192,192,81359,1,0,0:0:0:0:
320,192,81581,1,0,0:0:0:0:
448,192,81581,1,0,0:0:0:0:
64,192,81581,1,0,0:0:0:0:
64,192,81692,1,0,0:0:0:0:
192,192,81692,1,0,0:0:0:0:
448,192,81804,1,0,0:0:0:0:
320,192,81804,1,0,0:0:0:0:
448,192,81915,1,0,0:0:0:0:
64,192,81915,1,0,0:0:0:0:
64,192,82026,1,0,0:0:0:0:
192,192,82026,1,0,0:0:0:0:
320,192,82026,1,0,0:0:0:0:
448,192,82248,1,0,0:0:0:0:
192,192,82248,1,0,0:0:0:0:
320,192,82470,128,0,82804:0:0:0:0:
448,192,82804,1,0,0:0:0:0:
192,192,82915,128,0,83137:0:0:0:0:
64,192,83137,1,0,0:0:0:0:
64,192,83359,128,0,83692:0:0:0:0:
192,192,83692,1,0,0:0:0:0:
448,192,83804,128,0,84026:0:0:0:0:
320,192,84026,1,0,0:0:0:0:
64,192,84248,1,0,0:0:0:0:
192,192,84248,1,0,0:0:0:0:
192,192,84359,1,0,0:0:0:0:
64,192,84359,1,0,0:0:0:0:
448,192,84470,1,0,0:0:0:0:
320,192,84470,1,0,0:0:0:0:
320,192,84581,1,0,0:0:0:0:
448,192,84581,1,0,0:0:0:0:
448,192,84692,1,0,0:0:0:0:
320,192,84692,1,0,0:0:0:0:
320,192,84804,1,0,0:0:0:0:
448,192,84804,1,0,0:0:0:0:
64,192,84915,1,0,0:0:0:0:
192,192,84915,1,0,0:0:0:0:
192,192,85026,1,0,0:0:0:0:
64,192,85026,1,0,0:0:0:0:
448,192,85137,1,0,0:0:0:0:
320,192,85137,1,0,0:0:0:0:
192,192,85248,1,0,0:0:0:0:
64,192,85248,1,0,0:0:0:0:
320,192,85359,1,0,0:0:0:0:
448,192,85359,1,0,0:0:0:0:
448,192,85470,1,0,0:0:0:0:
320,192,85470,1,0,0:0:0:0:
64,192,85581,1,0,0:0:0:0:
192,192,85581,1,0,0:0:0:0:
320,192,85692,1,0,0:0:0:0:
448,192,85692,1,0,0:0:0:0:
192,192,85804,1,0,0:0:0:0:
64,192,85804,1,0,0:0:0:0:
320,192,85915,1,0,0:0:0:0:
448,192,85915,1,0,0:0:0:0:
320,192,86026,1,0,0:0:0:0:
64,192,86026,128,0,86359:0:0:0:0:
192,192,86026,128,0,86359:0:0:0:0:
448,192,86359,1,0,0:0:0:0:
320,192,86359,1,0,0:0:0:0:
320,192,86470,128,0,86692:0:0:0:0:
448,192,86470,128,0,86692:0:0:0:0:
64,192,86692,1,0,0:0:0:0:
192,192,86692,1,0,0:0:0:0:
320,192,86915,1,0,0:0:0:0:
448,192,86915,1,0,0:0:0:0:
192,192,87026,1,0,0:0:0:0:
64,192,87026,1,0,0:0:0:0:
64,192,87137,1,0,0:0:0:0:
448,192,87137,1,0,0:0:0:0:
448,192,87248,1,0,0:0:0:0:
192,192,87248,1,0,0:0:0:0:
320,192,87359,1,0,0:0:0:0:
64,192,87359,1,0,0:0:0:0:
320,192,87581,1,0,0:0:0:0:
192,192,87581,1,0,0:0:0:0:
320,192,87804,128,0,88137:0:0:0:0:
192,192,87804,1,0,0:0:0:0:
448,192,87804,128,0,88137:0:0:0:0:
64,192,88137,1,0,0:0:0:0:
192,192,88137,1,0,0:0:0:0:
192,192,88248,128,0,88470:0:0:0:0:
64,192,88248,128,0,88470:0:0:0:0:
320,192,88470,1,0,0:0:0:0:
448,192,88470,1,0,0:0:0:0:
192,192,88692,1,0,0:0:0:0:
64,192,88692,1,0,0:0:0:0:
320,192,88804,1,0,0:0:0:0:
448,192,88804,1,0,0:0:0:0:
64,192,88915,1,0,0:0:0:0:
448,192,88915,1,0,0:0:0:0:
64,192,89026,1,0,0:0:0:0:
320,192,89026,1,0,0:0:0:0:
448,192,89137,1,0,0:0:0:0:
192,192,89137,1,0,0:0:0:0:
192,192,89359,1,0,0:0:0:0:
320,192,89359,1,0,0:0:0:0:
64,192,89581,128,0,89915:0:0:0:0:
448,192,89581,128,0,89915:0:0:0:0:
320,192,89915,1,0,0:0:0:0:
64,192,90026,128,0,90248:0:0:0:0:
448,192,90026,128,0,90248:0:0:0:0:
192,192,90248,1,0,0:0:0:0:
320,192,90470,128,0,90804:0:0:0:0:
192,192,90470,128,0,90804:0:0:0:0:
448,192,90804,1,0,0:0:0:0:
320,192,90915,128,0,91137:0:0:0:0:
192,192,90915,128,0,91137:0:0:0:0:
64,192,91137,1,0,0:0:0:0:
448,192,91359,1,0,0:0:0:0:
192,192,91359,1,0,0:0:0:0:
64,192,91470,1,0,0:0:0:0:
320,192,91470,1,0,0:0:0:0:
192,192,91581,1,0,0:0:0:0:
448,192,91581,1,0,0:0:0:0:
320,192,91692,1,0,0:0:0:0:
64,192,91692,1,0,0:0:0:0:
64,192,91804,1,0,0:0:0:0:
192,192,91804,1,0,0:0:0:0:
192,192,91915,1,0,0:0:0:0:
320,192,91915,1,0,0:0:0:0:
320,192,92026,1,0,0:0:0:0:
448,192,92026,1,0,0:0:0:0:
192,192,92137,1,0,0:0:0:0:
64,192,92137,1,0,0:0:0:0:
64,192,92248,1,0,0:0:0:0:
448,192,92248,1,0,0:0:0:0:
320,192,92359,1,0,0:0:0:0:
192,192,92359,1,0,0:0:0:0:
64,192,92470,1,0,0:0:0:0:
448,192,92470,1,0,0:0:0:0:
192,192,92581,1,0,0:0:0:0:
320,192,92581,1,0,0:0:0:0:
448,192,92692,1,0,0:0:0:0:
64,192,92692,1,0,0:0:0:0:
448,192,92915,1,0,0:0:0:0:
192,192,92915,1,0,0:0:0:0:
448,192,93137,128,0,93470:0:0:0:0:
320,192,93248,128,0,93581:0:0:0:0:
192,192,93359,128,0,93692:0:0:0:0:
64,192,93470,128,0,93804:0:0:0:0:
448,192,93581,128,0,93804:0:0:0:0:
320,192,93692,128,0,93915:0:0:0:0:
192,192,93804,128,0,94026:0:0:0:0:
64,192,93915,128,0,94137:0:0:0:0:
448,192,94026,1,0,0:0:0:0:
320,192,94026,1,0,0:0:0:0:
192,192,94137,1,0,0:0:0:0:
320,192,94137,1,0,0:0:0:0:
64,192,94248,1,0,0:0:0:0:
192,192,94248,1,0,0:0:0:0:
448,192,94359,1,0,0:0:0:0:
320,192,94359,1,0,0:0:0:0:
64,192,94470,128,0,94692:0:0:0:0:
192,192,94470,128,0,94692:0:0:0:0:
448,192,94915,1,0,0:0:0:0:
320,192,94915,128,0,95137:0:0:0:0:
192,192,95026,128,0,95248:0:0:0:0:
64,192,95026,1,0,0:0:0:0:
448,192,95137,128,0,95359:0:0:0:0:
320,192,95248,1,0,0:0:0:0:
64,192,95248,128,0,95359:0:0:0:0:
192,192,95359,1,0,0:0:0:0:
64,192,95470,1,0,0:0:0:0:
320,192,95581,1,0,0:0:0:0:
192,192,95692,1,0,0:0:0:0:
192,192,95915,1,0,0:0:0:0:
64,192,95915,128,0,96137:0:0:0:0:
448,192,96026,1,0,0:0:0:0:
320,192,96026,128,0,96248:0:0:0:0:
192,192,96137,1,0,0:0:0:0:
64,192,96248,1,0,0:0:0:0:
320,192,96359,1,0,0:0:0:0:
192,192,96359,128,0,96581:0:0:0:0:
448,192,96470,128,0,96692:0:0:0:0:
64,192,96470,1,0,0:0:0:0:
320,192,96581,128,0,96915:0:0:0:0:
448,192,96915,1,0,0:0:0:0:
448,192,97137,1,0,0:0:0:0:
320,192,97137,1,0,0:0:0:0:
320,192,97248,1,0,0:0:0:0:
192,192,97248,1,0,0:0:0:0:
64,192,97359,1,0,0:0:0:0:
192,192,97359,1,0,0:0:0:0:
320,192,97470,1,0,0:0:0:0:
448,192,97470,1,0,0:0:0:0:
64,192,97692,1,0,0:0:0:0:
192,192,97692,1,0,0:0:0:0:
448,192,97804,1,0,0:0:0:0:
320,192,97804,1,0,0:0:0:0:
448,192,97915,1,0,0:0:0:0:
320,192,97915,1,0,0:0:0:0:
192,192,98026,1,0,0:0:0:0:
64,192,98026,1,0,0:0:0:0:
320,192,98248,1,0,0:0:0:0:
448,192,98248,1,0,0:0:0:0:
64,192,98470,1,0,0:0:0:0:
320,192,98470,1,0,0:0:0:0:
192,192,98581,1,0,0:0:0:0:
448,192,98581,1,0,0:0:0:0:
192,192,98692,1,0,0:0:0:0:
320,192,98692,1,0,0:0:0:0:
448,192,98804,1,0,0:0:0:0:
64,192,98804,128,0,99026:0:0:0:0:
448,192,99026,1,0,0:0:0:0:
64,192,99137,1,0,0:0:0:0:
192,192,99359,1,0,0:0:0:0:
448,192,99359,1,0,0:0:0:0:
320,192,99470,1,0,0:0:0:0:
64,192,99470,1,0,0:0:0:0:
320,192,99581,1,0,0:0:0:0:
192,192,99581,1,0,0:0:0:0:
64,192,99692,1,0,0:0:0:0:
448,192,99692,128,0,99915:0:0:0:0:
64,192,99915,1,0,0:0:0:0:
448,192,100026,1,0,0:0:0:0:
448,192,100248,1,0,0:0:0:0:
64,192,100248,128,0,100581:0:0:0:0:
320,192,100248,1,0,0:0:0:0:
192,192,100359,128,0,100692:0:0:0:0:
320,192,100470,128,0,100804:0:0:0:0:
448,192,100581,128,0,100915:0:0:0:0:
64,192,100692,128,0,100915:0:0:0:0:
192,192,100804,128,0,101026:0:0:0:0:
320,192,100915,128,0,101137:0:0:0:0:
448,192,101026,128,0,101248:0:0:0:0:
64,192,101137,1,0,0:0:0:0:
192,192,101137,1,0,0:0:0:0:
320,192,101248,1,0,0:0:0:0:
192,192,101248,1,0,0:0:0:0:
320,192,101359,1,0,0:0:0:0:
448,192,101359,1,0,0:0:0:0:
192,192,101470,1,0,0:0:0:0:
64,192,101470,1,0,0:0:0:0:
320,192,101581,128,0,101804:0:0:0:0:
448,192,101581,128,0,101804:0:0:0:0:
192,192,101804,1,0,0:0:0:0:
64,192,101804,1,0,0:0:0:0:
320,192,102026,128,0,102248:0:0:0:0:
448,192,102026,1,0,0:0:0:0:
192,192,102137,128,0,102359:0:0:0:0:
64,192,102137,1,0,0:0:0:0:
448,192,102248,128,0,102470:0:0:0:0:
64,192,102359,128,0,102581:0:0:0:0:
320,192,102359,1,0,0:0:0:0:
192,192,102470,128,0,102692:0:0:0:0:
320,192,102581,128,0,102804:0:0:0:0:
448,192,102692,128,0,102915:0:0:0:0:
64,192,102692,128,0,102915:0:0:0:0:
192,192,102915,1,0,0:0:0:0:
320,192,102915,1,0,0:0:0:0:
448,192,103026,128,0,103248:0:0:0:0:
320,192,103137,128,0,103359:0:0:0:0:
192,192,103248,128,0,103470:0:0:0:0:
64,192,103359,128,0,103581:0:0:0:0:
448,192,103470,128,0,103692:0:0:0:0:
320,192,103581,128,0,103804:0:0:0:0:
192,192,103692,128,0,104026:0:0:0:0:
64,192,103804,1,0,0:0:0:0:
448,192,103804,1,0,0:0:0:0:
448,192,104026,128,0,104470:0:0:0:0:
320,192,104026,1,0,0:0:0:0:
192,192,104248,1,0,0:0:0:0:
64,192,104248,1,0,0:0:0:0:
192,192,104359,1,0,0:0:0:0:
64,192,104359,1,0,0:0:0:0:
320,192,104470,1,0,0:0:0:0:
448,192,104581,1,0,0:0:0:0:
192,192,104581,128,0,104804:0:0:0:0:
320,192,104804,1,0,0:0:0:0:
448,192,104804,1,0,0:0:0:0:
448,192,104915,1,0,0:0:0:0:
320,192,104915,1,0,0:0:0:0:
192,192,105026,1,0,0:0:0:0:
64,192,105026,1,0,0:0:0:0:
320,192,105137,1,0,0:0:0:0:
448,192,105137,1,0,0:0:0:0:
192,192,105359,1,0,0:0:0:0:
64,192,105359,1,0,0:0:0:0:
448,192,105581,1,0,0:0:0:0:
320,192,105581,1,0,0:0:0:0:
64,192,105581,1,0,0:0:0:0:
320,192,105692,1,0,0:0:0:0:
448,192,105692,1,0,0:0:0:0:
64,192,105692,1,0,0:0:0:0:
192,192,105804,1,0,0:0:0:0:
64,192,105804,1,0,0:0:0:0:
448,192,105804,1,0,0:0:0:0:
192,192,105915,1,0,0:0:0:0:
448,192,105915,1,0,0:0:0:0:
64,192,105915,1,0,0:0:0:0:
320,192,106137,1,0,0:0:0:0:
192,192,106137,1,0,0:0:0:0:
64,192,106137,1,0,0:0:0:0:
192,192,106248,1,0,0:0:0:0:
320,192,106248,1,0,0:0:0:0:
448,192,106248,1,0,0:0:0:0:
320,192,106470,1,0,0:0:0:0:
192,192,106470,1,0,0:0:0:0:
64,192,106470,1,0,0:0:0:0:
320,192,106581,1,0,0:0:0:0:
192,192,106581,1,0,0:0:0:0:
64,192,106581,1,0,0:0:0:0:
192,192,106692,1,0,0:0:0:0:
320,192,106692,1,0,0:0:0:0:
448,192,106692,1,0,0:0:0:0:
448,192,106804,1,0,0:0:0:0:
320,192,106804,1,0,0:0:0:0:
192,192,106804,1,0,0:0:0:0:
192,192,107026,1,0,0:0:0:0:
64,192,107026,1,0,0:0:0:0:
448,192,107026,1,0,0:0:0:0:
320,192,107137,1,0,0:0:0:0:
448,192,107137,1,0,0:0:0:0:
64,192,107137,1,0,0:0:0:0:
448,192,107359,1,0,0:0:0:0:
320,192,107359,1,0,0:0:0:0:
192,192,107359,1,0,0:0:0:0:
64,192,107359,1,0,0:0:0:0:
