osu file format v9

[General]
AudioFilename: A Rainbow.mp3
AudioLeadIn: 0
PreviewTime: 56014
Countdown: 0
SampleSet: Normal
StackLeniency: 0.7
Mode: 0
LetterboxInBreaks: 1

[Editor]
Bookmarks: 19579,20014,40253,42188,49144,50557,75231,139579,146753,155883,157622,161101
DistanceSpacing: 0.8
BeatDivisor: 4
GridSize: 4

[Metadata]
Title:A
Artist:Rainbow
Creator:kazumikos
Version:Special
Source:
Tags:Hangul

[Difficulty]
HPDrainRate:8
CircleSize:4
OverallDifficulty:8
ApproachRate:8
SliderMultiplier:2.2
SliderTickRate:2

[Events]
//Background and Video events
0,0,"background.jpg"
//Break Periods
2,84127,90133
2,104996,117959
//Storyboard Layer 0 (Background)
//Storyboard Layer 1 (Fail)
//Storyboard Layer 2 (Pass)
//Storyboard Layer 3 (Foreground)
//Storyboard Sound Samples
//Background Colour Transformations
3,100,255,240,255

[TimingPoints]
449,434.782608695652,4,1,1,80,1,0
14688,-100,4,2,1,80,0,0
14905,-100,4,1,1,80,0,0
28166,-100,4,1,2,80,0,0
40992,-100,4,1,1,80,0,0
56101,-100,4,1,1,80,0,1
56209,-100,4,1,1,80,0,0
63057,-100,4,1,1,80,0,1
63166,-100,4,1,1,80,0,0
66862,-100,4,2,1,80,0,0
67079,-100,4,1,1,80,0,0
70340,-100,4,2,1,80,0,0
70557,-100,4,1,1,80,0,0
103383,-100,4,2,1,100,0,0
103601,-100,4,1,1,80,0,0
120448,-100,4,1,1,80,0,1
120564,-100,4,1,1,80,0,0
124253,-100,4,2,1,80,0,0
124470,-100,4,1,1,80,0,0
141644,-100,4,2,1,80,0,0
141862,-100,4,1,1,80,0,0
143383,-100,4,2,1,80,0,0
143601,-100,4,1,1,80,0,0
146862,-100,4,2,1,80,0,0
147079,-100,4,1,1,80,0,0
148275,-100,4,1,2,70,0,1
148383,-100,4,1,2,70,0,0
159035,-100,4,2,2,70,0,0
159253,-100,4,1,2,70,0,0
176101,-100,4,1,2,70,0,1
178166,-100,4,2,2,70,0,1
178383,-100,4,1,2,70,0,1
196753,-100,4,1,2,70,0,0

[Colours]
Combo1 : 255,255,91
Combo2 : 0,145,145
Combo3 : 0,155,78
Combo4 : 255,34,34
Combo5 : 177,100,255

[HitObjects]
256,192,12622,12,8,13927
256,192,14362,5,4
176,160,14579,2,0,B|200:72|328:80|343:176,2,220
256,192,15666,6,0,B|256:248,2,55,8|0|0
256,104,16101,1,0
320,240,16318,1,0
192,304,16535,1,8
256,104,16753,2,0,B|256:192|256:192|208:224|192:304,1,220
128,248,17405,2,0,B|136:216|152:192,1,55,8|0
176,160,17622,1,0
256,192,17840,5,0
128,248,18057,1,0
256,312,18275,1,8
344,192,18492,2,0,B|328:120|264:104|264:104|264:48|224:24,1,220
176,96,19144,1,8
256,192,19579,5,2
256,192,20014,1,2
256,192,20448,1,2
360,292,20666,5,0
360,172,20883,53,8
456,84,21101,5,0
360,172,21318,1,0
256,80,21535,2,0,B|256:192,1,110,0|8
184,144,21970,2,0,B|184:256,1,110
112,192,22405,2,0,B|112:304,1,110,0|8
112,302,22731,1,0
112,302,22840,1,0
228,260,23057,5,0
184,144,23275,1,0
248,32,23492,1,8
368,64,23709,2,0,B|328:152|392:224|488:200,1,220,0|0
440,120,24362,1,8
440,120,24470,1,0
440,120,24579,5,0
368,64,24796,2,0,B|256:64,1,110
304,144,25231,1,8
304,144,25448,2,0,B|184:144,1,110
240,224,25883,2,0,B|120:224,1,110,0|8
344,320,26535,5,0
392,64,26970,1,0
144,152,27405,1,2
228,127,27622,1,2
311,97,27840,1,2
392,64,28057,1,2
392,64,28275,6,0,B|416:152|352:216|272:216,1,220,0|8
208,160,28927,2,0,B|184:72|248:8|328:8,1,220
311,98,29579,1,8
208,160,30014,6,0,B|272:232|232:320|136:320,1,220,0|8
152,232,30666,1,0
208,160,30883,1,0
280,112,31101,1,0
368,96,31318,2,0,B|362:189|268:216|208:160,1,220,8|0
344,288,32188,5,8
432,288,32405,2,0,B|416:208|336:200|336:200|392:136,1,220
440,72,33057,1,8
352,72,33275,1,0
352,72,33492,2,0,B|288:80|264:136,1,110
265,220,33927,2,0,B|329:212|353:156,1,110,8|0
152,240,34579,5,0
128,328,34796,2,0,B|56:296|40:193|128:150,1,220,8|0
208,168,35448,1,0
152,240,35666,1,8
121,154,35883,2,0,B|121:44,1,110
256,48,36318,5,0
256,48,36535,2,0,B|336:48|400:112|408:192,1,220,8|0
320,192,37188,1,0
256,136,37405,1,8
168,120,37622,2,0,B|168:200|232:264|312:272,1,220
320,192,38275,5,8
392,248,38492,1,0
304,272,38709,2,0,B|225:252|200:208,1,110
208,220,39035,1,0
240,336,39362,6,0,B|168:304|136:256,1,110
112,192,39796,1,0
112,192,39905,1,0
272,48,40231,6,0,B|344:80|376:128,1,110
400,192,40666,1,0
400,192,40775,1,0
256,312,41101,5,0
136,252,41318,1,0
200,136,41535,1,0
320,200,41753,2,0,B|216:232,1,110,8|0
256,312,42188,6,2,B|132:328|80:188,1,220,2|10
152,144,42840,2,0,B|256:112,1,110
320,56,43275,1,0
384,116,43492,2,0,B|384:228,1,110,8|0
256,184,43927,6,2,B|256:128|224:77|152:72,1,165
24,76,44579,1,2
104,144,44796,2,2,B|104:200|136:251|208:256,1,165
104,144,45448,1,2
176,96,45666,2,2,B|224:176|224:224|168:320,1,220,2|10
256,344,46318,1,0
336,304,46535,6,0,B|288:224|288:176|344:80,2,220,0|8|0
400,240,47622,1,0
336,304,47840,1,8
400,240,48057,2,0,B|464:144,1,110
376,112,48492,2,0,B|440:16,2,110,0|8|0
288,96,49144,6,2,B|216:80|136:100|78:159,1,220,2|10
152,192,49796,2,0,B|216:216|256:160,1,110
376,208,50231,2,0,B|312:200|272:264,1,110,0|8
440,88,50666,2,0,B|400:136|320:128,1,110,0|2
256,32,51209,5,2
256,32,51535,1,2
256,32,51753,1,2
256,188,52079,1,2
256,344,52405,1,2
256,344,52622,1,2
432,344,53057,5,8
384,272,53275,1,0
308,224,53492,1,0
224,192,53709,1,0
140,176,53927,1,8
256,40,54362,5,0
432,40,54796,1,8
384,112,55014,1,0
304,152,55231,1,0
224,192,55448,2,0,B|168:212,2,55,0|0|8
460,352,56101,6,0,B|364:272,1,110,4|0
252,280,56535,2,0,B|340:352,2,110,8|0|0
228,160,57188,2,0,B|324:240,1,110,0|8
312,230,57514,1,0
312,230,57622,1,0
176,216,57840,6,0,B|88:144,2,110,4|0|8
144,88,58492,2,0,B|236:162|236:162|244:34|372:18,1,330,0|8
365,18,59253,1,0
365,18,59362,1,0
256,336,59796,5,0
320,232,60014,1,8
200,200,60231,1,0
320,152,60448,1,0
200,120,60666,1,0
256,8,60883,1,8
368,336,61318,6,0,B|304:336|248:336,1,110
258,336,61753,1,8
304,264,61970,2,0,B|216:200,1,110
215,199,62405,1,0
300,176,62622,2,0,B|300:64,1,110,8|0
300,176,63057,5,4
216,200,63275,1,0
128,200,63492,1,8
128,200,63709,2,0,B|64:200|40:128,1,110
108,80,64144,1,0
192,80,64362,1,8
200,80,64470,1,0
208,80,64579,2,0,B|320:80,1,110,0|4
128,160,65014,6,0,B|240:160,1,110,0|8
208,240,65448,2,0,B|320:240,2,110
120,240,66101,1,8
120,240,66209,1,0
120,240,66318,1,0
208,240,66535,1,4
160,312,66753,6,0,B|232:352|320:280|280:200,1,220
368,200,67405,1,0
320,128,67622,1,0
240,88,67840,2,0,B|217:172|296:240|371:200,1,220,8|0
416,128,68492,1,0
424,40,68709,2,0,B|339:43|299:140|372:204,1,220,8|0
366,198,69253,1,0
366,198,69362,1,0
364,288,69579,6,0,B|480:288,2,110,8|0|4
276,288,70231,2,0,B|276:156|188:80,1,220
108,88,70883,2,0,B|108:32,2,55
108,180,71318,5,8
108,188,71427,1,0
108,196,71535,2,0,B|108:252|108:312,1,110
196,304,71970,2,0,B|268:304|284:232,1,110,0|8
276,160,72405,2,0,B|204:160|188:232,1,110,0|0
193,217,72731,1,0
193,218,72840,1,0
279,247,73057,2,0,B|335:247,2,55,8|0|0
276,160,73492,5,0
196,128,73709,1,0
116,88,73927,1,8
36,56,74144,2,0,B|36:184|132:136|132:264,1,220
200,304,74796,1,8
256,56,75231,5,2
400,304,75666,1,2
112,304,76101,1,2
200,304,76318,5,0
200,304,76535,2,0,B|256:256|224:176|224:176|280:104,1,220,8|0
312,192,77188,1,0
272,112,77405,1,8
184,112,77622,2,0,B|128:112|96:176,1,110
98,171,77948,1,0
98,171,78057,1,0
184,200,78275,2,0,B|184:272,2,55,8|0|0
264,240,78709,5,0
184,200,78927,1,0
264,240,79144,1,8
256,152,79362,2,0,B|296:80|407:86|442:157,1,220
384,224,80014,1,8
336,296,80231,5,2
256,336,80448,2,0,B|256:224,2,110,0|0|8
176,296,81101,2,0,B|176:184,2,110,2|0|0
256,336,81753,1,8
344,336,81970,5,2
344,336,82188,2,0,B|416:288|260:196|344:136,1,220,0|8
424,112,82840,1,0
408,200,83057,1,0
340,140,83275,1,0
424,112,83492,2,0,B|488:124|500:200,1,110,8|0
408,200,83927,1,4
160,80,90883,6,0,B|216:16|296:16|352:82,1,220,0|8
300,152,91535,1,0
300,152,91970,1,0
212,152,92188,1,8
208,288,92622,6,2,B|128:340|36:340,2,165
304,288,93492,2,2,B|384:236|476:236,2,165
256,192,94362,12,0,97840
352,240,98275,6,0,B|168:104,1,220,8|0
256,80,98927,1,0
328,136,99144,2,0,B|424:208,2,110,8|0|2
256,24,99905,5,2
182,133,100231,2,2,B|86:205,1,110
256,216,100775,1,2
256,216,101101,1,2
256,304,101318,1,2
256,304,101535,6,0,B|328:296|344:216,1,110,0|8
424,240,101970,1,0
377,164,102188,1,0
337,242,102405,2,0,B|352:312|426:331,1,110,0|8
424,240,102840,2,0,B|412:160|354:106|260:104,2,220
336,232,103927,1,0
256,200,104144,1,0
176,168,104362,1,8
256,324,104796,1,4
256,192,118709,5,0
399,292,119144,2,0,B|395:164|251:348|256:172,1,220
257,181,119688,1,0
257,172,119796,1,0
256,80,120014,2,0,B|256:16,2,55
256,80,120448,5,4
368,128,120666,2,2,B|432:136|456:200,1,110,2|8
452,278,121101,2,2,B|332:270|276:150,1,220
368,128,121753,2,0,B|424:128,1,55,8|0
468,128,121970,1,0
424,40,122188,6,0,B|304:40,1,110,4|0
256,112,122622,2,0,B|192:112|168:184,1,110,8|0
224,248,123057,2,0,B|288:248|312:176,1,110,0|0
256,112,123492,2,0,B|144:112,2,110,8|0|0
368,112,124144,6,0,B|416:176|416:256|360:320,2,220
320,32,125231,2,0,B|272:96|272:176|328:240,1,220,8|2
403,216,125883,2,0,B|401:148|363:107,1,110,0|8
286,133,126318,2,0,B|290:204|327:238,1,110,0|2
322,234,126753,1,0
272,304,126970,2,2,B|213:256|192:176|200:96,1,220,8|4
112,104,127622,6,2,B|176:8,1,110,2|8
138,199,128057,2,2,B|202:103,1,110
167,292,128492,2,2,B|231:196,1,110,2|8
228,200,128818,1,2
228,200,128927,1,2
328,168,129144,5,4
400,112,129362,2,0,B|400:224,1,110,0|8
328,168,129796,2,0,B|328:112|272:80,1,110
352,32,130231,1,0
352,32,130448,2,0,B|400:72|414:136|414:136|472:168|488:208,2,220,8|0|8
264,32,131535,6,0,B|152:32,1,110
192,112,131970,1,0
216,200,132188,1,8
192,112,132405,2,2,B|106:141|112:256|192:288,1,220
216,200,133057,1,8
136,160,133275,2,2,B|50:189|56:304|136:336,1,220
160,248,133927,5,8
136,160,134144,1,0
112,72,134362,1,4
196,92,134579,1,0
280,116,134796,2,0,B|248:228|336:320,2,220,8|0|8
196,140,135883,6,0,B|164:252|252:344,1,220
300,272,136535,2,0,B|269:226|272:165,2,110,8|0|0
300,272,137079,1,0
300,272,137188,1,0
356,204,137405,2,0,B|420:204,2,55,8|0|0
356,204,137840,5,0
356,116,138057,2,0,B|420:20,1,110,0|8
260,112,138492,2,0,B|324:16,1,110
164,108,138927,2,0,B|228:12,1,110,0|8
72,192,139579,5,2
444,192,140014,1,2
72,192,140448,1,2
448,104,140666,6,0,B|336:104,1,110,0|8
348,192,141101,2,0,B|224:192,1,110,0|4
256,280,141535,2,0,B|172:280|172:280|132:212|68:192,1,220
71,104,142188,2,0,B|131:104,2,55
72,192,142622,1,8
132,256,142840,6,0,B|200:364|336:328,2,220
192,192,143927,1,0
212,192,144035,1,0
232,192,144144,2,0,B|348:192,1,110,0|8
368,108,144579,6,0,B|252:108,2,110
400,192,145231,1,8
368,276,145448,2,0,B|252:276,2,110
400,192,146101,1,8
312,192,146318,5,0
256,124,146535,2,0,B|248:224|172:316|172:316|172:228|128:208,1,330
80,280,147405,1,0
80,280,147622,1,0
80,280,147840,1,8
82,117,148275,6,0,B|122:38|228:44|258:125,1,220,0|2
256,128,148818,1,0
256,136,148927,1,0
256,144,149035,1,0
256,152,149144,1,0
256,160,149253,1,0
256,168,149362,1,0
256,176,149470,1,0
256,184,149579,1,2
344,192,149796,5,0
256,320,150014,1,0
176,192,150231,1,0
88,320,150448,1,2
4,192,150666,1,0
88,64,150883,2,0,B|88:136,4,55,0|0|0|0|2
88,64,151535,1,0
176,64,151753,5,0
200,64,151862,1,0
224,64,151970,1,0
248,64,152079,1,0
268,64,152188,1,2
356,64,152405,1,0
436,108,152622,1,0
436,120,152731,1,0
436,132,152840,1,0
436,144,152948,1,0
436,156,153057,1,2
344,168,153275,6,0,B|320:248|248:288|160:272,1,220
80,256,153927,2,0,B|101:196|160:184,1,110,2|0
173,275,154362,2,0,B|238:280|282:252,1,110
216,352,154796,2,0,B|280:352|352:304|352:304|432:304,1,220,2|0
424,216,155448,5,0
424,216,155666,1,2
338,193,155883,2,0,B|306:105|187:104|162:225,1,220
256,216,156535,1,2
256,326,156753,6,0,B|256:214,1,110
300,140,157188,1,0
213,140,157405,1,2
155,73,157622,2,0,B|203:20|317:24|359:78,1,220
300,140,158275,1,2
240,208,158492,6,0,B|288:261|402:257|444:203,2,220
301,140,159579,2,0,B|216:72,1,110
192,152,160014,2,0,B|96:80,1,110,2|0
80,172,160448,2,0,B|168:236|168:236|184:308|120:348,1,220,0|2
76,272,161101,1,0
424,192,162188,5,4
352,112,163927,5,4
256,56,165666,5,4
160,112,167405,5,4
88,192,169144,5,8
256,240,169579,1,8
208,72,170014,2,0,B|272:72|304:120,1,110,8|0
224,160,170448,2,0,B|147:185|148:304|226:332,2,220,0|8|8
248,244,171535,6,0,B|360:244,1,110,0|8
224,160,171970,2,0,B|336:160,1,110
256,64,172622,5,8
256,64,173057,1,8
256,64,173492,1,8
168,64,173709,1,0
208,144,173927,2,0,B|336:176|336:312,1,220
256,336,174579,6,0,B|264:256|216:232,1,110,8|8
312,216,175014,2,0,B|280:160|208:144,1,110,0|8
220,145,175340,1,0
212,143,175448,1,8
120,144,175666,1,8
72,220,175883,1,0
120,144,176101,6,0,B|48:48,1,110,4|0
8,136,176535,2,0,B|144:312,1,220,2|0
142,310,177079,1,0
142,310,177188,1,0
232,312,177405,1,2
232,312,177622,6,0,B|312:336|385:267|354:176,2,220
280,232,178709,1,0
232,312,178927,2,0,B|184:256,2,55,0|0|2
280,232,179362,1,0
312,144,179579,5,4
312,144,179796,2,0,B|296:80|216:88,1,110,0|2
184,160,180231,2,0,B|200:224|280:216,1,110,0|0
328,120,180666,2,0,B|312:56|232:64,1,110,0|2
128,152,181101,2,0,B|168:272|304:264,1,220
256,184,181753,1,2
296,264,181970,1,0
368,312,182188,2,0,B|400:248|354:195,1,110
296,264,182622,2,0,B|256:208|298:148,1,110,2|0
368,208,183057,6,0,B|400:144|354:91,1,110
291,161,183492,1,2
290,162,183709,1,0
256,80,183927,2,0,B|192:8|88:140|40:64,2,220,0|2|0
224,160,185014,1,0
224,160,185231,2,0,B|184:272,2,110,2|0|0
296,216,185883,2,0,B|256:328,2,110,0|2|0
384,192,186535,5,0
320,128,186753,1,0
296,216,186970,1,2
232,152,187188,1,0
256,64,187405,2,0,B|144:64,1,110
232,152,187840,2,0,B|344:152,1,110,2|0
256,336,188275,5,4
256,64,188709,1,4
256,336,189144,1,4
256,248,189362,1,0
168,248,189579,2,0,B|128:128|232:48,2,220,2|0|2
248,216,190666,2,0,B|224:151|296:112,1,110
287,116,190992,1,0
293,112,191101,1,0
375,79,191318,6,0,B|415:199|311:279,1,220,2|0
248,216,191970,1,0
184,272,192188,1,2
248,216,192405,1,0
160,192,192622,1,0
160,192,192731,1,0
160,192,192840,2,0,B|160:136|104:88,1,110,0|2
184,32,193275,6,0,B|312:32,2,110
328,352,194144,2,0,B|200:352,2,110
256,32,195014,1,0
256,192,195231,1,0
256,352,195448,2,0,B|200:256,1,110,0|2
256,192,195883,2,0,B|312:96,1,110,0|4
424,192,196318,5,2
256,32,196536,1,4
88,192,196753,1,0
