osu file format v9

[General]
AudioFilename: A Rainbow.mp3
AudioLeadIn: 0
PreviewTime: 56014
Countdown: 0
SampleSet: Normal
StackLeniency: 0.5
Mode: 0
LetterboxInBreaks: 1

[Editor]
Bookmarks: 32188,40253
DistanceSpacing: 0.8
BeatDivisor: 4
GridSize: 4

[Metadata]
Title:A
Artist:Rainbow
Creator:kazumikos
Version:Soft
Source:
Tags:Hangul

[Difficulty]
HPDrainRate:4
CircleSize:3
OverallDifficulty:2
ApproachRate:3
SliderMultiplier:1.3
SliderTickRate:2

[Events]
//Background and Video events
0,0,"background.jpg"
//Break Periods
2,84127,89443
2,104996,117269
//Storyboard Layer 0 (Background)
//Storyboard Layer 1 (Fail)
//Storyboard Layer 2 (Pass)
//Storyboard Layer 3 (Foreground)
//Storyboard Sound Samples
//Background Colour Transformations
3,100,255,240,255

[TimingPoints]
449,434.782608695652,4,1,1,80,1,0
52948,-100,4,2,1,80,0,0
53166,-100,4,1,1,80,0,0
53818,-100,4,2,1,80,0,0
54035,-100,4,1,1,80,0,0
56101,-100,4,1,1,80,0,1
56209,-100,4,1,1,80,0,0
63057,-100,4,1,1,80,0,1
63166,-100,4,1,1,80,0,0
65992,-100,4,2,1,80,0,0
66209,-100,4,1,1,80,0,0
66862,-100,4,2,1,80,0,0
67079,-100,4,1,1,80,0,0
101644,-100,4,2,1,80,0,0
101862,-100,4,1,1,80,0,0
118818,-100,4,1,1,10,0,0
119470,-100,4,1,1,80,0,0
120448,-100,4,1,1,80,0,1
120557,-100,4,1,1,80,0,0
127405,-100,4,1,1,80,0,1
127514,-100,4,1,1,80,0,0
137296,-100,4,2,1,80,0,0
137514,-100,4,1,1,80,0,0
146862,-100,4,2,1,80,0,0
147079,-100,4,1,1,80,0,0
148275,-100,4,1,2,80,0,1
148383,-100,4,1,2,80,0,0
148601,-100,4,2,2,80,0,0
148818,-100,4,1,2,80,0,0
150340,-100,4,2,2,80,0,0
150557,-100,4,1,2,80,0,0
156427,-100,4,2,2,80,0,0
156644,-100,4,1,2,80,0,0
158166,-100,4,2,2,80,0,0
158383,-100,4,1,2,80,0,0
174035,-100,4,1,2,55,0,0
176101,-100,4,1,2,80,0,1
180775,-100,4,2,2,80,0,1
180992,-100,4,1,2,80,0,1
182514,-100,4,2,2,80,0,1
182731,-100,4,1,2,80,0,1
195557,-100,4,2,2,80,0,1
195775,-100,4,1,2,80,0,1
196753,-100,4,1,2,80,0,0

[Colours]
Combo1 : 255,255,91
Combo2 : 0,145,145
Combo3 : 0,155,78
Combo4 : 255,34,34
Combo5 : 177,100,255

[HitObjects]
256,192,14362,5,4
152,192,14796,2,0,B|80:192,1,65,8|0
56,40,15666,6,0,B|80:110|160:112,1,130,8|0
256,112,16535,1,8
312,112,16753,1,0
136,304,17840,6,0,B|216:304|240:224,1,130,0|8
256,184,18492,2,0,B|280:64|400:48,1,195,0|8
352,152,19579,5,2
256,184,20014,1,2
256,288,20448,1,2
168,336,20883,2,0,B|32:336,2,130,8|4|8
224,336,21970,1,0
440,192,23057,6,0,B|312:192,1,130,0|8
256,192,23709,1,0
48,192,24579,6,0,B|112:192,2,65
104,104,25448,2,0,B|176:104,2,65
376,104,26535,2,0,B|376:168|360:192|224:176|200:200|208:280,1,260
32,192,28275,5,0
80,100,28709,2,0,B|180:128|180:268|72:288,1,260,8|8
32,192,30014,1,0
80,100,30448,2,0,B|192:12|328:52,1,260,8|8
272,144,31753,5,0
216,232,32188,2,0,B|364:271|468:175,1,260,8|8
376,120,33492,1,0
272,144,33927,1,8
256,352,34796,6,0,B|144:280,1,130,8|0
192,192,35666,1,8
192,192,35883,1,0
256,112,36318,1,0
304,112,36535,2,0,B|448:112,2,130,8|0|8
304,164,37622,1,0
152,192,38275,5,8
152,192,38709,1,0
312,328,39579,1,0
448,176,40448,1,0
288,40,41318,1,0
288,40,41753,1,8
256,192,42188,12,4,45666
256,72,46318,6,0,B|368:72|424:176,1,195,0|8
408,276,47405,2,0,B|272:276,1,130,0|8
256,324,48057,2,0,B|124:324,1,130
72,324,48709,1,8
36,228,49144,5,0
136,192,49579,2,0,B|224:192,1,65,8|0
256,280,50231,2,0,B|320:280,1,65,0|8
376,192,50883,5,2
328,96,51318,1,8
256,168,51753,1,2
184,96,52188,1,8
136,192,52622,2,0,B|176:344|352:328,2,260,2|0|0
344,192,55231,1,0
136,192,56101,5,4
240,192,56535,2,0,B|240:120|304:72,1,130,8|0
347,79,57188,1,0
347,79,57405,1,8
448,72,57840,6,0,B|448:152|368:184,1,130,4|8
383,280,58709,2,0,B|383:344,2,65,0|0|8
278,280,59579,5,4
224,192,60014,2,0,B|88:192,2,130,8|0|8
268,100,61318,1,0
372,100,61753,1,8
320,192,62188,1,0
372,284,62622,1,8
268,284,63057,6,0,B|140:252,1,130,4|8
220,184,63927,2,0,B|81:150,1,130,0|8
168,88,64796,5,4
256,32,65231,1,8
344,88,65666,2,0,B|344:168|320:176|216:176|192:184|192:264,2,260,0|4|0
448,88,67840,1,8
472,192,68275,1,0
448,88,68709,2,0,B|424:16|336:16,2,130,8|0|8
352,128,70014,5,0
352,232,70448,2,0,B|352:296,1,65,8|4
184,344,71318,6,0,B|48:288|48:120,1,260,8|8
48,88,72405,1,4
312,88,73492,5,0
416,88,73927,2,0,B|416:160,1,65,8|0
160,192,75231,5,2
256,240,75666,1,2
352,192,76101,1,2
256,240,76535,2,0,B|256:368,2,130,8|0|8
256,184,77622,1,4
408,40,78492,6,0,B|472:40,4,65,0|0|0|8|4
256,184,80231,2,0,B|276:244,2,65,2|0|0
360,184,81101,2,0,B|340:124,2,65,2|0|0
256,192,81970,12,4,83927
256,192,90883,12,0,94362
168,216,95014,2,0,B|236:216|260:132,1,130
304,164,95666,2,0,B|304:300,2,130,8|0|8
304,112,96753,1,0
200,112,97188,2,0,B|112:112,1,65,0|8
100,212,97840,5,0
64,308,98275,2,0,B|200:308,1,130,8|2
248,308,98927,2,0,B|320:308,1,65,0|8
416,308,99579,6,0,B|415:229|324:203,1,130,2|8
304,112,100448,2,0,B|226:129|208:216,1,130,2|8
112,168,101318,2,0,B|152:48|256:20,1,195,2|0
256,192,102622,5,8
360,192,103057,2,0,B|488:192,2,130,0|8|0
308,100,104362,1,8
204,100,104796,1,4
160,192,118709,6,0,B|184:276|256:276|328:276|352:192,2,260,0|0|4
256,152,120883,1,8
256,48,121318,1,0
344,104,121753,2,0,B|424:104,2,65,8|0|0
256,48,122622,5,8
256,152,123057,1,0
168,104,123492,2,0,B|88:104,2,65,8|0|0
256,152,124362,5,8
304,244,124796,1,0
348,336,125231,1,8
392,244,125666,2,0,B|392:172,2,65,0|0|8
444,244,126318,2,0,B|444:316,3,65,0|0|0|8
334,275,127405,5,4
256,340,127840,2,0,B|128:284,1,130,8|0
112,176,128709,2,0,B|260:152|336:276,1,260,8|8
256,340,130014,1,0
172,276,130448,2,0,B|252:156|404:180,1,260,8|8
480,104,131753,5,0
376,72,132188,2,0,B|261:69|174:129,1,195,8|0
245,206,133275,2,0,B|309:174|382:173,1,130
420,172,133927,1,8
416,276,134362,5,0
320,316,134796,2,0,B|244:316,1,65,8|4
96,192,135666,6,0,B|96:52,2,130,8|0|8
144,212,136753,2,0,B|224:40|428:76,1,325,4|0
340,152,138275,6,0,B|416:152,1,65,8|0
340,236,138927,1,0
340,236,139144,1,8
256,300,139579,5,2
164,348,140014,1,2
112,260,140448,1,2
204,212,140883,1,2
256,300,141318,5,0
360,300,141753,1,8
396,264,141970,2,0,B|480:184|424:72,1,195,4|8
360,164,143057,5,0
256,164,143492,1,8
256,164,143709,1,4
168,216,144144,1,0
100,296,144579,6,0,B|240:296,1,130,2|0
168,216,145448,2,0,B|300:216,1,130,2|0
400,192,146318,2,0,B|368:80|228:28|120:100,1,325,2|0
80,240,148275,6,0,B|40:216|-32:256|-8:352|104:368|168:304|160:240|224:160,1,390,0|2
251,115,149796,2,0,B|284:62|332:30|372:30|396:62|364:166|300:254|348:342|396:342|476:326|460:278,1,455,0|2
448,200,151753,5,0
448,96,152188,1,2
448,200,152622,2,0,B|400:176|344:224|296:184,1,130,0|2
256,280,153492,5,0
152,280,153927,2,0,B|16:280,2,130,2|0|2
152,176,155231,5,0
256,176,155666,1,2
256,128,155883,2,0,B|256:32|368:-8|480:32|480:144,1,325
416,208,157405,5,2
416,256,157622,2,0,B|416:352|304:392|192:352|192:240,1,325
192,160,159144,6,0,B|192:88,1,65,2|0
352,96,160014,1,2
272,160,160448,1,0
192,96,160883,2,0,B|120:96,1,65,2|0
204,232,161753,1,0
256,320,162188,5,4
424,192,163927,5,4
256,64,165666,5,4
88,192,167405,5,4
376,96,169144,5,8
376,96,169579,1,8
376,96,170014,1,8
136,288,170883,5,8
136,288,171318,1,8
136,288,171753,1,8
256,192,172622,5,8
256,192,173057,1,8
256,192,173492,1,8
256,36,174144,6,0,B|217:67|160:1|124:47,1,130
72,124,175014,2,0,B|111:93|168:159|204:113,1,130
256,264,176101,5,4
256,160,176535,1,2
151,160,176970,2,0,B|71:160|47:256,1,130,0|2
156,260,177840,5,4
248,308,178275,1,2
351,308,178709,1,0
248,308,179144,2,0,B|248:228|344:204,2,130,2|4|2
352,308,180448,6,0,B|472:284|472:164,1,195
471,71,181535,1,0
366,71,181970,2,0,B|302:71|230:71,2,130
256,192,183057,12,4,187188
256,240,188275,5,4
256,136,188709,1,4
256,240,189144,1,4
256,136,189579,1,4
256,240,190014,1,0
168,192,190448,2,0,B|96:192,1,65,2|4
168,48,191318,5,2
272,48,191753,2,0,B|344:48|384:120,1,130,0|2
392,160,192405,1,4
136,192,193492,5,0
320,296,194362,1,0
320,88,195231,2,0,B|232:29|102:67|64:200|128:288,1,390,0|2
152,328,196753,1,4
