osu file format v9

[General]
AudioFilename: A Rainbow.mp3
AudioLeadIn: 0
PreviewTime: 56014
Countdown: 0
SampleSet: Normal
StackLeniency: 0.5
Mode: 0
LetterboxInBreaks: 1

[Editor]
Bookmarks: 7840,8275,8492,8927,9579,10014,10231,10666,11318,11753,11970,12405,40253
DistanceSpacing: 0.8
BeatDivisor: 4
GridSize: 4

[Metadata]
Title:A
Artist:Rainbow
Creator:kazumikos
Version:Advanced
Source:
Tags:Hangul

[Difficulty]
HPDrainRate:5
CircleSize:4
OverallDifficulty:6
ApproachRate:5
SliderMultiplier:1.8
SliderTickRate:2

[Events]
//Background and Video events
0,0,"background.jpg"
//Break Periods
2,84127,89683
2,104996,117509
//Storyboard Layer 0 (Background)
//Storyboard Layer 1 (Fail)
//Storyboard Layer 2 (Pass)
//Storyboard Layer 3 (Foreground)
//Storyboard Sound Samples
//Background Colour Transformations
3,100,255,240,255

[TimingPoints]
449,434.782608695652,4,1,1,80,1,0
26862,-100,4,2,1,80,0,0
27079,-100,4,1,1,80,0,0
27731,-100,4,2,1,80,0,0
27948,-100,4,1,1,80,0,0
29470,-100,4,2,1,80,0,0
29688,-100,4,1,1,80,0,0
40014,-100,4,2,1,80,0,0
40122,-100,4,1,1,80,0,0
40883,-100,4,2,1,80,0,0
40992,-100,4,1,1,80,0,0
53818,-100,4,2,1,80,0,0
54035,-100,4,1,1,80,0,0
56101,-100,4,1,1,80,0,1
56209,-100,4,1,1,80,0,0
68601,-100,4,2,1,80,0,0
68818,-100,4,1,1,80,0,0
72948,-100,4,2,1,80,0,0
73166,-100,4,1,1,80,0,0
78166,-100,4,2,1,80,0,0
78383,-100,4,1,1,80,0,0
98166,-100,4,2,1,80,0,0
98383,-100,4,1,1,80,0,0
120448,-100,4,1,1,80,0,1
120557,-100,4,1,1,80,0,0
148275,-100,4,1,2,80,0,1
148383,-100,4,1,2,80,0,0
148601,-100,4,2,2,80,0,0
148818,-100,4,1,2,80,0,0
150340,-100,4,2,2,80,0,0
150557,-100,4,1,2,80,0,0
176101,-100,4,1,2,80,0,1
179905,-100,4,2,2,80,0,1
180122,-100,4,1,2,80,0,1
181644,-100,4,2,2,80,0,1
181862,-100,4,1,2,80,0,1
185992,-100,4,2,2,80,0,1
186209,-100,4,1,2,80,0,1
193166,-100,4,1,1,80,0,1
193383,-100,4,1,2,80,0,1
194035,-100,4,1,1,80,0,1
194253,-100,4,1,2,80,0,1
196753,-100,4,1,2,80,0,0

[Colours]
Combo1 : 255,255,91
Combo2 : 0,145,145
Combo3 : 0,155,78
Combo4 : 255,34,34
Combo5 : 177,100,255

[HitObjects]
256,192,12622,12,4,14362
328,88,14796,6,0,B|176:184,1,180,8|0
176,328,15666,2,0,B|336:224,2,180,8|0|8
104,328,16753,1,0
104,136,17188,5,0
104,136,17405,1,8
280,72,17840,2,0,B|236:176|352:240,1,180,0|8
384,180,18492,2,0,B|304:108|192:136|176:256,1,270,0|8
384,180,19579,5,2
256,344,20014,1,2
304,144,20448,1,2
360,344,20883,1,2
304,144,21318,6,0,B|272:40|151:81,2,180,4|8|0
176,248,22622,1,8
216,304,22840,2,0,B|328:304,1,90
368,272,23275,1,0
424,228,23492,1,8
456,164,23709,1,0
256,48,24579,6,0,B|256:152,2,90,2|0|0
96,192,25448,2,0,B|208:192,2,90,2|0|0
256,336,26318,2,0,B|352:336,1,90,2|0
416,336,26753,2,0,B|420:244|360:160|256:148,2,270
344,328,28275,6,0,B|256:272,1,90
208,240,28709,1,8
144,200,28927,2,0,B|128:312|16:296,2,180
200,160,30014,5,0
200,88,30231,2,0,B|256:88|272:144,1,90,0|8
200,160,30666,1,0
352,344,31318,5,8
284,316,31535,1,0
344,272,31753,2,0,B|432:232|440:128,1,180,0|8
440,56,32405,1,0
304,216,33057,5,8
304,216,33275,1,0
232,216,33492,1,0
184,160,33709,2,0,B|88:160,2,90,0|8|0
256,64,34579,5,0
256,64,34796,2,0,B|256:152|344:128|344:224,1,180,8|0
396,264,35448,1,0
416,192,35666,2,0,B|412:146|376:110,1,90,8|0
256,312,36318,5,0
256,312,36535,2,0,B|152:312|192:240|96:240,1,180,8|0
48,192,37188,1,0
104,144,37405,1,8
104,144,37622,2,0,B|208:144|168:72|264:72,1,180
336,72,38275,5,8
384,128,38492,1,0
312,144,38709,2,0,B|312:288,1,135
232,208,39362,5,0
168,168,39579,2,0,B|176:88|96:56,2,135
104,208,40448,2,0,B|32:176|40:96,2,135
168,168,41318,5,0
104,208,41535,1,0
168,248,41753,1,8
232,208,41970,1,0
300,184,42188,2,0,B|356:96|460:124,1,180,0|8
448,192,42840,2,0,B|392:280|288:256,1,180
293,329,43492,1,8
220,204,43927,5,2
160,292,44253,1,2
120,192,44579,2,2,B|120:144|168:108,1,90
220,204,45122,1,2
288,120,45448,1,2
256,192,45666,12,0,48709
256,320,49144,1,0
312,192,49579,2,0,B|296:88,1,90,8|0
200,192,50231,2,0,B|216:88,1,90,0|8
120,208,50883,6,2,B|144:70,1,135
248,56,51535,1,2
210,125,51753,2,2,B|186:263,1,135
272,192,52405,1,2
272,192,52622,2,2,B|384:160|424:272,1,180,2|10
480,216,53275,2,0,B|480:112,1,90
408,104,53709,2,0,B|296:136|256:24,1,180
192,40,54362,6,0,B|88:40,2,90,0|0|8
192,40,55014,1,0
256,192,55448,2,0,B|256:240,2,45,0|0|8
112,312,56101,5,4
152,120,56535,2,0,B|252:168,1,90,8|0
304,160,56970,1,0
352,216,57188,1,0
352,216,57405,1,8
468,104,57840,6,0,B|460:224|316:216,1,180,4|8
304,160,58492,1,0
256,108,58709,2,0,B|172:164,1,90
156,228,59144,2,0,B|96:216|85:108|161:84,2,180,8|4|8
156,300,60231,5,0
227,300,60448,1,0
227,227,60666,1,0
256,160,60883,2,0,B|337:96|424:160,1,180,8|0
432,232,61535,2,0,B|377:320,1,90,0|8
344,228,61970,1,0
344,228,62188,2,0,B|289:316,1,90
296,304,62622,1,8
88,192,63057,5,4
136,136,63275,2,0,B|136:40,1,90,0|8
204,148,63709,2,0,B|252:60,1,90
248,200,64144,2,0,B|336:160,1,90,0|8
488,280,64796,6,0,B|312:360,1,180,4|8
296,288,65448,2,0,B|240:272|232:200,1,90
312,216,65883,1,0
312,216,66101,2,0,B|288:112|168:112,1,180,8|4
112,112,66753,5,0
144,176,66970,1,8
184,112,67188,1,0
224,48,67405,2,0,B|325:70|363:153,2,180,0|8|0
184,112,68492,2,0,B|292:118|316:221,2,180
112,112,69579,6,0,B|112:224,1,90,8|0
184,184,70014,2,0,B|184:296|296:320,1,180,4|8
284,244,70666,2,0,B|284:150,2,90
336,296,71318,6,0,B|384:296,2,45,8|0|0
360,224,71753,1,0
384,152,71970,1,0
408,80,72188,1,8
336,80,72405,2,0,B|336:152|432:152|432:240,2,180
263,80,73492,5,0
224,144,73709,1,0
224,144,73927,2,0,B|136:144,1,90,8|0
176,216,74362,1,0
176,216,74579,2,0,B|88:248,1,90,0|8
256,344,75231,5,2
464,272,75666,1,2
392,56,76101,1,2
184,128,76535,1,2
256,344,76970,5,4
320,304,77188,2,0,B|320:208,1,90,0|8
382,177,77622,2,0,B|454:263|380:347,2,180
320,216,78709,2,0,B|320:312,1,90
248,308,79144,1,8
248,236,79362,2,0,B|248:164|158:110|64:164|64:252,1,270,0|0
64,308,80231,5,2
136,308,80448,1,0
160,240,80666,1,0
208,104,81101,1,2
232,36,81318,1,0
303,36,81535,1,0
256,192,81970,12,4,83927
336,64,90883,6,0,B|448:88|440:216,1,180,0|8
384,240,91535,2,0,B|272:216|280:88,1,180
336,64,92188,1,8
168,64,92622,5,2
168,176,92948,1,2
80,264,93275,1,2
80,264,93492,1,2
168,328,93818,5,2
256,264,94144,1,2
256,264,94362,2,0,B|288:224|304:224|376:304|392:304|424:240,1,180,2|8
411,189,95014,2,0,B|384:88,1,90
328,144,95448,2,0,B|304:48,1,90,0|8
244,94,95883,6,0,B|220:-2,2,90
168,96,96535,1,8
168,96,96753,1,0
56,192,97188,1,0
56,192,97405,1,8
168,280,97840,6,0,B|266:356|416:320|480:184|427:69,1,450
430,76,99144,1,8
256,40,99579,5,2
160,96,99905,2,2,B|76:91|48:176,1,135
53,233,100448,2,2,B|137:238|165:153,1,135
256,112,101101,1,2
256,112,101318,1,2
392,304,101753,2,0,B|304:336,2,90,8|0|0
392,231,102405,2,0,B|288:267,2,90,0|8|0
392,160,103057,5,0
256,112,103492,1,8
256,112,103709,1,0
120,160,104144,1,0
120,160,104362,1,8
256,208,104796,1,4
256,80,118709,5,0
392,128,119144,2,0,B|287:161|320:272,1,180
256,296,119796,1,0
240,224,120014,2,0,B|240:120|344:64,1,180,0|4
144,120,120883,5,8
88,168,121101,1,0
88,239,121318,2,0,B|88:327,2,90,0|0|8
224,192,122188,6,0,B|288:192|320:288|392:272,1,180,4|8
376,200,122840,2,0,B|376:112,1,90
376,110,123275,1,0
376,110,123492,1,8
176,64,123927,6,0,B|80:64,1,90,4|0
86,136,124362,2,0,B|142:136|166:192,1,90,8|0
94,208,124796,2,0,B|118:256|182:256,1,90
230,216,125231,1,8
384,92,125666,6,0,B|288:92,2,90,0|0|8
384,164,126318,2,0,B|488:164,2,90
384,236,126970,1,8
256,184,127405,6,0,B|208:240|120:208|120:128,1,180,4|8
198,138,128057,2,0,B|246:82|334:114|334:194,1,180
256,184,128709,2,0,B|262:253|348:284|398:224,2,180,8|4|8
333,179,129796,2,0,B|365:91,3,90,0|0|0|8
256,48,130883,6,0,B|160:48,1,90,4|0
96,48,131318,1,8
120,120,131535,2,0,B|32:120,2,90
144,192,132188,1,8
168,264,132405,2,0,B|280:296|336:208,1,180
216,128,133275,1,0
168,264,133709,1,0
96,264,133927,5,8
56,204,134144,1,0
56,132,134362,2,0,B|220:44,1,180,4|8
256,108,135014,2,0,B|356:108|416:196,1,180
409,259,135666,1,8
280,192,136101,5,0
409,259,136535,2,0,B|320:260,1,90,8|0
192,192,137188,1,0
192,120,137405,2,0,B|248:32|376:52,2,180,8|0|8
119,120,138492,1,0
120,264,138927,1,0
120,264,139144,1,8
348,192,139579,5,2
132,60,140014,1,2
348,192,140448,1,2
176,360,140883,1,2
348,192,141318,5,0
204,192,141753,1,8
276,192,141970,2,0,B|276:104,2,90
276,264,142622,1,8
104,264,143057,5,0
104,264,143492,1,8
104,192,143709,1,0
372,84,144362,5,8
372,84,144579,2,0,B|276:40|207:124,1,180
244,260,145448,2,0,B|340:304|410:221,1,180
268,180,146318,1,0
268,180,146535,2,0,B|444:144,2,180,0|8|0
70,167,148275,6,0,B|70:31|255:-60|440:23|446:174,1,540,0|2
380,187,149796,6,0,B|380:91|256:36|132:91|132:195,1,360
201,208,150883,6,0,B|186:133|341:131|308:223,1,180,0|2
464,72,151753,6,0,B|376:72,2,90,0|0|2
440,144,152405,1,0
416,216,152622,2,0,B|224:216,1,180,0|2
236,143,153275,6,0,B|236:87|167:65,1,90
164,143,153709,2,0,B|108:143|86:212,1,90,0|2
164,217,154144,2,0,B|164:273|233:295,1,90
236,217,154579,2,0,B|292:217|314:148,1,90,0|2
448,192,155231,5,0
448,192,155448,1,0
448,120,155666,1,2
448,120,155883,2,0,B|368:56|280:120,1,180
210,118,156535,1,2
208,192,156753,5,0
208,192,156970,2,0,B|292:224,2,90,0|0|2
208,264,157622,2,0,B|396:337,1,180
376,328,158275,1,2
400,136,158709,5,0
344,88,158927,1,0
296,144,159144,1,2
352,192,159362,1,0
256,328,160014,6,0,B|168:288,1,90,2|0
224,232,160448,2,0,B|136:192,1,90
192,136,160883,2,0,B|104:96,1,90,2|0
256,192,162188,5,4
256,192,163927,5,4
256,40,165666,5,4
256,344,167405,5,4
52,192,169144,5,8
52,192,169579,1,8
52,192,170014,1,8
460,192,170883,5,8
460,192,171318,1,8
460,192,171753,1,8
172,188,172622,5,8
288,272,173057,1,8
156,332,173492,1,8
420,212,174362,1,4
196,32,175231,1,4
96,192,176101,6,0,B|108:304|232:296,2,180,4|2|0
96,120,177188,1,0
167,120,177405,2,0,B|279:132|271:256,1,180,2|0
340,219,178057,6,0,B|428:187,1,90,0|2
480,240,178492,2,0,B|392:272,1,90
383,348,178927,2,0,B|471:316,1,90,0|2
424,188,179579,6,0,B|432:92|328:20|232:76,1,270,4|0
280,136,180448,1,0
280,208,180666,1,0
280,136,180883,2,0,B|96:136,1,180,2|0
100,208,181535,2,0,B|208:208|240:312,2,180
100,135,182622,6,0,B|220:135|276:223,1,180,2|4
333,201,183275,2,0,B|357:153|421:153,2,90,0|2|0
176,48,184362,6,0,B|264:48,2,90,2|0|0
104,72,185014,1,0
104,144,185231,1,2
104,144,185448,2,0,B|288:144,2,180
48,192,186535,6,0,B|48:288,1,90
120,256,186970,2,0,B|120:312|183:332,1,90,2|0
192,256,187405,2,0,B|288:256,2,90
424,88,188275,5,4
160,136,188709,1,4
336,336,189144,1,4
424,88,189579,1,4
320,192,190014,5,0
320,192,190231,1,0
256,224,190448,1,2
256,224,190666,1,0
372,112,191101,6,0,B|372:64|328:40,1,90,0|2
256,40,191535,2,0,B|204:40|183:96,1,90
186,87,191970,1,0
256,112,192188,2,0,B|240:160|184:160,1,90,2|0
256,336,193275,6,0,B|256:248,1,90,2|0
256,246,193710,1,0
424,192,194144,2,0,B|336:192,1,90,2|0
334,192,194579,1,0
256,192,195014,12,4,196753
