osu file format v14

[General]
AudioFilename: Bi RainHip Song.mp3
AudioLeadIn: 0
PreviewTime: 47611
Countdown: 0
SampleSet: Soft
StackLeniency: 0.7
Mode: 0
LetterboxInBreaks: 0
WidescreenStoryboard: 0

[Editor]
DistanceSpacing: 1
BeatDivisor: 4
GridSize: 4
TimelineZoom: 1.8

[Metadata]
Title:Hip Song
TitleUnicode:Hip Song
Artist:Rain
ArtistUnicode:λΉ„
Creator:Irreversible
Version:Normal
Source:
Tags:Arphimigon This is rock tonight slow male jumpy intense jumps dtable back to basic Bi
BeatmapID:842420
BeatmapSetID:385185

[Difficulty]
HPDrainRate:3
CircleSize:3.5
OverallDifficulty:4
ApproachRate:4
SliderMultiplier:2.1
SliderTickRate:1

[Events]
//Background and Video events
0,0,"Anime-Guy-with-Blue-Hairs.jpg",0,0
//Break Periods
2,120374,139854
//Storyboard Layer 0 (Background)
//Storyboard Layer 1 (Fail)
//Storyboard Layer 2 (Pass)
//Storyboard Layer 3 (Foreground)
//Storyboard Sound Samples

[TimingPoints]
12174,750,4,2,1,70,1,0
48174,-100,4,2,1,80,0,1
72174,-100,4,2,1,70,0,0
96174,-100,4,2,1,80,0,1
120174,-100,4,2,1,70,0,0
144174,-83.3333333333333,4,2,1,80,0,1
168174,-100,4,2,1,70,0,0

[Colours]
Combo1 : 100,100,100
Combo2 : 255,255,66
Combo3 : 0,139,206
SliderBorder : 30,80,240
SliderTrackOverride : 145,145,145

[HitObjects]
60,304,24174,6,0,P|112:336|164:328,1,105,4|4,0:3|0:3,0:0:0:0:
244,280,24924,2,0,L|456:292,1,210,10|4,0:0|0:3,0:0:0:0:
360,104,26424,2,0,L|241:96,1,105,10|2,0:0|0:0,0:0:0:0:
164,44,27174,6,0,B|140:88|140:88|80:124,2,105,4|4|10,0:3|0:3|0:2,0:0:0:0:
316,192,28674,2,0,B|432:184,2,105,4|4|10,0:3|0:3|0:0,0:0:0:0:
256,280,29799,1,2,0:0:0:0:
180,216,30174,6,0,P|118:214|144:324,1,210,4|8,3:0|0:0,0:0:0:0:
332,216,31674,2,0,P|418:245|372:324,1,210,8|8,3:3|0:0,0:0:0:0:
268,296,32799,1,4,3:3:0:0:
180,352,33174,6,0,L|64:344,2,105,2|2|8,0:0|0:0|0:0,0:0:0:0:
132,148,34674,2,0,L|16:156,2,105,2|2|8,0:0|0:0|1:2,0:0:0:0:
220,196,35799,1,10,1:2:0:0:
300,136,36174,6,0,P|388:104|400:192,1,210,4|8,0:3|0:0,0:0:0:0:
448,288,37299,1,8,0:3:0:0:
364,352,37674,2,0,L|252:344,1,105,4|8,0:3|0:3,0:0:0:0:
156,372,38424,1,8,0:0:0:0:
52,188,39174,6,0,L|60:76,1,105,4|8,0:3|0:3,0:0:0:0:
160,56,39924,2,0,L|152:167,1,105,8|8,0:0|0:3,0:0:0:0:
252,196,40674,2,0,L|260:84,1,105,4|8,0:3|0:3,0:0:0:0:
360,64,41424,2,0,L|352:175,1,105,8|8,0:0|0:3,0:0:0:0:
428,244,42174,5,4,0:3:0:0:
344,308,42549,1,8,0:3:0:0:
442,349,42924,1,8,0:0:0:0:
304,192,43674,5,4,0:3:0:0:
216,132,44049,1,8,0:3:0:0:
140,204,44424,1,8,0:0:0:0:
40,176,44799,1,8,0:3:0:0:
32,72,45174,5,2,0:2:0:0:
256,192,45361,12,8,47424,1:2:0:0:
92,328,48174,6,0,L|224:320,1,105,6|2,1:2|3:0,0:0:0:0:
296,356,48924,2,0,L|288:224,1,105,2|0,1:1|3:0,0:0:0:0:
288,224,49486,2,0,P|344:248|404:236,1,105,2|4,0:0|0:3,0:0:0:0:
408,232,50049,1,4,3:0:0:0:
452,136,50424,1,10,0:0:0:0:
404,44,50799,1,0,0:0:0:0:
300,68,51174,6,0,L|216:64,1,52.5,0|0,1:0|0:0,0:0:0:0:
220,64,51549,1,2,3:0:0:0:
152,144,51924,2,0,B|176:192|176:192|152:304,2,157.5,4|4|4,0:0|3:0|3:0,0:0:0:0:
220,64,53424,1,10,0:0:0:0:
316,104,53799,1,2,0:0:0:0:
400,40,54174,6,0,P|468:60|413:151,1,210,0|8,1:0|1:2,0:0:0:0:
268,92,55486,2,0,L|88:104,1,157.5,8|4,3:0|3:0,0:0:0:0:
32,176,56424,2,0,P|24:240|48:288,1,105,8|2,0:0|3:0,0:0:0:0:
124,336,57174,5,8,3:0:0:0:
256,192,57361,12,8,59424,1:2:0:0:
392,64,60174,6,0,L|380:172,1,105,6|2,1:2|3:0,0:0:0:0:
420,264,60924,2,0,P|380:316|296:308,2,157.5,2|2|4,1:1|0:0|3:0,0:0:0:0:
380,168,62424,1,10,0:0:0:0:
408,68,62799,1,0,0:0:0:0:
316,16,63174,6,0,L|232:24,1,52.5,0|0,1:0|0:0,0:0:0:0:
235,23,63549,1,2,3:0:0:0:
152,88,63924,2,0,B|132:140|132:140|136:168|136:168|96:264,2,157.5,4|4|4,0:0|3:0|3:0,0:0:0:0:
235,23,65424,2,0,P|287:19|345:44,1,105,10|2,0:0|0:0,0:0:0:0:
388,128,66174,5,0,1:0:0:0:
304,192,66549,1,4,3:0:0:0:
388,256,66924,1,8,1:2:0:0:
256,340,67486,1,4,3:0:0:0:
124,256,68049,1,4,3:0:0:0:
156,156,68424,2,0,L|156:104,2,52.5,8|0|2,0:0|0:0|3:0,0:0:0:0:
256,192,69174,5,4,3:0:0:0:
256,192,69361,12,8,71424,1:2:0:0:
144,192,72174,6,0,L|32:192,2,105,0|2|8,3:0|0:0|0:0,0:0:0:0:
256,15,73674,2,0,L|256:120,2,105,0|2|8,3:0|0:0|0:0,0:0:0:0:
368,192,75174,6,0,L|480:192,2,105,0|2|8,3:0|0:0|0:0,0:0:0:0:
256,369,76674,2,0,L|256:264,2,105,0|2|8,3:0|0:0|0:0,0:0:0:0:
136,196,78174,6,0,P|168:144|216:172,1,105,4|0,3:0|0:0,0:0:0:0:
310,152,78924,2,0,P|359:149|376:195,1,105,8|0,3:0|0:0,0:0:0:0:
304,272,79674,2,0,L|312:384,1,105,4|2,3:0|0:0,0:0:0:0:
200,376,80424,2,0,L|208:272,1,105,8|0,0:0|0:0,0:0:0:0:
256,192,81174,12,0,83424,0:0:0:0:
152,348,84174,6,0,B|256:292|256:396|352:345,1,210,4|8,3:0|0:0,0:0:0:0:
420,268,85299,1,2,0:0:0:0:
352,188,85674,6,0,B|372:44|372:44|336:100,1,210,4|8,3:0|0:0,0:0:0:0:
256,36,86799,1,2,0:0:0:0:
174,98,87174,6,0,B|140:44|140:44|160:188,1,210,4|8,3:0|0:0,0:0:0:0:
92,272,88299,1,2,0:0:0:0:
152,356,88674,6,0,B|256:300|256:404|352:353,1,210,4|8,3:0|0:0,0:0:0:0:
420,276,89799,1,2,0:0:0:0:
356,192,90174,5,2,0:2:0:0:
256,192,90361,12,2,93174,0:0:0:0:
432,224,95424,5,8,1:2:0:0:
488,136,95799,1,8,1:2:0:0:
420,56,96174,6,0,L|288:64,1,105,6|2,1:2|3:0,0:0:0:0:
216,28,96924,2,0,L|224:160,1,105,2|0,1:1|3:0,0:0:0:0:
224,160,97486,2,0,P|168:136|108:148,1,105,2|4,0:0|0:3,0:0:0:0:
104,152,98049,1,4,3:0:0:0:
60,248,98424,1,10,0:0:0:0:
108,340,98799,1,0,0:0:0:0:
212,316,99174,6,0,L|296:320,1,52.5,0|0,1:0|0:0,0:0:0:0:
292,320,99549,1,2,3:0:0:0:
360,240,99924,2,0,B|336:192|336:192|360:80,2,157.5,4|4|4,0:0|3:0|3:0,0:0:0:0:
292,320,101424,1,10,0:0:0:0:
196,280,101799,1,2,0:0:0:0:
112,344,102174,6,0,P|44:324|99:233,1,210,0|8,1:0|1:2,0:0:0:0:
244,292,103486,2,0,L|424:280,1,157.5,4|4,3:0|3:0,0:0:0:0:
480,208,104424,2,0,P|488:144|464:96,1,105,8|2,0:0|3:0,0:0:0:0:
388,44,105174,5,8,3:0:0:0:
256,192,105361,12,8,107424,1:2:0:0:
120,320,108174,6,0,L|132:212,1,105,4|2,1:2|3:0,0:0:0:0:
92,120,108924,2,0,P|132:68|216:76,2,157.5,2|2|4,1:1|0:0|3:0,0:0:0:0:
132,216,110424,1,10,0:0:0:0:
104,316,110799,1,0,0:0:0:0:
196,368,111174,6,0,L|280:360,1,52.5,0|0,1:0|0:0,0:0:0:0:
277,361,111549,1,2,3:0:0:0:
360,296,111924,2,0,B|380:244|380:244|376:216|376:216|416:120,2,157.5,4|4|4,0:0|3:0|3:0,0:0:0:0:
277,361,113424,2,0,P|225:365|167:340,1,105,10|2,0:0|0:0,0:0:0:0:
124,256,114174,5,0,1:0:0:0:
208,192,114549,1,4,3:0:0:0:
124,128,114924,1,8,1:2:0:0:
256,44,115486,1,4,3:0:0:0:
388,128,116049,1,4,3:0:0:0:
356,228,116424,2,0,L|356:280,2,52.5,8|0|2,0:0|0:0|3:0,0:0:0:0:
256,192,117174,5,8,3:0:0:0:
88,316,117924,1,4,3:0:0:0:
256,192,118674,5,4,3:0:0:0:
404,340,119424,1,8,1:2:0:0:
256,192,120174,5,4,3:0:0:0:
256,192,141174,12,4,143424,3:0:0:0:
48,328,144174,6,0,L|180:320,1,125.999996154785,6|2,1:2|3:0,0:0:0:0:
308,356,144924,2,0,P|336:292|312:224,1,125.999996154785,2|0,1:1|3:0,0:0:0:0:
300,216,145486,2,0,P|272:152|296:84,1,125.999996154785,2|4,0:0|0:3,0:0:0:0:
308,76,146049,2,0,L|388:84,1,62.9999980773926,4|0,3:0|0:0,0:0:0:0:
400,72,146424,1,10,0:0:0:0:
465,196,146799,1,0,0:0:0:0:
370,301,147174,6,0,L|308:308,1,62.9999980773926,0|0,1:0|0:0,0:0:0:0:
284,328,147549,2,0,L|221:321,1,62.9999980773926,2|0,3:0|0:0,0:0:0:0:
192,336,147924,2,0,P|116:276|164:224,2,188.999994232178,4|4|4,0:0|3:0|3:0,0:0:0:0:
316,272,149424,1,10,0:0:0:0:
432,348,149799,1,2,0:0:0:0:
496,228,150174,6,0,L|488:100,1,125.999996154785,0|4,1:0|3:0,0:0:0:0:
368,32,150924,2,0,B|320:56|320:56|184:32,2,188.999994232178,8|4|4,1:2|3:0|3:0,0:0:0:0:
476,120,152424,2,0,P|456:196|436:204,1,62.9999980773926,8|0,0:0|0:0,0:0:0:0:
456,204,152799,2,0,P|445:233|452:263,1,62.9999980773926,2|0,3:0|0:0,0:0:0:0:
472,288,153174,5,4,3:0:0:0:
256,192,153361,12,8,155424,1:2:0:0:
380,328,156174,6,0,L|248:316,1,125.999996154785,4|2,1:2|3:0,0:0:0:0:
132,252,156924,2,0,P|175:191|135:112,1,125.999996154785,2|0,1:1|3:0,0:0:0:0:
148,120,157486,2,0,L|273:108,1,125.999996154785,2|4,0:0|0:3,0:0:0:0:
300,92,158049,1,4,3:0:0:0:
412,192,158424,2,0,L|400:264,1,62.9999980773926,10|0,0:0|0:0,0:0:0:0:
379,276,158799,2,0,L|367:348,1,62.9999980773926,0|2,0:0|0:0,0:0:0:0:
346,360,159174,6,0,P|282:376|262:368,1,62.9999980773926,0|0,1:0|0:0,0:0:0:0:
256,368,159549,1,2,3:0:0:0:
156,272,159924,2,0,B|184:212|184:212|164:72,2,188.999994232178,4|4|4,0:0|3:0|3:0,0:0:0:0:
256,368,161424,2,0,L|284:308,1,62.9999980773926,10|0,0:0|0:0,0:0:0:0:
296,284,161799,2,0,L|360:272,1,62.9999980773926,2|0,0:0|0:0,0:0:0:0:
388,284,162174,5,0,1:0:0:0:
500,200,162549,1,4,3:0:0:0:
472,64,162924,1,8,1:2:0:0:
333,26,163299,1,0,0:0:0:0:
312,48,163486,2,0,L|104:36,1,188.999994232178,4|4,3:0|3:0,0:0:0:0:
44,152,164424,2,0,P|52:224|64:248,1,62.9999980773926,8|0,0:0|0:0,0:0:0:0:
40,244,164799,2,0,P|96:289|122:297,1,62.9999980773926,2|0,3:0|0:0,0:0:0:0:
108,312,165174,5,8,3:0:0:0:
256,192,165361,12,12,168174,0:3:0:0:
368,348,169674,6,0,L|480:356,2,105,4|2|8,3:0|0:0|0:0,0:0:0:0:
264,296,170799,1,4,3:0:0:0:
156,340,171174,6,0,P|125:280|132:230,1,105,4|4,0:3|3:0,0:0:0:0:
180,152,171924,2,0,L|344:164,2,157.5,4|2|2,0:3|0:2|0:2,0:0:0:0:
127,244,173424,2,0,P|127:295|155:339,1,105,10|2,0:2|0:2,0:0:0:0:
256,312,174174,5,4,0:3:0:0:
460,356,174924,1,4,0:3:0:0:
504,152,175674,2,0,L|488:32,2,105,4|4|8,3:0|0:3|0:0,0:0:0:0:
428,228,176799,1,8,0:3:0:0:
356,152,177174,6,0,P|272:152|280:256,1,210,2|8,0:0|0:0,0:0:0:0:
88,348,178674,2,0,P|52:256|64:136,1,210,2|8,0:0|0:0,0:0:0:0:
140,76,179799,1,4,0:3:0:0:
224,140,180174,6,0,L|352:136,1,105,4|4,0:3|3:0,0:0:0:0:
428,104,180924,2,0,L|432:232,1,105,4|8,0:3|0:3,0:0:0:0:
464,308,181674,2,0,L|336:312,2,105,4|2|8,3:0|0:0|0:0,0:0:0:0:
360,124,183174,6,0,L|232:120,1,105,4|4,0:3|3:0,0:0:0:0:
156,88,183924,2,0,L|152:216,1,105,4|8,0:3|0:3,0:0:0:0:
120,292,184674,2,0,L|248:296,1,105,4|2,3:0|0:0,0:0:0:0:
316,344,185424,2,0,L|444:340,1,105,10|2,0:0|0:0,0:0:0:0:
484,256,186174,5,4,0:3:0:0:
348,96,186924,1,4,0:3:0:0:
180,224,187674,2,0,P|108:244|60:236,2,105,4|2|10,3:0|0:0|0:0,0:0:0:0:
256,28,189174,5,4,3:0:0:0:
256,192,189361,12,4,192174,0:3:0:0:
