osu file format v14

[General]
AudioFilename: Bi RainHip Song.mp3
AudioLeadIn: 0
PreviewTime: 47611
Countdown: 0
SampleSet: Soft
StackLeniency: 0.7
Mode: 0
LetterboxInBreaks: 0
WidescreenStoryboard: 0

[Editor]
Bookmarks: 58299,81174,96174
DistanceSpacing: 2
BeatDivisor: 8
GridSize: 4
TimelineZoom: 1.6

[Metadata]
Title:Hip Song
TitleUnicode:Hip Song
Artist:Rain
ArtistUnicode:λΉ„
Creator:Irreversible
Version:Insane
Source:
Tags:Arphimigon This is rock tonight slow male jumpy intense jumps dtable back to basic Bi
BeatmapID:841426
BeatmapSetID:385185

[Difficulty]
HPDrainRate:6
CircleSize:4.2
OverallDifficulty:9
ApproachRate:8.7
SliderMultiplier:2.6
SliderTickRate:1

[Events]
//Background and Video events
0,0,"Anime-Guy-with-Blue-Hairs.jpg",0,0
//Break Periods
2,120374,140529
//Storyboard Layer 0 (Background)
//Storyboard Layer 1 (Fail)
//Storyboard Layer 2 (Pass)
//Storyboard Layer 3 (Foreground)
//Storyboard Sound Samples

[TimingPoints]
12174,750,4,2,1,70,1,0
29986,-133.333333333333,4,2,1,70,0,0
30549,-100,4,2,1,70,0,0
36049,-100,4,2,1,5,0,0
36174,-100,4,2,1,70,0,0
42049,-100,4,2,1,5,0,0
42174,-100,4,2,1,70,0,0
48924,-100,4,2,1,80,0,1
51799,-100,4,2,1,5,0,1
51924,-100,4,2,1,80,0,1
52580,-100,4,2,1,5,0,1
52861,-100,4,2,1,80,0,1
55580,-100,4,2,1,5,0,1
55861,-100,4,2,1,80,0,1
59799,-100,4,2,1,80,0,0
60924,-100,4,2,1,80,0,1
63799,-100,4,2,1,5,0,1
63924,-100,4,2,1,80,0,1
64580,-100,4,2,1,5,0,1
64861,-100,4,2,1,80,0,1
65299,-100,4,2,1,5,0,1
65424,-100,4,2,1,80,0,1
67580,-100,4,2,1,5,0,1
67861,-100,4,2,1,80,0,1
72174,-100,4,2,1,70,0,0
93174,-133.333333333333,4,2,1,70,0,0
96174,-100,4,2,1,70,0,0
96924,-100,4,2,1,80,0,1
99799,-100,4,2,1,5,0,1
99924,-100,4,2,1,80,0,1
100580,-100,4,2,1,5,0,1
100861,-100,4,2,1,80,0,1
103580,-100,4,2,1,5,0,1
103861,-100,4,2,1,80,0,1
107799,-100,4,2,1,80,0,0
108924,-100,4,2,1,80,0,1
111830,-100,4,2,1,5,0,1
111924,-100,4,2,1,80,0,1
112580,-100,4,2,1,5,0,1
112861,-100,4,2,1,80,0,1
115580,-100,4,2,1,5,0,1
115861,-100,4,2,1,80,0,1
120174,-50,4,2,1,70,0,0
144174,-83.3333333333333,4,2,1,70,0,0
144924,-83.3333333333333,4,2,1,80,0,1
147799,-83.3333333333333,4,2,1,5,0,1
147924,-83.3333333333333,4,2,1,80,0,1
148580,-83.3333333333333,4,2,1,5,0,1
148674,-83.3333333333333,4,2,1,80,0,1
151580,-83.3333333333333,4,2,1,5,0,1
151861,-83.3333333333333,4,2,1,80,0,1
155799,-83.3333333333333,4,2,1,100,0,0
156924,-83.3333333333333,4,2,1,80,0,1
159799,-83.3333333333333,4,2,1,5,0,1
159924,-83.3333333333333,4,2,1,80,0,1
160580,-83.3333333333333,4,2,1,5,0,1
160861,-83.3333333333333,4,2,1,80,0,1
163580,-83.3333333333333,4,2,1,5,0,1
163674,-83.3333333333333,4,2,1,80,0,1
168174,-100,4,2,1,70,0,0
193017,-100,4,2,1,60,0,0
193205,-100,4,2,1,45,0,0
193392,-100,4,2,1,30,0,0
193580,-100,4,2,1,15,0,0
193674,-100,4,2,1,5,0,0

[Colours]
Combo1 : 100,100,100
Combo2 : 255,255,66
Combo3 : 0,139,206
SliderBorder : 30,80,240
SliderTrackOverride : 145,145,145

[HitObjects]
84,340,23986,5,0,0:3:0:0:
152,296,24174,2,0,L|228:304,1,65,4|0,0:3|0:0,0:0:0:0:
284,344,24549,2,0,L|360:336,1,65,4|0,0:3|0:0,0:0:0:0:
400,268,24924,5,10,0:0:0:0:
384,120,25111,1,2,0:0:0:0:
316,204,25299,1,2,0:0:0:0:
464,188,25486,1,2,0:0:0:0:
352,44,25674,6,0,P|301:91|298:102,1,65,4|0,0:3|0:0,0:0:0:0:
208,84,26049,2,0,P|188:59|160:44,1,65,4|0,0:3|0:0,0:0:0:0:
80,96,26424,5,10,0:0:0:0:
104,248,26611,1,2,0:0:0:0:
80,96,26799,1,2,0:0:0:0:
104,248,26986,1,2,0:0:0:0:
256,324,27174,6,0,P|272:252|284:232,1,65,4|0,0:3|0:0,0:0:0:0:
380,288,27549,2,0,P|389:319|392:351,1,65,4|0,0:3|0:0,0:0:0:0:
264,244,27924,5,10,0:2:0:0:
416,192,28111,1,2,0:2:0:0:
236,168,28299,1,2,0:2:0:0:
388,116,28486,1,2,0:2:0:0:
180,56,28674,6,0,P|100:72|80:68,1,65,4|0,0:3|0:0,0:0:0:0:
236,168,29049,2,0,P|316:184|336:180,1,65,4|0,0:3|0:0,0:0:0:0:
120,272,29424,2,0,P|40:288|20:284,2,65,10|2|2,0:0|0:0|0:0,0:0:0:0:
344,356,29986,2,0,P|394:369|441:364,1,97.50000371933,2|4,0:2|0:3,0:0:0:0:
276,312,30549,6,0,P|265:328|264:344,2,32.5,4|0|0,0:3|0:0|0:0,0:0:0:0:
388,192,30924,2,0,L|376:56,1,130,8|4,0:3|0:3,0:0:0:0:
276,24,31486,1,0,0:0:0:0:
207,120,31674,2,0,P|146:157|83:140,1,130,8|0,0:3|0:3,0:0:0:0:
139,79,32236,1,0,0:0:0:0:
256,300,32424,6,0,L|248:364,1,65,4|0,3:3|3:0,0:0:0:0:
98,210,32799,2,0,L|90:138,1,65,4|0,3:3|3:0,0:0:0:0:
280,44,33174,5,2,0:0:0:0:
392,56,33361,1,2,0:0:0:0:
288,156,33549,5,2,0:0:0:0:
400,168,33736,2,0,P|420:240|384:284,1,130,0|2,0:0|0:0,0:0:0:0:
256,336,34299,5,2,0:0:0:0:
153,211,34486,2,0,P|121:265|144:324,1,130,2|0,0:0|0:0,0:0:0:0:
256,168,35049,5,2,0:0:0:0:
172,48,35236,1,0,0:0:0:0:
400,168,35424,5,8,1:2:0:0:
108,252,35799,2,0,L|4:248,1,86.6666666666667,10|0,1:2|0:0,0:0:0:0:
176,216,36174,6,0,P|116:176|96:180,1,65,4|0,0:3|0:0,0:0:0:0:
304,300,36549,2,0,P|364:260|384:264,1,65,8|0,0:3|0:0,0:0:0:0:
439,332,36924,2,0,L|359:328,1,65,8|0,0:0|0:0,0:0:0:0:
256,128,37299,2,0,L|336:124,1,65,8|0,0:3|0:0,0:0:0:0:
388,80,37674,6,0,P|388:160|368:176,1,65,4|0,0:3|0:0,0:0:0:0:
136,268,38049,2,0,P|133:235|146:206,1,65,8|0,0:3|0:0,0:0:0:0:
280,352,38424,1,8,0:0:0:0:
292,356,38799,6,0,L|400:348,1,65,8|0,0:3|0:0,0:0:0:0:
444,368,39174,2,0,L|436:260,1,65,4|0,0:3|0:0,0:0:0:0:
256,76,39549,2,0,L|251:140,1,65,8|0,0:3|0:0,0:0:0:0:
188,208,39924,2,0,P|100:216|84:212,1,65,8|0,0:0|0:0,0:0:0:0:
388,80,40299,2,0,P|420:82|451:90,1,65,8|0,0:3|0:0,0:0:0:0:
472,248,40674,5,4,0:3:0:0:
388,304,40861,1,0,0:0:0:0:
296,260,41049,1,8,0:3:0:0:
236,340,41236,1,0,0:0:0:0:
200,116,41424,1,8,0:0:0:0:
200,116,41799,6,0,P|186:49|172:29,1,65,8|0,0:3|0:0,0:0:0:0:
108,188,42174,2,0,L|16:176,1,65,4|0,0:3|0:0,0:0:0:0:
148,288,42549,2,0,L|212:279,1,65,8|0,0:3|0:0,0:0:0:0:
320,96,42924,2,0,L|228:84,1,65,8|0,0:0|0:0,0:0:0:0:
360,196,43299,2,0,L|424:187,1,65,8|0,0:3|0:0,0:0:0:0:
472,64,43674,6,0,P|445:45|447:56,1,65,4|0,0:3|0:0,0:0:0:0:
360,196,44049,2,0,P|333:214|335:203,1,65,8|0,0:3|0:0,0:0:0:0:
104,60,44424,1,8,0:0:0:0:
92,72,44799,2,0,P|81:142|91:159,1,65,8|0,0:3|0:0,0:0:0:0:
32,248,45174,5,2,0:2:0:0:
140,224,45361,1,2,0:2:0:0:
52,352,45549,5,2,0:2:0:0:
160,328,45736,2,0,L|304:348,1,130,2|2,0:2|0:2,0:2:0:0:
396,334,46299,5,2,0:0:0:0:
288,310,46486,2,0,L|144:330,1,130,8|2,3:0|0:0,0:0:0:0:
51,316,47049,1,4,3:0:0:0:
159,292,47236,1,2,0:0:0:0:
32,124,47424,5,8,1:2:0:0:
368,28,47799,5,8,1:2:0:0:
304,120,47986,1,0,0:0:0:0:
380,280,48174,2,0,L|520:268,1,130,6|2,1:2|3:0,0:0:0:0:
108,360,48924,6,0,L|96:220,1,130,2|0,1:1|3:0,0:0:0:0:
92,136,49486,2,0,P|136:88|196:96,1,130,4|4,3:0|0:3,0:0:0:0:
268,324,50049,2,0,P|317:346|360:320,1,65,4|0,3:0|0:0,0:0:0:0:
484,312,50424,5,10,0:0:0:0:
321,273,50611,1,0,0:0:0:0:
512,160,50799,1,0,0:0:0:0:
349,121,50986,1,2,0:0:0:0:
268,324,51174,6,0,L|180:332,1,65,0|0,1:0|0:0,0:0:0:0:
104,296,51549,2,0,P|82:258|85:204,1,86.6666666666667,2|0,3:0|0:0,0:0:0:0:
176,16,51924,2,0,P|242:36|264:104,1,130,4|2,0:0|3:0,0:0:0:0:
352,152,52486,2,0,L|388:148,1,32.5,4|0,3:0|0:0,0:0:0:0:
256,348,52861,5,4,3:0:0:0:
424,324,53049,1,4,3:0:0:0:
168,304,53424,5,10,0:0:0:0:
112,128,53612,1,0,0:0:0:0:
175,326,53799,1,2,0:0:0:0:
104,105,53987,1,0,0:0:0:0:
336,32,54174,6,0,L|424:40,1,65,0|0,1:0|0:0,0:0:0:0:
476,160,54549,2,0,L|411:165,1,65,4|0,3:0|0:0,0:0:0:0:
320,348,54924,2,0,P|304:256|280:208,1,130,8|0,1:2|0:0,0:0:0:0:
192,92,55486,2,0,L|204:48,1,32.5,8|0,3:0|0:0,0:0:0:0:
40,336,55861,5,4,3:0:0:0:
132,356,56049,1,4,3:0:0:0:
184,280,56236,1,0,0:0:0:0:
204,87,56424,5,8,0:0:0:0:
379,298,56611,1,0,0:0:0:0:
397,104,56799,1,2,3:0:0:0:
184,280,56986,1,0,0:0:0:0:
448,244,57174,6,0,P|408:216|372:212,2,65,4|0|4,3:0|0:0|3:0,0:0:0:0:
324,344,57736,6,0,L|180:348,1,130,2|0,0:0|0:0,0:0:0:0:
104,380,58299,1,2,0:0:0:0:
48,244,58486,6,0,L|44:100,1,130,8|2,3:0|0:0,0:0:0:0:
108,44,59049,1,4,3:0:0:0:
188,108,59236,1,2,0:0:0:0:
376,52,59424,5,8,1:2:0:0:
253,383,59799,5,8,1:2:0:0:
296,276,59986,1,0,0:0:0:0:
164,160,60174,2,0,L|8:172,1,130,6|2,1:2|3:0,0:0:0:0:
452,64,60924,6,0,L|464:220,1,130,2|0,1:1|3:0,0:0:0:0:
436,280,61486,2,0,P|364:316|308:296,1,130,2|4,0:0|0:3,0:0:0:0:
216,172,62049,1,4,3:0:0:0:
295,55,62236,1,0,0:0:0:0:
254,233,62424,5,10,0:0:0:0:
138,154,62611,1,0,0:0:0:0:
316,195,62799,1,0,0:0:0:0:
236,311,62986,1,2,0:0:0:0:
40,192,63174,6,0,P|28:120|40:92,1,65,0|0,1:0|0:0,0:0:0:0:
68,48,63549,2,0,L|160:60,1,86.6666666666667,2|0,3:0|0:0,0:0:0:0:
256,228,63924,2,0,L|387:210,1,130,4|2,0:0|3:0,0:0:0:0:
456,124,64486,2,0,L|452:92,1,32.5,4|0,3:0|0:0,0:0:0:0:
152,352,64861,5,4,3:0:0:0:
208,44,65049,2,0,P|154:31|97:34,1,86.6666666666667,4|0,3:0|0:0,0:0:0:0:
100,208,65424,5,10,0:0:0:0:
124,32,65611,1,0,0:0:0:0:
100,208,65799,1,2,0:0:0:0:
124,32,65985,1,0,0:0:0:0:
84,284,66174,5,0,1:0:0:0:
124,32,66549,1,4,3:0:0:0:
385,270,66924,2,0,L|229:278,1,130,8|0,1:2|0:0,0:0:0:0:
156,322,67486,2,0,L|140:354,1,32.5,4|0,3:0|0:0,0:0:0:0:
152,48,67861,5,4,3:0:0:0:
256,141,68049,1,4,3:0:0:0:
387,93,68236,1,0,0:0:0:0:
348,252,68424,5,8,0:0:0:0:
136,123,68611,1,2,0:0:0:0:
310,78,68799,1,2,3:0:0:0:
173,296,68986,1,0,0:0:0:0:
424,196,69174,5,4,3:0:0:0:
88,188,69549,1,2,0:0:0:0:
371,313,69924,5,8,0:0:0:0:
140,70,70299,1,2,0:0:0:0:
252,360,70674,5,4,3:0:0:0:
260,24,71049,1,2,0:0:0:0:
91,348,71424,5,8,0:0:0:0:
420,35,71799,1,8,3:0:0:0:
446,347,72174,6,0,L|438:271,1,65,4|0,3:0|0:0,0:0:0:0:
430,191,72549,1,2,0:0:0:0:
446,347,72736,1,0,0:0:0:0:
423,106,72924,1,8,0:0:0:0:
65,347,73674,6,0,L|73:271,1,65,4|0,3:0|0:0,0:0:0:0:
81,191,74049,1,2,0:0:0:0:
65,347,74236,1,0,0:0:0:0:
88,106,74424,1,8,0:0:0:0:
446,347,75174,6,0,L|438:271,1,65,4|0,3:0|0:0,0:0:0:0:
430,191,75549,1,2,0:0:0:0:
446,347,75736,1,0,0:0:0:0:
423,106,75924,1,8,0:0:0:0:
65,347,76674,6,0,L|73:271,1,65,4|0,3:0|0:0,0:0:0:0:
81,191,77049,1,2,0:0:0:0:
65,347,77236,1,0,0:0:0:0:
88,106,77424,1,8,0:0:0:0:
320,232,78174,5,4,3:0:0:0:
215,256,78361,1,0,0:0:0:0:
191,151,78549,1,0,0:0:0:0:
296,127,78736,1,0,0:0:0:0:
281,302,78924,5,8,3:0:0:0:
145,217,79111,1,0,0:0:0:0:
230,81,79299,1,0,0:0:0:0:
366,166,79486,1,0,0:0:0:0:
170,330,79674,5,4,3:0:0:0:
341,53,79861,1,2,0:0:0:0:
117,106,80049,1,2,0:0:0:0:
394,277,80236,1,2,0:0:0:0:
40,236,80424,5,8,0:0:0:0:
394,277,81174,6,0,L|382:357,2,65,2|2|2,0:2|0:0|0:0,0:0:0:0:
472,192,81736,6,0,B|448:160|448:160|460:68,1,130,4|0,0:3|0:0,0:0:0:0:
384,16,82299,1,4,0:3:0:0:
300,64,82486,6,0,B|267:39|267:39|178:51,1,130,4|0,0:3|0:0,0:0:0:0:
84,32,83049,1,4,0:3:0:0:
32,108,83236,6,0,B|56:141|56:141|44:230,1,130,4|0,0:3|0:0,0:0:0:0:
164,356,83799,1,2,0:0:0:0:
340,344,83986,6,0,P|408:332|484:332,1,130,4|0,0:3|0:0,0:0:0:0:
265,304,84549,2,0,P|225:247|171:193,1,130,4|8,0:3|0:0,0:0:0:0:
296,104,85111,1,2,0:0:0:0:
192,212,85299,1,2,0:0:0:0:
296,104,85486,6,0,P|358:117|423:122,1,130,4|0,0:3|0:0,0:0:0:0:
220,48,86049,2,0,P|155:49|91:61,1,130,4|10,0:3|0:0,0:0:0:0:
168,220,86611,1,2,0:0:0:0:
91,60,86799,1,2,0:0:0:0:
168,220,86986,6,0,L|148:364,1,130,4|0,0:3|0:0,0:0:0:0:
362,348,87549,2,0,L|345:220,1,130,4|8,0:3|0:0,0:0:0:0:
168,220,88111,1,2,0:0:0:0:
344,219,88299,1,2,0:0:0:0:
168,220,88486,6,0,P|96:158|102:112,1,130,4|0,3:3|3:0,3:0:0:0:
184,36,89049,1,2,0:0:0:0:
256,112,89236,1,2,0:0:0:0:
412,80,89424,5,8,0:0:0:0:
192,288,89799,1,4,0:3:0:0:
320,288,89986,1,4,0:3:0:0:
256,180,90174,5,4,3:0:0:0:
256,192,90267,12,0,92799,0:0:0:0:
36,296,93174,5,2,0:0:0:0:
144,332,93361,1,2,0:0:0:0:
236,272,93549,5,2,0:0:0:0:
352,328,93736,2,0,P|344:276|348:200,1,97.50000371933,2|2,0:0|0:0,0:0:0:0:
404,116,94299,5,2,0:0:0:0:
480,372,94486,2,0,P|488:320|484:244,1,97.50000371933,8|2,3:0|0:0,0:0:0:0:
404,116,95049,5,4,3:0:0:0:
300,152,95236,1,2,0:0:0:0:
100,56,95424,5,8,1:2:0:0:
256,348,95799,5,8,1:2:0:0:
336,252,95986,1,0,0:0:0:0:
218,75,96174,2,0,P|161:44|98:56,1,130,6|0,1:2|3:0,0:0:0:0:
376,326,96924,6,0,P|431:296|494:307,1,130,2|0,1:1|3:0,0:0:0:0:
376,326,97486,2,0,P|343:271|284:249,1,130,2|4,0:0|0:3,0:0:0:0:
284,340,98049,1,4,3:0:0:0:
416,192,98236,1,0,0:0:0:0:
266,63,98424,5,10,0:0:0:0:
133,72,98611,1,0,0:0:0:0:
292,61,98799,1,0,0:0:0:0:
107,74,98986,1,2,0:0:0:0:
48,248,99174,6,0,P|60:288|88:316,1,65,0|0,1:0|0:0,1:0:0:0:
128,172,99549,2,0,L|227:182,1,97.5,2|0,3:0|0:0,0:0:0:0:
410,332,99924,2,0,L|258:352,1,130,4|2,0:0|3:0,0:0:0:0:
109,256,100486,2,0,L|68:253,1,32.5,4|0,3:0|0:0,0:0:0:0:
282,349,100861,5,4,3:0:0:0:
109,256,101049,1,4,3:0:0:0:
282,349,101424,5,10,0:0:0:0:
109,256,101612,1,0,0:0:0:0:
256,216,101799,1,2,0:0:0:0:
80,340,101987,1,0,0:0:0:0:
80,64,102174,6,0,P|68:128|40:192,1,130,0|4,1:0|3:0,0:0:0:0:
470,187,102924,2,0,P|444:127|433:64,1,130,8|0,1:2|0:0,0:0:0:0:
508,272,103486,2,0,P|485:280|456:277,1,32.5,4|0,3:0|0:0,0:0:0:0:
188,256,103861,5,4,3:0:0:0:
324,128,104049,1,4,3:0:0:0:
192,124,104236,1,0,0:0:0:0:
304,251,104424,5,8,0:0:0:0:
247,67,104611,1,0,0:0:0:0:
120,308,104799,1,2,3:0:0:0:
63,124,104986,1,0,0:0:0:0:
199,298,105174,6,0,P|191:346|159:370,2,65,4|0|4,3:0|0:0|3:0,0:0:0:0:
128,208,105736,6,0,L|152:52,1,130,2|0,0:0|0:0,0:0:0:0:
220,24,106299,1,2,0:0:0:0:
256,240,106486,6,0,L|280:84,1,130,8|2,3:0|0:0,0:0:0:0:
348,56,107049,1,4,3:0:0:0:
408,136,107236,1,2,0:0:0:0:
128,208,107424,5,8,1:2:0:0:
496,96,107799,5,10,1:2:0:0:
412,40,107986,1,0,0:0:0:0:
256,332,108174,2,0,L|112:340,1,130,4|2,1:2|3:0,0:0:0:0:
484,136,108924,6,0,L|492:280,1,130,2|0,1:1|3:0,0:0:0:0:
404,232,109486,2,0,L|396:102,1,130,2|4,0:0|0:3,0:0:0:0:
336,292,110049,1,4,3:0:0:0:
100,240,110236,1,0,0:0:0:0:
160,298,110424,6,0,P|180:226|168:194,1,65,10|0,0:0|0:0,0:0:0:0:
24,360,110799,1,0,0:0:0:0:
256,332,110986,1,2,0:0:0:0:
160,160,111174,6,0,P|152:124|156:88,1,65,0|0,1:0|0:0,1:0:0:0:
240,32,111549,2,0,L|340:40,1,97.5,2|0,3:0|3:0,3:0:0:0:
436,268,111924,2,0,P|386:321|310:309,1,130,4|2,0:0|3:0,0:0:0:0:
144,256,112486,2,0,L|104:268,1,32.5,4|0,3:0|0:0,0:0:0:0:
332,321,112861,5,4,3:0:0:0:
112,265,113049,1,4,3:0:0:0:
444,52,113424,5,10,0:0:0:0:
428,164,113611,1,0,0:0:0:0:
316,148,113799,1,2,0:0:0:0:
332,36,113986,1,0,0:0:0:0:
500,208,114174,6,0,P|444:248|392:236,1,65,0|0,1:0|0:0,0:0:0:0:
360,308,114549,2,0,P|304:268|252:280,1,65,4|0,3:0|0:0,0:0:0:0:
116,192,114924,2,0,L|136:360,1,130,8|0,1:2|0:0,0:0:0:0:
256,64,115486,2,0,L|252:32,1,32.5,4|0,3:0|0:0,0:0:0:0:
432,336,115861,5,4,3:0:0:0:
312,272,116049,1,4,3:0:0:0:
436,336,116236,1,0,0:0:0:0:
312,272,116424,5,8,0:0:0:0:
136,320,116611,1,0,0:0:0:0:
348,259,116799,1,2,3:0:0:0:
99,336,116986,1,0,0:0:0:0:
152,80,117174,5,4,3:0:0:0:
360,304,117549,1,2,0:0:0:0:
103,186,117924,5,8,0:0:0:0:
408,197,118299,1,2,0:0:0:0:
144,296,118674,5,4,3:0:0:0:
368,88,119049,1,2,0:0:0:0:
104,64,119424,5,8,0:0:0:0:
418,357,119799,1,8,0:0:0:0:
144,296,120174,5,4,3:0:0:0:
256,192,141174,12,0,143424,1:0:0:0:
140,264,143799,5,10,3:0:0:0:
303,279,143986,1,0,3:0:0:0:
90,324,144174,2,0,P|66:240|78:212,1,77.999997619629,6|0,1:2|0:0,0:0:0:0:
256,64,144549,2,0,P|280:148|268:176,1,77.999997619629,2|0,3:0|0:0,0:0:0:0:
148,268,144924,6,0,L|312:280,1,155.999995239258,2|0,1:1|3:0,0:0:0:0:
480,192,145486,1,4,3:0:0:0:
136,44,145861,1,4,0:3:0:0:
132,208,146049,1,4,3:0:0:0:
280,136,146236,1,0,0:0:0:0:
68,120,146424,5,10,0:0:0:0:
240,224,146611,1,0,0:0:0:0:
53,111,146799,1,0,0:0:0:0:
254,232,146986,1,2,0:0:0:0:
159,347,147174,6,0,L|63:355,1,77.999997619629,0|0,1:0|0:0,0:0:0:0:
227,161,147549,2,0,P|283:161|319:193,1,103.999996826172,2|0,3:0|0:0,0:0:0:0:
159,347,147924,2,0,L|-2:334,1,155.999995239258,4|2,0:0|3:0,0:0:0:0:
317,190,148486,2,0,L|358:193,1,38.9999988098145,4|0,3:0|0:0,0:0:0:0:
159,347,148861,5,4,3:0:0:0:
104,160,149049,1,4,3:0:0:0:
352,352,149424,5,10,0:0:0:0:
408,160,149612,1,0,0:0:0:0:
159,347,149799,1,2,0:0:0:0:
104,160,149987,1,0,0:0:0:0:
292,304,150174,6,0,P|323:279|361:274,1,77.999997619629,0|0,1:0|0:0,0:0:0:0:
97,304,150549,2,0,P|133:316|158:346,1,77.999997619629,4|0,3:0|0:0,0:0:0:0:
244,40,150924,2,0,P|240:116|256:204,1,155.999995239258,8|0,1:2|0:0,0:0:0:0:
376,312,151486,2,0,P|401:310|416:304,1,38.9999988098145,4|4,3:0|3:0,0:0:0:0:
240,128,151861,5,4,3:0:0:0:
52,108,152049,1,4,3:0:0:0:
240,128,152236,1,0,0:0:0:0:
40,288,152424,5,8,0:0:0:0:
188,352,152611,1,0,0:0:0:0:
152,128,152799,1,2,3:0:0:0:
4,192,152986,1,0,0:0:0:0:
188,352,153174,6,0,L|265:346,1,77.999997619629,4|0,3:0|0:0,0:0:0:0:
176,208,153549,5,2,0:0:0:0:
316,268,153736,2,0,L|484:256,1,155.999995239258,0|2,0:0|0:0,0:0:0:0:
316,268,154299,5,2,0:0:0:0:
111,352,154486,2,0,L|179:212,1,155.999995239258,8|2,3:0|0:0,0:0:0:0:
111,352,155049,5,4,3:0:0:0:
124,100,155236,1,2,0:0:0:0:
32,192,155424,5,8,1:2:0:0:
448,340,155799,5,8,1:2:0:0:
376,84,155986,1,0,0:0:0:0:
184,328,156174,2,0,P|96:344|76:336,1,77.999997619629,4|0,1:2|0:0,0:0:0:0:
306,173,156549,2,0,P|344:175|379:191,1,77.999997619629,2|0,3:0|0:0,0:0:0:0:
132,268,156924,6,0,L|164:92,1,155.999995239258,2|0,1:1|3:0,0:0:0:0:
184,328,157486,1,2,0:0:0:0:
432,192,157861,1,4,0:3:0:0:
376,84,158049,1,4,3:0:0:0:
270,142,158236,1,0,0:0:0:0:
108,20,158424,5,10,0:0:0:0:
252,252,158612,1,0,0:0:0:0:
64,208,158799,1,0,0:0:0:0:
296,64,158986,1,2,0:0:0:0:
64,208,159174,6,0,P|56:292|80:336,1,77.999997619629,0|0,1:0|0:0,0:0:0:0:
152,352,159549,2,0,L|268:344,1,103.999996826172,2|0,3:0|0:0,0:0:0:0:
456,192,159924,2,0,B|446:72|446:72|432:108,1,155.999995239258,4|2,0:0|3:0,0:0:0:0:
512,256,160486,2,0,P|491:274|451:270,1,38.9999988098145,4|4,3:0|3:0,0:0:0:0:
256,228,160862,5,4,3:0:0:0:
320,140,161049,1,4,3:0:0:0:
88,232,161424,5,10,0:0:0:0:
152,140,161611,1,0,0:0:0:0:
104,336,161799,1,2,0:0:0:0:
136,36,161986,1,0,0:0:0:0:
376,196,162174,6,0,L|488:188,1,77.999997619629,0|0,1:0|0:0,0:0:0:0:
184,340,162549,2,0,L|72:332,1,77.999997619629,4|0,3:0|0:0,0:0:0:0:
348,80,162924,2,0,P|340:168|288:224,1,155.999995239258,8|0,1:2|0:0,0:0:0:0:
132,260,163486,2,0,L|80:256,1,38.9999988098145,4|0,3:0|0:0,0:0:0:0:
256,48,163861,5,4,3:0:0:0:
348,129,164049,1,4,3:0:0:0:
468,96,164236,1,0,0:0:0:0:
468,288,164424,5,8,0:0:0:0:
348,255,164611,1,0,0:0:0:0:
256,336,164799,1,2,3:0:0:0:
164,255,164986,1,0,0:0:0:0:
44,360,165174,5,8,3:0:0:0:
32,36,165549,1,2,0:0:0:0:
468,360,165924,5,4,3:0:0:0:
480,36,166299,1,2,0:0:0:0:
92,240,166674,5,4,3:0:0:0:
420,144,167049,1,2,0:0:0:0:
30,126,167424,5,8,1:2:0:0:
481,257,167799,1,2,0:0:0:0:
256,360,168174,6,0,P|240:284|256:224,1,130,12|0,0:3|0:0,0:0:0:0:
400,68,168924,1,4,0:3:0:0:
424,152,169111,1,0,0:3:0:0:
336,132,169299,1,8,0:3:0:0:
488,92,169486,5,2,0:2:0:0:
488,292,169861,1,2,0:2:0:0:
488,292,170049,1,2,0:0:0:0:
124,192,170424,2,0,L|32:200,1,65,8|4,0:0|0:3,0:0:0:0:
256,240,170799,2,0,L|344:248,1,65,8|4,0:3|0:3,0:0:0:0:
220,148,171174,6,0,P|232:85|216:23,1,130,4|4,0:3|3:0,0:0:0:0:
157,279,171924,2,0,P|95:295|32:284,1,130,4|8,0:3|0:3,0:0:0:0:
256,240,172486,2,0,P|301:285|362:306,1,130,2|2,0:2|0:2,0:0:0:0:
484,188,173049,2,0,L|476:108,1,65,2|0,0:2|0:0,0:0:0:0:
360,36,173424,5,10,0:2:0:0:
212,212,173611,1,2,0:2:0:0:
212,36,173799,1,2,0:2:0:0:
360,212,173986,1,8,0:3:0:0:
160,352,174174,6,0,P|84:332|24:336,1,130,4|4,0:3|3:0,0:0:0:0:
444,320,174924,2,0,P|464:244|460:184,1,130,4|8,0:3|0:3,0:0:0:0:
384,112,175486,2,0,L|204:128,1,130,2|2,0:2|0:2,0:0:0:0:
168,80,176049,1,4,0:3:0:0:
60,296,176424,5,8,0:0:0:0:
148,348,176611,1,4,0:3:0:0:
244,308,176799,1,8,0:3:0:0:
332,360,176986,1,8,0:3:0:0:
452,192,177174,6,0,L|444:112,2,65,2|2|2,0:0|0:0|0:0,0:0:0:0:
372,60,177736,2,0,P|304:100|244:88,1,130,8|4,0:3|0:3,0:0:0:0:
80,252,178299,5,4,0:3:0:0:
83,157,178486,2,0,P|152:196|171:254,1,130,8|0,0:3|0:0,0:0:0:0:
395,314,179049,5,4,0:3:0:0:
312,358,179236,2,0,P|311:279|352:233,1,130,8|0,0:3|0:0,3:0:0:0:
84,156,179799,1,4,0:3:0:0:
360,32,180174,6,0,L|524:44,1,130,4|4,0:3|3:0,0:0:0:0:
346,306,180924,2,0,L|338:206,2,65,4|8|8,0:3|0:3|0:3,0:0:0:0:
407,208,181486,2,0,P|343:164|271:220,1,130,2|2,0:0|0:0,0:0:0:0:
192,324,182049,2,0,P|160:336|104:328,1,65,2|0,0:0|0:0,0:0:0:0:
48,224,182424,5,8,0:0:0:0:
72,48,182611,1,4,0:3:0:0:
48,224,182799,1,8,0:3:0:0:
72,48,182986,1,4,0:3:0:0:
304,192,183174,6,0,L|444:184,1,130,4|4,0:3|3:0,0:0:0:0:
55,353,183924,2,0,P|56:296|47:213,1,130,4|8,0:3|0:3,0:0:0:0:
152,64,184486,2,0,P|145:128|145:193,1,130,2|2,0:0|0:0,0:0:0:0:
256,312,185049,1,2,0:0:0:0:
336,268,185236,5,4,0:3:0:0:
293,66,185424,1,10,0:0:0:0:
151,303,185611,1,2,0:0:0:0:
116,100,185799,1,2,0:0:0:0:
336,268,185986,1,4,0:3:0:0:
480,96,186174,6,0,P|419:74|359:30,1,130,4|4,0:3|3:0,0:0:0:0:
116,100,186924,2,0,P|55:121|-4:165,1,130,4|8,0:3|0:3,0:0:0:0:
0,295,187486,2,0,P|60:273|120:229,1,130,2|2,0:0|0:0,0:0:0:0:
256,40,188049,1,2,0:0:0:0:
313,273,188424,5,10,0:0:0:0:
142,59,188611,1,2,0:0:0:0:
344,95,188799,1,2,0:0:0:0:
111,236,188986,1,2,0:0:0:0:
256,40,189174,5,4,3:0:0:0:
256,192,189361,12,4,192174,0:3:0:0:
256,192,193017,12,0,193767,0:0:0:0:
