osu file format v7

[General]
AudioFilename: Bananaphone.mp3
AudioLeadIn: 0
PreviewTime: 10930
Countdown: 1
SampleSet: Normal
StackLeniency: 0.7
Mode: 0
LetterboxInBreaks: 1
StoryFireInFront: 0
SkinPreference:Default

[Editor]
Bookmarks: 5558,20198,32066,53165,74204,105808,116440,137448,163510
DistanceSpacing: 0.800000011920929
BeatDivisor: 6
GridSize: 8

[Metadata]
Title:Bananaphone
Artist:Raffi
Creator:thepianist
Version:Crackers
Source:
Tags:Banana Phone Raffi Childrens Annoying English

[Difficulty]
HPDrainRate:3
CircleSize:4
OverallDifficulty:2
SliderMultiplier:1
SliderTickRate:1

[Events]
//Background and Video events
0,0,"Bg3.jpg"
//Break Periods
2,14260,14645
2,35371,35754
//Storyboard Layer 0 (Background)
//Storyboard Layer 1 (Fail)
//Storyboard Layer 2 (Pass)
//Storyboard Layer 3 (Foreground)
//Storyboard Sound Samples
//Background Colour Transformations
3,100,255,128,0

[TimingPoints]
5565,329.67032967033,4,1,0,100,1,0
5723,-100,4,2,0,100,0,0
5890,-100,4,2,0,100,0,0
6725,-100,4,2,0,100,0,0
6890,-100,4,1,0,100,0,0
8520,-100,4,2,0,100,0,0
9500,-100,4,1,0,100,0,0
10924,330.123796423659,4,2,0,100,1,0
20200,329.67032967033,4,2,0,100,1,0
21681,-100,4,2,0,100,0,0
21820,329.67032967033,4,2,0,100,1,0
29706,-100,4,1,0,100,0,0
31848,-100,4,2,0,100,0,0
36950,-100,4,2,0,100,0,0
52809,-100,4,1,0,100,0,0
52973,-100,4,2,0,100,0,0
53155,329.67032967033,4,2,0,100,1,0
56646,-100,4,2,0,72,0,0
58400,-100,4,2,0,100,0,0
63740,327.868852459016,4,2,0,100,1,0
73084,-100,4,1,0,100,0,0
73903,-100,4,2,0,100,0,0
74346,332.871012482663,4,2,0,100,1,0
83333,-100,4,1,0,100,0,0
83999,-100,4,2,0,100,0,0
89935,332.871012482663,4,2,0,100,1,0
92915,331.491712707182,4,2,0,100,1,0
95271,-100,4,1,0,100,0,0

[Colours]
Combo1 : 252,221,3
Combo2 : 244,184,0
Combo3 : 255,255,0
Combo4 : 255,255,128

[HitObjects]
256,192,5564,1,0
256,192,5894,12,4,6883
256,192,8202,5,0
256,192,8586,12,4,9575
256,192,10924,5,8
256,112,11254,1,2
184,152,11584,1,0
184,232,11914,1,2
256,192,12244,2,0,B|384:192,2,100,8|2|0
256,72,13399,6,0,B|256:136,2,50,0|10|0
336,72,14060,1,4
256,192,16205,6,0,B|380:264,1,100,8|2
344,160,16866,2,0,B|468:232,1,100,0|2
440,128,17526,1,8
400,56,17856,1,2
480,56,18186,1,0
360,56,18681,6,0,B|272:56,2,50,0|10|0
360,136,19342,2,0,B|352:392|160:40|0:240,1,450,2|6
232,288,21820,5,2
256,216,22149,2,0,B|216:192|256:112,2,100,8|2|0
376,216,23303,1,12
16,216,24787,6,0,B|160:216,1,100,10|0
192,216,25446,2,0,B|304:232|352:192,2,150,0|10|0
112,80,27094,5,2
192,80,27424,1,8
272,80,27754,1,2
352,80,28083,2,0,B|352:192,3,100,0|2|8|2
352,256,29402,1,0
192,256,30061,5,4
256,192,30226,12,4,31710
256,192,32039,5,0
256,112,32369,2,0,B|376:112,2,100,2|8|2
256,192,33358,1,0
256,272,33688,2,0,B|120:272,1,100,2|8
160,152,34512,6,0,B|160:88,2,50,0|2|0
160,232,35171,1,4
256,40,37314,6,0,B|376:168|184:288,1,300,8|2
152,216,38633,2,0,B|272:152|168:56,1,200,8|2
88,144,39787,6,0,B|128:128|72:104,2,50,0|8|0
8,144,40446,2,0,B|16:320|392:320,1,450,0|4
376,88,42918,5,0
296,88,43248,2,0,B|184:88,2,100,10|0|2
296,208,44402,1,4
16,208,45556,6,0,B|152:208,1,100,0|10
112,128,46215,2,0,B|136:80|104:24,1,100,0|2
176,128,47039,1,4
376,152,47863,5,0
376,232,48193,2,0,B|288:232,1,50,4|0
376,40,49182,5,0
376,120,49512,2,0,B|312:120,1,50,4|0
256,192,50501,12,4,52809
216,112,53155,5,0
296,112,53485,1,2
376,112,53815,1,8
376,192,54144,1,2
296,192,54474,1,0
216,192,54804,1,2
216,272,55133,1,8
336,280,55627,6,0,B|384:336,2,50,0|2|0
280,216,56286,1,4
128,344,57111,2,0,B|288:384|320:280|368:240|368:200,1,300
328,144,58429,6,0,B|296:144|296:144|296:224,2,100,0|2|8
280,80,59418,2,0,B|224:80|176:104,2,100,2|0|2
248,152,60407,1,8
136,200,60902,6,0,B|136:288,2,50
64,240,61561,2,0,B|96:336|296:360|384:248|328:96,1,450,2|6
96,144,64013,5,0
176,144,64341,2,0,B|96:328|368:280,1,316.666666666667
400,280,65543,1,0
128,200,66690,5,0
48,200,67018,2,0,B|104:112,1,100
184,112,67674,2,0,B|256:112,1,66.6666666666667,0|4
440,112,68658,5,0
360,112,68986,1,0
304,184,69368,2,0,B|304:248,1,50
56,184,70570,6,0,B|144:184,1,83.3333333333333
160,240,71117,2,0,B|240:240,1,66.6666666666667
296,240,71608,2,0,B|392:240|256:40,2,225,2|2|4
48,192,74346,5,0
128,192,74678,1,2
208,192,75011,2,0,B|272:192,1,50,8|0
208,80,75677,1,0
288,80,76010,1,2
368,80,76343,1,8
368,200,76842,6,0,B|368:272,1,50
256,200,77508,1,0
216,200,77675,2,0,B|104:200,2,100,0|2|4
40,40,79339,5,0
120,40,79671,1,2
200,40,80004,1,0
280,40,80337,2,0,B|336:40,1,50,10|0
328,160,81003,2,0,B|208:160,2,100,0|2|8
440,112,82168,6,0,B|440:176,1,50,0|2
440,320,83000,1,10
280,320,83666,1,4
280,80,84665,5,0
200,80,84997,2,0,B|160:40|96:80,1,100,8|0
72,96,85497,1,0
40,152,85774,1,0
40,248,86204,6,0,B|112:248,1,66.6666666666667,0|8
112,192,86662,2,0,B|216:192,1,100,0|4
368,192,87605,5,0
432,192,87882,2,0,B|432:104|304:64,1,150
160,72,89158,6,0,B|248:72,2,50,0|0|4
160,176,89935,5,0
160,256,90268,2,0,B|320:256,1,150,2|0
312,136,91266,1,0
256,192,91599,2,0,B|424:192,1,150,2|0
408,312,92597,6,0,B|408:240,2,50,0|0|2
328,312,93246,1,0
248,312,93577,1,2
168,312,93909,2,0,B|72:248|160:232,4,100,0|10|0|10|4
