osu file format v9

[General]
AudioFilename: 03 Subterranean Homesick Alien.mp3
AudioLeadIn: 0
PreviewTime: 57618
Countdown: 0
SampleSet: Normal
StackLeniency: 0.7
Mode: 0
LetterboxInBreaks: 1

[Editor]
DistanceSpacing: 0.8
BeatDivisor: 2
GridSize: 8

[Metadata]
Title:Subterranean Homesick Alien
Artist:Radiohead
Creator:nooodl
Version:Normal
Source:OK Computer
Tags:alternative

[Difficulty]
HPDrainRate:4
CircleSize:5
OverallDifficulty:5
ApproachRate:4
SliderMultiplier:1.4
SliderTickRate:1

[Events]
//Background and Video events
0,0,"sha2.jpg"
//Break Periods
2,48234,56694
2,76864,84820
//Storyboard Layer 0 (Background)
//Storyboard Layer 1 (Fail)
//Storyboard Layer 2 (Pass)
//Storyboard Layer 3 (Foreground)
//Storyboard Sound Samples
//Background Colour Transformations
3,100,128,206,194

[TimingPoints]
10139,394.303425251134,3,1,0,100,1,0
29065,395.203425251134,3,1,0,100,1,0
57618,396.803425251134,3,1,0,100,1,0
86121,401.003425251135,3,1,0,100,1,0
90949,393.803425251134,3,1,0,100,1,0
105092,400.303425251135,3,1,0,100,1,0
157800,393.003425251133,3,1,0,100,1,0
171948,404.503425251134,3,1,0,100,1,0
179229,401.803425251134,3,1,0,100,1,0

[Colours]
Combo1 : 235,130,84
Combo2 : 180,137,226
Combo3 : 69,129,201
Combo4 : 87,166,68

[HitObjects]
96,72,10139,1,0
264,72,10730,2,0,B|336:40|392:136,1,140
381,119,11321,1,2
248,216,11913,1,8
112,320,12504,5,0
72,160,13096,2,0,B|128:216|192:136,1,140
189,138,13687,1,2
208,248,14082,1,8
296,184,14476,1,8
320,296,14870,1,0
80,64,16053,6,0,B|152:88,1,70,2|0
112,136,16447,2,0,B|184:160,1,70,2|0
144,208,16842,1,2
256,208,17236,1,4
464,48,18419,5,8
400,136,18813,1,8
336,48,19207,1,8
264,136,19602,2,0,B|160:208|64:128,1,210
128,72,20489,1,0
208,48,20785,1,2
432,72,21573,5,0
376,168,21968,2,0,B|472:200|472:272|416:328,1,210
336,312,22855,1,0
304,232,23151,1,2
96,128,25516,6,2,B|136:72,1,70
248,72,26108,1,0
360,72,26502,2,0,B|400:128,1,70,0|2
96,272,27882,1,4
200,312,28276,1,0
312,312,28671,1,0
400,248,29065,6,0,B|344:40|160:304|88:128|80:40,1,420
112,288,31436,2,2,B|168:80|352:344|424:168|432:80,1,420
96,72,33807,5,2
120,184,34202,1,0
216,256,34597,2,0,B|272:232|272:176|248:128,1,140
352,88,35388,1,8
352,88,35585,1,0
352,88,35783,1,8
256,136,37364,6,0,B|304:56|416:48|496:160|440:280|336:296|264:240,1,420,0|4
120,176,39142,1,0
160,72,39537,1,0
160,72,39735,1,2
408,208,40525,1,0
328,288,40921,2,0,B|248:320|224:288|224:288|200:256|120:288,2,210
384,80,43687,6,8,B|304:120|248:72,2,140
152,240,45465,1,0
152,240,45663,1,2
256,192,46058,12,0,48034
184,112,58014,6,0,B|264:128,1,70
304,136,58411,1,0
232,216,58808,1,2
480,32,59998,2,0,B|408:16|360:88,1,140
408,128,60594,2,0,B|328:208|216:136,1,210,0|2
376,64,61982,6,0,B|400:88|472:80,2,70
152,128,63173,1,2
152,240,63570,1,2
344,128,64363,1,0
344,240,64760,2,0,B|336:304|248:344|176:304,2,210,0|0|4
64,56,67141,5,8
176,40,67538,1,0
288,72,67934,1,0
400,56,68331,2,0,B|504:128|408:264,4,210
296,136,71109,1,0
168,232,71506,1,0
48,320,71902,2,0,B|496:320,1,420
256,192,74283,12,4,76664
112,112,86140,6,0,B|184:64|264:56|312:96,2,210
184,200,87725,1,2
288,160,88126,1,2
392,112,88527,2,2,B|416:184|368:280|288:304,2,210
480,184,90131,1,8
440,288,90532,1,8
328,312,90949,6,0,B|264:280,1,70
328,184,91539,1,8
472,96,92130,2,0,B|432:48|384:64,1,70
312,104,92721,1,8
152,56,93311,6,0,B|104:88|112:120,1,70
176,200,93902,1,8
312,104,94493,1,2
352,208,94887,1,2
352,208,95083,1,0
352,208,95280,1,2
456,256,95674,6,0,B|392:304|304:304|216:240,2,210
392,160,97249,1,8
280,144,97643,1,8
168,128,98037,2,2,B|80:176|80:256|136:320,2,210
264,72,99612,1,8
376,96,100006,1,8
256,192,100400,12,0,103944
304,104,105092,5,0
136,80,105692,1,0
40,216,106292,1,0
120,296,106693,2,2,B|176:336|256:296,1,140
344,232,107493,2,0,B|400:184|400:80|320:8,2,210
280,136,109095,2,0,B|242:56|151:63|79:123|102:209,1,280,0|4
240,56,112297,6,2,B|320:88,1,70
264,120,112697,2,0,B|184:152,1,70
240,184,113098,1,2
360,320,114699,6,2,B|440:288,1,70
384,256,115099,2,0,B|304:224,1,70
360,192,115499,1,2
176,56,116300,2,0,B|112:88|96:128|120:200,1,140
216,128,117101,6,8,B|256:192|176:248,1,140
288,240,117901,1,0
328,136,118302,1,8
56,336,119502,6,2,B|128:312,1,70
88,272,119903,2,0,B|152:248,1,70
112,208,120303,1,2
464,56,121904,6,2,B|400:80,1,70
440,120,122305,2,0,B|376:144,1,70
416,184,122705,1,2
112,232,124306,6,8,B|152:120|264:112|320:192,2,210
184,312,125907,1,0
280,256,126308,1,0
376,200,126708,1,4
64,72,127909,2,2,B|128:32|224:72,3,140,0|0|0|6
