osu file format v3

[General]
AudioFilename: 07 - Just.mp3
AudioLeadIn: 0
AudioHash: 93b879e71b7beda5f792ac7188521fdc
PreviewTime: -1
SampleSet: Normal

[Metadata]
Title:Just
Artist:Radiohead
Creator:caelus
Version:Insane

[Difficulty]
HPDrainRate:6
CircleSize:7
OverallDifficulty:6
SliderMultiplier: 1.8
SliderTickRate: 1

[Events]
2,65639,81658
2,115283,125332
2,189579,204763
3,0,163,162,255

[TimingPoints]
16794,684.775165487332

[HitObjects]
368,128,16793,1,0,
288,128,17136,1,0,
208,128,17478,1,0,
208,208,17821,1,0,
240,240,17992,1,0,
176,304,18505,1,0,
96,240,18848,1,0,
96,80,19533,5,0,
192,144,20217,1,0,
224,112,20389,1,0,
304,64,20731,1,0,
384,112,21245,1,0,
416,144,21416,1,0,
304,192,21929,1,0,
304,240,22101,1,0,
304,288,22272,5,0,
240,288,22614,1,0,
176,288,22956,1,0,
208,240,23299,1,0,
240,176,23984,1,0,
272,128,24326,1,0,
320,32,25011,5,2,
96,80,25524,5,0,
128,48,25696,1,0,
160,80,25867,1,0,
128,144,26209,1,0,
128,224,26723,1,0,
128,288,27065,1,0,
288,224,27750,5,2,
400,80,28435,5,0,
448,96,28606,1,0,
416,160,28948,2,0,B|416:160|461:193|453:285|384:352,1,180
368,272,29975,1,0,
352,320,30147,1,0,
288,320,30489,5,0,
240,272,30831,1,0,
192,224,31174,1,0,
176,288,31516,1,0,
128,208,32201,1,0,
96,160,32543,1,0,
208,64,33228,5,2,
288,160,33742,5,0,
336,176,33913,1,0,
304,208,34084,1,0,
368,288,34426,1,0,
256,288,34940,1,0,
192,288,35282,1,0,
80,144,35967,5,2,
288,240,36481,5,0,
256,208,36652,1,0,
304,192,36823,1,0,
368,96,37166,1,0,
272,96,37679,1,0,
192,96,38022,2,0,B|192:96|0:96,1,180
16,160,39049,1,0,
16,224,39391,1,0,
16,288,39733,1,0,
80,336,40076,5,0,
80,272,40418,1,0,
80,208,40761,1,0,
80,144,41103,1,0,
144,176,41445,2,0,B|144:176|154:105|238:85|295:64|336:176|384:128,1,270
368,208,42815,5,2,
256,128,43500,1,2,
144,128,44185,5,6,
144,192,44527,1,0,
144,256,44869,1,0,
256,304,45212,1,0,
304,288,45383,1,0,
352,272,45554,2,0,B|352:272|368:240|336:135|267:131|272:160,1,135
304,112,46410,1,0,
256,128,46581,1,0,
176,112,46924,5,0,
144,160,47266,1,0,
112,208,47608,2,0,B|112:208|32:320,1,135
352,224,48636,5,2,
320,176,48807,1,0,
288,128,48978,1,2,
240,128,49149,1,0,
192,112,49320,1,2,
176,64,49492,1,0,
240,48,49663,2,0,B|240:48|272:48|336:48|368:80|384:128|386:131|400:176,1,225
400,240,50861,2,0,B|400:240|400:304|272:352|224:352,1,180
160,304,51888,1,0,
128,256,52059,1,0,
96,208,52231,1,0,
64,160,52402,5,2,
160,144,52744,1,0,
224,128,52915,1,2,
304,112,53258,1,0,
384,96,53600,1,2,
416,160,54114,5,0,
448,192,54285,1,0,
416,224,54456,1,0,
368,272,54799,1,0,
320,272,54970,1,0,
256,192,55141,12,0,59934
256,192,60619,12,0,65413
416,272,82532,5,2,
304,208,83045,5,0,
320,256,83217,1,0,
352,224,83388,1,0,
208,160,83730,1,0,
144,240,84244,1,0,
96,208,84586,1,0,
64,80,85271,5,2,
192,144,85785,5,0,
192,96,85956,1,0,
240,128,86127,1,0,
320,64,86469,1,0,
432,176,86983,1,0,
432,288,87325,1,0,
304,288,87668,1,0,
288,192,88010,5,2,
224,176,88353,1,0,
160,160,88695,1,0,
96,144,89037,1,0,
80,208,89380,5,2,
144,224,89722,1,0,
208,240,90064,1,0,
272,256,90407,1,0,
192,176,90749,6,0,B|192:176|217:87|272:32|344:29|400:80,1,270
320,96,92119,5,2,
304,144,92461,1,0,
288,192,92804,1,2,
272,240,93146,1,0,
256,288,93488,1,2,
352,256,93831,1,0,
448,224,94173,1,0,
400,160,94515,1,0,
368,128,94687,1,0,
336,96,94858,2,0,B|336:96|304:80|248:74|209:109|224:176,1,135
240,192,95714,1,0,
192,192,95885,1,0,
176,272,96227,5,0,
224,304,96570,1,0,
288,304,96912,2,0,B|288:304|416:176,1,135
304,144,97939,5,2,
272,176,98111,1,0,
240,208,98282,1,2,
208,240,98453,1,0,
176,272,98624,1,2,
144,240,98795,1,0,
112,208,98967,2,0,B|112:208|112:176|112:112|144:80|192:64|195:62|240:48,1,225
288,48,100165,2,0,B|288:48|400:53|416:176|416:192,1,180
400,224,101192,1,0,
352,256,101363,1,0,
304,288,101534,1,0,
352,304,101706,5,2,
352,304,102048,1,0,
400,272,102219,1,0,
400,160,102562,1,0,
400,64,102904,1,0,
304,64,103418,5,0,
304,112,103589,1,0,
304,160,103760,1,0,
224,160,104102,1,0,
224,112,104274,1,0,
224,64,104445,2,0,L|224:64|160:128|96:64|32:128,1,270
32,192,105814,2,0,L|32:192|95:130|159:194|223:130,1,270
224,192,107184,2,0,L|224:192|160:256|96:192|32:256,1,270
32,320,108553,2,0,L|32:320|95:258|159:322|223:258,1,270
224,208,109923,2,0,L|224:208|288:144|224:80|288:16,1,270
352,16,111292,2,0,L|352:16|290:79|354:143|290:207,1,270
352,208,112662,2,0,L|352:208|416:144|352:80|416:16,1,270
480,16,114032,2,0,L|480:16|418:79|482:143|418:207,1,270
368,128,126358,5,0,
368,192,126700,1,0,
368,256,127042,1,0,
256,256,127556,1,0,
144,176,127898,1,0,
144,176,128069,1,0,
240,128,128412,1,0,
144,256,129097,5,0,
144,176,129439,1,0,
144,96,129781,1,0,
208,224,130295,1,0,
208,128,130637,1,0,
208,128,130809,1,0,
288,128,131151,1,0,
384,128,131493,5,0,
384,176,131665,1,0,
384,224,131836,2,0,B|384:224|385:290|349:318|294:330|240:320,1,180
176,320,132863,1,0,
176,272,133034,1,0,
176,224,133205,2,0,B|176:224|168:192|180:137|208:101|274:102,1,180
288,208,134575,5,0,
288,208,135260,1,0,
336,96,135602,1,0,
384,96,135773,1,0,
384,176,136116,1,0,
336,176,136287,1,0,
320,256,136629,1,0,
288,80,137314,5,0,
288,80,137999,1,0,
208,160,138341,1,0,
240,192,138512,1,0,
192,272,138855,1,0,
160,240,139026,1,0,
128,144,139368,1,0,
32,64,140053,5,2,
176,64,140395,1,2,
320,64,140738,1,2,
464,64,141080,1,2,
464,208,141423,1,2,
320,208,141765,1,2,
176,208,142107,1,2,
32,208,142450,1,2,
32,64,142792,6,0,B|32:64|416:64,1,360
256,192,144846,12,0,145531
320,144,145874,2,0,B|320:144|256:224,1,90
208,176,146558,1,0,
144,144,146901,1,0,
64,288,147414,2,2,B|64:288|144:336,1,90
256,320,148270,5,0,
288,256,148613,1,0,
320,192,148955,1,0,
352,128,149297,1,0,
384,64,149640,1,0,
208,32,150153,2,2,B|208:32|160:128,1,90
80,80,151009,5,0,
112,144,151352,1,0,
144,208,151694,1,0,
176,272,152037,1,0,
208,336,152379,1,0,
400,336,152893,2,2,B|400:336|384:208,1,90
256,48,153749,5,0,
256,112,154091,1,0,
256,176,154433,1,0,
256,240,154776,1,0,
256,304,155118,5,0,
192,304,155460,1,0,
128,304,155803,1,0,
64,304,156145,1,0,
0,304,156488,2,0,B|0:304|144:144,1,180
192,144,157515,1,0,
240,128,157686,1,0,
224,176,157857,1,0,
336,224,158371,2,2,B|336:224|432:224,1,90
432,144,159227,5,0,
352,96,159569,1,0,
320,176,159912,1,0,
288,144,160083,1,0,
256,224,160425,1,0,
192,272,160939,5,2,
144,256,161110,1,0,
96,240,161281,1,0,
144,208,161452,1,0,
96,176,161623,1,2,
144,160,161795,1,0,
192,144,161966,2,0,B|192:144|224:128|304:128|368:144|400:176|416:208,1,225
448,240,163164,1,0,
336,112,163849,6,2,B|336:112|288:32,1,90
208,144,164705,5,0,
112,144,165047,1,0,
128,192,165219,1,0,
160,272,165561,1,0,
192,352,165903,1,0,
272,304,166417,2,2,B|272:304|352:352|448:336|480:288|480:288,1,180
256,192,167444,12,0,168471
256,192,168814,12,0,169841
256,192,170183,12,0,171210
256,192,171553,12,0,172580
256,192,172922,12,0,173949
256,192,174292,12,0,175319
256,192,175661,12,0,176689
256,192,177031,12,0,178058
256,192,178400,12,0,179085
400,336,179428,1,2,
256,192,179770,12,0,180455
368,208,180797,1,0,
256,192,181140,12,0,181824
272,272,182167,1,0,
256,192,182509,12,0,183194
160,336,183536,1,0,
256,192,183879,12,0,184563
96,208,184906,1,0,
256,192,185248,12,0,185933
208,128,186275,1,0,
256,192,186618,12,0,187303
304,32,187645,1,0,
256,192,187987,12,4,189357
320,144,205791,1,2,
352,176,205963,1,2,
320,208,206134,1,2,
272,272,206476,1,0,
304,304,206647,1,0,
256,320,206819,1,0,
224,288,206990,1,0,
128,144,207332,5,2,
144,96,207503,1,2,
208,144,207846,1,0,
240,176,208017,1,0,
208,208,208188,1,0,
240,240,208359,1,0,
336,176,208702,5,2,
336,128,208873,1,2,
400,160,209215,1,0,
448,160,209387,1,0,
448,208,209558,1,0,
400,208,209729,1,0,
416,80,210071,5,2,
368,80,210242,1,2,
336,112,210414,1,2,
288,112,210585,1,2,
256,144,210756,1,2,
208,144,210927,1,2,
176,176,211098,1,2,
128,176,211270,5,0,
96,208,211441,1,0,
128,240,211612,1,0,
192,208,211954,1,0,
304,176,212297,5,0,
272,208,212468,1,0,
304,240,212639,1,0,
368,208,212982,1,0,
448,208,213324,5,0,
480,240,213495,1,0,
512,208,213666,1,0,
480,144,214009,1,0,
448,64,214351,5,0,
480,96,214522,1,0,
512,64,214694,1,0,
480,0,215036,1,0,
256,0,215378,5,0,
288,32,215549,1,0,
256,64,215721,1,0,
288,96,215892,1,0,
256,128,216063,1,0,
288,160,216234,1,0,
320,192,216405,1,0,
352,224,216577,1,0,
320,304,216748,5,0,
272,304,216919,1,0,
224,304,217090,1,0,
144,304,217433,1,0,
320,256,217775,5,0,
272,256,217946,1,0,
224,256,218117,1,0,
144,256,218460,1,0,
320,208,218802,5,0,
272,208,218973,1,0,
224,208,219145,1,0,
144,208,219487,1,0,
320,160,219829,5,0,
272,160,220001,1,0,
224,160,220172,1,0,
144,160,220514,5,2,
144,208,220685,1,2,
144,256,220856,1,2,
144,304,221028,1,2,
192,304,221199,1,2,
192,256,221370,1,2,
192,208,221541,1,2,
192,160,221712,1,2,
192,112,221884,1,2,
320,272,222226,5,0,
320,224,222397,1,0,
368,224,222568,1,0,
400,304,222911,1,2,
192,272,223253,5,0,
192,224,223424,1,0,
144,224,223596,1,0,
112,304,223938,1,2,
144,160,224280,5,0,
192,160,224452,1,0,
192,112,224623,1,0,
112,80,224965,1,2,
320,112,225308,5,0,
320,160,225479,1,0,
368,160,225650,1,0,
416,80,225992,1,2,
352,192,226335,5,0,
336,144,226506,1,0,
304,112,226677,1,0,
256,96,226848,1,0,
208,112,227019,1,0,
176,144,227191,1,0,
160,192,227362,1,0,
176,240,227533,1,0,
224,240,227704,5,0,
272,240,227875,1,0,
320,240,228047,1,0,
272,144,228389,1,2,
320,288,228731,5,0,
368,288,228903,1,0,
416,288,229074,1,0,
368,368,229416,1,2,
416,240,229759,5,0,
464,240,229930,1,0,
512,240,230101,1,0,
464,160,230443,2,4,B|464:160|464:128|432:96|400:96|368:96|352:112|336:144|336:160,1,180
