osu file format v3

[General]
AudioFilename: 07 - Just.mp3
AudioLeadIn: 0
AudioHash: 93b879e71b7beda5f792ac7188521fdc
PreviewTime: -1
SampleSet: Normal

[Metadata]
Title:Just
Artist:Radiohead
Creator:caelus
Version:Hard

[Difficulty]
HPDrainRate:5
CircleSize:5
OverallDifficulty:5
SliderMultiplier: 1.8
SliderTickRate: 1

[Events]
2,65938,81300
2,115283,125332
2,189579,204763
3,0,163,162,255

[TimingPoints]
16794,684.750513112885

[HitObjects]
144,128,16794,1,0,
224,128,17478,1,0,
224,208,17821,1,0,
288,224,17992,1,0,
352,272,18505,1,0,
400,208,18848,1,0,
416,80,19533,5,0,
320,144,20217,1,0,
272,112,20388,1,0,
192,144,20731,1,0,
256,208,21244,1,0,
304,240,21416,1,0,
384,240,21929,6,0,B|384:240|384:128,1,100
320,144,22614,1,0,
256,144,22956,1,0,
288,208,23299,1,0,
208,208,23983,1,0,
144,208,24326,1,0,
80,96,25011,5,2,
256,96,25524,5,0,
304,112,25695,1,0,
384,144,26209,1,0,
384,224,26722,1,0,
384,288,27065,1,0,
224,224,27750,5,2,
112,80,28434,5,0,
64,96,28605,1,0,
96,160,28948,2,0,B|96:160|51:193|59:285|128:352,1,180
160,320,30146,1,0,
224,320,30489,5,0,
272,272,30831,1,0,
320,224,31173,1,0,
336,288,31516,1,0,
384,208,32200,1,0,
416,160,32543,1,0,
304,64,33228,5,2,
224,144,33741,5,0,
272,192,33912,1,0,
208,208,34083,1,0,
144,288,34426,1,0,
240,288,34939,1,0,
320,288,35282,1,0,
432,144,35967,5,2,
224,240,36480,5,0,
272,192,36651,1,0,
208,176,36822,1,0,
144,96,37165,1,0,
240,96,37678,1,0,
320,96,38021,2,0,B|320:96|512:96,1,180
496,160,39048,1,0,
496,224,39390,1,0,
496,288,39733,1,0,
432,336,40075,5,0,
432,272,40417,1,0,
432,208,40760,1,0,
432,144,41102,1,0,
336,240,41445,2,0,B|336:240|320:256|240:288|192:272|144:224|96:176,1,270
160,128,42814,5,2,
256,128,43499,1,2,
352,128,44184,1,6,
352,192,44526,1,0,
352,256,44868,1,0,
256,304,45211,1,0,
208,288,45382,1,0,
160,272,45553,2,0,B|160:272|144:240|176:135|245:131|240:160,1,135
256,128,46580,1,0,
336,112,46923,5,0,
368,160,47265,1,0,
400,208,47607,2,0,B|400:208|480:320,1,135
240,272,48634,5,2,
192,240,48806,1,0,
224,192,48977,1,2,
288,128,49319,1,2,
320,80,49490,1,0,
272,48,49662,2,0,B|272:48|240:48|176:48|144:80|128:128|126:131|112:176,1,225
112,240,50860,2,0,B|112:240|112:304|240:352|288:352,1,180
352,304,51887,1,0,
384,256,52058,1,0,
416,208,52229,1,0,
448,160,52401,5,2,
288,128,53085,1,2,
128,96,53770,1,2,
96,160,54112,2,0,B|96:160|128:256,1,90
144,304,54797,1,0,
208,320,55140,6,0,B|208:320|496:320,1,270
480,256,56509,2,0,B|480:256|192:256,1,270
208,192,57879,2,0,B|208:192|496:192,1,270
480,128,59248,2,0,B|480:128|192:128,1,270
160,80,60618,2,0,B|160:80|160:368,1,270
224,352,61987,2,0,B|224:352|224:64,1,270
288,80,63357,2,0,B|288:80|288:368,1,270
352,352,64726,2,0,B|352:352|352:64,1,270
96,272,82530,5,2,
160,208,83043,5,0,
192,256,83214,1,0,
224,208,83385,1,0,
304,160,83728,1,0,
336,240,84241,1,0,
416,208,84584,1,0,
448,80,85269,5,2,
336,112,85782,5,0,
320,176,85953,1,0,
256,160,86124,1,0,
144,128,86467,1,0,
112,224,86980,1,0,
144,320,87323,1,0,
192,224,87665,1,0,
256,256,88008,5,2,
304,208,88350,1,0,
352,160,88692,1,0,
400,112,89035,1,0,
416,176,89377,5,2,
368,224,89719,1,0,
320,272,90062,1,0,
272,320,90404,1,0,
416,320,90747,5,6,
192,96,92116,5,2,
256,192,92801,1,2,
320,288,93486,1,2,
256,288,93828,1,0,
192,288,94170,1,0,
144,192,94513,1,0,
160,144,94684,1,0,
176,96,94855,2,0,B|176:96|208:80|264:74|303:109|288:176,1,135
320,192,95882,1,0,
336,272,96225,5,0,
288,304,96567,1,0,
224,304,96909,2,0,B|224:304|96:176,1,135
176,176,97936,5,2,
208,128,98108,1,0,
256,160,98279,1,2,
288,192,98450,1,0,
320,224,98621,1,2,
368,256,98792,1,0,
400,208,98964,2,0,B|400:208|400:176|400:112|368:80|320:64|317:62|272:48,1,225
208,48,100162,2,0,B|208:48|144:48|96:176|96:224,1,180
144,288,101189,1,0,
192,272,101360,1,0,
224,320,101531,1,0,
176,336,101703,5,2,
320,224,102216,1,0,
336,144,102559,1,0,
352,64,102901,1,0,
288,32,103414,2,0,B|288:32|192:64,1,90
144,80,104099,1,0,
112,16,104442,2,0,B|112:16|0:96|176:208|48:272,1,270
144,256,105811,2,0,B|144:256|256:176|80:64|208:0,1,270
272,16,107181,2,0,B|272:16|160:96|336:208|208:272,1,270
304,256,108550,2,0,B|304:256|416:176|240:64|368:0,1,270
400,48,109920,2,0,B|400:48|320:160|208:-16|144:112,1,270
156,171,111289,2,0,B|156:171|208:64|320:240|400:128,1,270
400,208,112659,2,0,B|400:208|320:320|208:144|144:272,1,270
160,336,114028,2,0,B|160:336|212:229|324:405|404:293,1,270
144,128,126354,5,0,
144,240,127038,1,0,
256,240,127552,1,0,
256,128,127894,1,0,
256,128,128065,1,0,
336,128,128408,1,0,
336,240,129093,5,0,
336,240,129777,1,0,
224,240,130291,1,0,
224,128,130633,1,0,
224,128,130804,1,0,
144,128,131147,1,0,
144,240,131489,5,0,
80,240,131660,1,0,
16,240,131832,2,0,B|16:240|15:306|51:334|106:346|160:336,1,180
208,336,132859,1,0,
272,336,133030,1,0,
342,338,133201,2,0,B|342:338|374:346|429:334|465:306|464:240,1,180
288,80,134571,5,0,
288,80,135255,1,0,
384,96,135598,1,0,
384,160,135769,1,0,
320,240,136111,1,0,
256,240,136282,1,0,
176,192,136625,1,0,
224,80,137310,5,0,
224,80,137994,1,0,
128,96,138337,1,0,
128,160,138508,1,0,
192,240,138850,1,0,
256,240,139021,1,0,
336,192,139364,1,0,
112,192,140049,5,2,
240,64,140391,1,2,
416,96,140733,1,2,
336,256,141076,1,2,
192,144,141418,1,2,
144,320,141760,1,2,
96,144,142103,1,2,
256,64,142445,1,2,
400,176,142788,1,4,
256,192,144842,12,0,145527
192,144,145869,2,0,B|192:144|256:224,1,90
304,176,146554,1,0,
368,144,146896,1,0,
416,240,147410,2,2,B|416:240|336:288,1,90
256,320,148266,5,0,
224,256,148608,1,0,
192,192,148950,1,0,
160,128,149293,1,0,
128,64,149635,1,0,
208,64,150149,2,2,B|208:64|256:160,1,90
432,80,151005,5,0,
400,144,151347,1,0,
368,208,151689,1,0,
336,272,152032,1,0,
304,336,152374,1,0,
192,336,152888,2,2,B|192:336|208:208,1,90
256,48,153744,5,0,
256,112,154086,1,0,
256,176,154428,1,0,
256,240,154771,1,0,
256,304,155113,5,0,
320,304,155455,1,0,
384,304,155798,1,0,
448,304,156140,1,0,
512,304,156483,2,0,B|512:304|368:144,1,180
336,128,157510,1,0,
272,112,157681,1,0,
288,176,157852,1,0,
176,224,158366,2,2,B|176:224|80:224,1,90
80,144,159222,5,0,
160,96,159564,1,0,
176,176,159906,1,0,
224,144,160078,1,0,
256,224,160420,1,0,
320,288,160933,5,2,
384,272,161105,1,0,
448,256,161276,1,0,
448,176,161618,1,2,
384,160,161789,1,0,
320,144,161961,2,0,B|320:144|288:128|208:128|144:144|112:176|96:208,1,225
64,240,163159,1,0,
112,144,163844,2,2,B|112:144|160:64,1,90
304,144,164700,5,0,
400,144,165042,1,0,
400,208,165213,1,0,
400,288,165556,1,0,
400,368,165898,1,0,
304,320,166411,2,2,B|304:320|224:368|128:352|96:304|96:304,1,180
256,192,167439,6,0,B|256:192|320:144|416:112|448:128|496:160|512:176,1,270
512,224,168808,2,0,B|512:224|448:272|352:304|320:288|272:256|256:240,1,270
208,288,170178,2,0,B|208:288|160:224|128:128|144:96|176:48|192:32,1,270
240,16,171547,2,0,B|240:16|288:96|320:192|304:224|272:272|256:288,1,270
256,192,172917,2,0,B|256:192|192:144|96:112|64:128|16:160|0:176,1,270
0,224,174286,2,0,B|0:224|64:272|160:304|192:288|240:256|256:240,1,270
240,368,175656,2,0,B|240:368|288:288|320:192|304:160|272:112|256:96,1,270
208,96,177025,2,0,B|208:96|160:160|128:256|144:288|176:336|192:352,1,270
256,192,178395,12,0,179079
112,336,179422,1,2,
256,192,179764,12,0,180449
160,288,180791,1,2,
256,192,181134,12,0,181818
224,256,182161,1,2,
256,192,182503,12,0,183188
288,240,183530,1,2,
256,192,183873,12,0,184557
320,192,184900,1,2,
256,192,185242,12,0,185927
272,160,186269,1,2,
256,192,186612,12,0,187296
240,112,187639,1,2,
256,192,187981,12,4,189351
176,208,205785,2,2,B|176:208|272:208,1,90
224,272,206469,1,0,
272,304,206641,1,0,
320,272,206812,1,0,
368,240,206983,1,0,
400,144,207325,6,2,B|400:144|352:112,1,45
304,144,207839,1,0,
272,192,208010,1,0,
224,224,208181,1,0,
176,192,208352,1,0,
112,112,208695,6,2,B|112:112|64:160,1,45
64,208,209208,1,0,
96,256,209380,1,0,
144,288,209551,1,0,
192,256,209722,1,0,
192,176,210064,5,0,
160,128,210236,1,0,
192,80,210407,1,0,
240,48,210578,1,0,
288,80,210749,1,0,
320,128,210920,1,0,
288,176,211091,1,0,
240,128,211263,6,0,B|240:128|240:320,1,180
240,320,212290,2,0,B|240:320|400:224,1,180
400,224,213317,2,0,B|400:224|208:112,1,180
240,128,214344,2,0,B|240:128|240:320,1,180
304,336,215371,5,0,
352,304,215542,1,0,
304,272,215714,1,0,
352,240,215885,1,0,
304,208,216056,1,0,
352,176,216227,1,0,
304,144,216398,1,0,
224,144,216741,2,0,B|224:144|32:144,1,180
48,144,217768,2,0,B|48:144|48:336,1,180
48,320,218795,2,0,B|48:320|256:320,1,180
224,320,219822,2,0,B|224:320|224:128,1,180
272,192,220849,5,2,
336,192,221020,1,0,
400,192,221192,1,0,
400,272,221534,1,2,
336,272,221705,1,0,
272,272,221876,1,0,
192,272,222219,5,0,
144,240,222390,1,0,
96,208,222561,1,0,
96,304,222903,1,2,
320,272,223246,5,0,
368,240,223417,1,0,
416,208,223588,1,0,
416,304,223931,1,2,
416,128,224273,5,0,
368,96,224444,1,0,
320,64,224615,1,0,
416,32,224958,1,2,
192,64,225300,5,0,
144,96,225471,1,0,
96,128,225642,1,0,
96,32,225985,1,2,
96,224,226327,5,0,
160,224,226498,1,0,
224,224,226670,1,0,
288,224,226841,1,0,
352,224,227012,1,0,
416,224,227183,1,0,
480,224,227354,1,0,
352,144,227697,5,0,
288,144,227868,1,0,
224,144,228039,1,0,
288,64,228381,1,2,
288,224,228724,5,0,
224,224,228895,1,0,
160,224,229066,1,0,
224,304,229409,1,2,
224,144,229751,5,0,
160,144,229922,1,0,
96,144,230093,1,0,
96,48,230436,2,4,B|96:48|288:48,1,180
