osu file format v5

[General]
AudioFilename: 02 - Radiohead - Bodysnatchers.MP3
AudioLeadIn: 0
PreviewTime: -1
Countdown: 2
SampleSet: Normal
StackLeniency: 0.7
Mode: 0
LetterboxInBreaks: 1
EditorBookmarks: 33745,36792,37509,62906,98765,226073,231169

[Metadata]
Title:Bodysnatchers
Artist:Radiohead
Creator:foulcoon
Version:Hard
Source:
Tags:

[Difficulty]
HPDrainRate:8
CircleSize:5
OverallDifficulty:7
SliderMultiplier:1.4
SliderTickRate:1

[Events]
//Background and Video events
0,0,"inrainbows_1920x1200.jpg"
//Break Periods
2,63999,79341
2,81156,82034
2,95730,96607
2,121386,137190
2,189201,194265
2,212365,217381
2,226273,228995
//Storyboard Layer 0 (Background)
//Storyboard Layer 1 (Failing)
//Storyboard Layer 2 (Passing)
//Storyboard Layer 3 (Foreground)
//Storyboard Sound Samples
//Background Colour Transformations
3,100,0,0,0

[TimingPoints]
12490,354.170355941208,4,1,0,100,1
19943,358.508604206501,4,1,0,100,1
51468,357.440724413201,4,1,0,100,1
82934,359.53978906999,4,1,0,100,1
94452,359.475166257264,4,1,0,100,1
104533,360.598593665485,4,1,0,100,1
113161,356.675781714422,4,1,0,100,1
124582,362.406378352259,4,1,0,100,1
130358,359.66910442393,4,1,0,100,1
144760,360.511926936249,4,1,0,100,1
153401,359.712230215827,4,1,0,100,1
167821,362.603493080317,4,1,0,100,1
183744,362.581580855693,4,1,0,100,1
198240,362.275087549813,4,1,0,100,1
208362,362.209477814669,4,1,0,100,1
212664,362.406378352259,4,1,0,100,1
225710,363.94516559505,4,1,0,100,1
234458,366.434591425431,4,1,0,100,1

[HitObjects]
160,96,12489,1,0
256,96,12667,1,0
192,192,13021,1,0
224,256,13198,1,0
256,320,13375,1,0
224,256,13552,1,0
192,192,13729,1,4
32,32,14437,5,4
96,128,14792,1,0
192,64,15146,1,4
192,224,15677,5,0
224,288,15854,1,0
288,256,16031,1,0
288,192,16208,1,0
224,160,16385,1,0
192,224,16562,1,4
448,288,17448,5,4
416,224,17625,1,4
352,128,17979,2,0,B|288:96|192:256,1,210
160,288,18687,1,0
96,256,18865,1,0
64,192,19042,1,0
96,256,19219,1,0
160,288,19396,1,4
192,64,20122,5,0
288,64,20480,1,0
352,160,20839,2,0,B|256:192|224:224|352:288,1,210
384,320,21556,1,4
320,320,21735,1,0
256,352,21914,1,0
288,288,22094,1,0
224,256,22273,1,4
32,160,22990,5,0
96,160,23169,1,0
96,224,23348,1,0
160,320,23707,2,0,B|256:352|288:288|384:352,1,210
352,288,24424,1,0
320,224,24603,2,4,B|320:160|288:160,3,70
32,96,26037,5,0
128,160,26396,1,0
64,192,26575,1,0
160,256,26933,5,0
224,224,27113,1,4
192,160,27292,1,0
224,224,27471,1,4
256,288,27650,1,0
320,256,27830,1,0
384,224,28009,1,4
96,288,28905,5,0
64,192,29264,1,0
96,128,29443,1,0
160,224,29801,5,0
224,256,29981,1,0
288,224,30160,1,0
256,160,30339,1,0
224,96,30519,1,0
288,96,30698,1,0
256,160,30877,1,4
480,352,31773,5,0
416,256,32132,1,0
384,320,32311,2,0,B|288:320|288:224|416:128|384:64|160:96|32:160|96:288,1,560
320,96,34641,1,0
384,192,35000,1,0
256,192,35179,12,0,37330
160,192,37689,5,0
256,256,38047,1,0
288,96,38585,1,0
320,160,38764,1,0
352,96,38943,1,0
384,160,39123,1,0
416,96,39302,1,0
448,160,39481,1,4
160,96,40198,5,0
224,192,40557,1,0
288,288,40915,1,0
128,224,41453,6,2,B|352:224,1,210
352,288,42170,2,2,B|128:288,1,210
128,224,42887,2,2,B|352:224,1,210
352,160,43604,2,2,B|128:160,1,210
128,96,44321,2,2,B|384:96,1,210
384,128,45038,2,2,B|384:352,1,210
320,320,45755,2,2,B|160:160,1,210
128,128,46472,2,6,B|192:64|288:128|416:32,1,280
224,64,47727,5,4
288,96,47906,1,4
224,128,48085,2,4,B|288:160,1,70
128,192,48802,5,0
224,256,49161,1,0
320,192,49519,1,0
224,128,50236,5,0
288,96,50416,1,0
352,128,50595,1,0
288,160,50774,1,0
224,128,50953,1,4
32,64,51646,5,0
32,160,52004,1,0
128,160,52361,1,0
192,64,52719,5,0
256,64,52897,1,0
352,128,53255,1,0
288,224,53612,1,0
192,192,53970,1,0
192,288,54327,1,0
288,224,54684,1,4
320,288,54863,1,0
384,256,55042,1,4
288,224,55399,1,0
224,128,55757,1,0
320,96,56114,1,4
384,64,56293,1,0
384,128,56472,1,4
32,32,57901,5,0
128,96,58259,2,0,B|224:128|256:224,1,140
192,288,58974,1,0
256,256,59152,1,0
320,224,59331,1,0
352,288,59510,1,4
160,160,60225,5,4
256,96,60582,1,0
352,160,60940,1,4
352,256,61297,1,0
352,256,61476,1,0
224,256,61833,1,0
160,224,62012,1,0
96,192,62191,1,0
32,160,62369,1,4
256,96,63084,5,4
192,192,63442,1,0
288,256,63799,1,4
96,64,80241,5,0
160,160,80599,1,0
224,256,80956,1,0
64,64,82934,5,0
128,64,83113,1,4
224,128,83473,1,4
160,224,83832,1,4
352,128,84551,5,0
320,192,84731,1,0
384,192,84911,1,0
352,256,85091,1,0
416,256,85271,1,4
480,64,85810,5,0
384,96,86169,1,4
320,64,86349,1,0
224,96,86709,1,4
160,192,87068,1,4
320,192,87608,1,0
320,256,87787,1,0
320,192,87967,1,0
384,160,88147,1,4
256,192,89225,5,0
288,128,89405,1,0
320,192,89585,1,0
384,256,89945,2,0,B|352:352|224:352|160:256|192:160|256:128|384:96|384:128,1,420
384,160,91203,1,0
256,192,92282,5,0
256,192,92641,12,0,95530
128,192,97507,5,4
224,128,97867,1,0
320,160,98226,1,4
480,96,98765,6,2,B|416:64|320:32|288:64|224:96,1,210
224,64,99484,2,2,B|160:32|96:32|32:128,1,210
32,160,100203,2,2,B|0:256|96:320|128:192,1,210
160,192,100922,2,2,B|256:96|224:128|288:128|320:192,1,210
384,160,101641,2,2,B|352:96|288:64|480:96,1,210
480,160,102360,2,2,B|480:256|352:320,1,210
320,256,103079,2,2,B|384:192|416:128|416:64,1,210
352,64,103798,2,6,B|192:96|256:192|128:224|160:64,1,280
256,256,105073,5,4
224,192,105254,1,4
160,160,105434,1,4
384,96,106155,5,0
320,192,106516,1,0
224,224,106876,1,0
256,128,107237,1,4
288,64,107417,1,0
256,128,107598,1,4
224,192,107778,1,0
256,128,107958,1,0
224,192,108138,1,0
192,256,108319,1,4
416,320,109040,5,4
288,320,109401,1,0
256,224,109761,1,4
192,128,110122,5,0
256,128,110302,2,2,B|352:224|160:288,1,210
128,256,111023,2,2,B|128:288|160:320,1,70
224,320,111384,1,0
288,288,111564,1,0
192,256,111925,1,4
160,192,112105,1,4
448,192,113007,5,0
320,288,113517,2,0,B|224:320|160:256,1,140
480,32,115122,1,4
416,64,115301,1,4
352,32,115479,2,4,B|224:64|256:192|192:224,1,210
128,224,116371,5,0
192,192,116549,1,0
192,256,116727,1,0
192,192,116906,1,4
256,288,117262,1,4
320,320,117441,1,0
384,288,117619,1,4
352,192,117976,1,0
288,96,118332,1,4
192,64,118867,5,0
160,128,119046,1,0
224,128,119224,1,0
160,128,119402,1,0
192,192,119581,1,0
192,192,119759,1,4
352,352,120472,5,0
256,288,120829,1,0
160,320,121186,1,4
64,96,138090,5,4
96,160,138270,1,0
128,224,138450,1,4
224,96,138990,1,0
160,64,139169,1,4
224,224,139709,1,0
288,256,139889,1,4
512,32,140968,5,4
480,96,141148,1,4
448,160,141327,1,4
384,128,141507,1,4
320,32,141867,1,0
256,32,142047,1,4
256,192,142586,1,0
192,160,142766,1,4
96,64,143845,5,4
128,128,144025,1,0
160,192,144205,1,0
192,128,144385,1,4
224,64,144564,1,0
192,128,144760,1,0
160,224,145120,1,4
64,288,145481,1,0
128,320,145661,2,0,B|160:320|192:288,3,70
384,288,146742,5,4
320,256,146923,1,0
256,224,147103,1,0
320,192,147283,1,4
384,160,147463,1,0
320,192,147644,1,0
224,224,148004,1,4
160,320,148365,1,0
128,256,148545,2,4,B|128:224|160:192,3,70
192,32,149626,5,4
192,96,149807,1,0
224,160,149987,1,4
352,288,150528,1,0
288,256,150708,1,4
160,224,151249,1,0
192,160,151429,1,4
320,160,152691,5,0
288,224,152871,1,4
160,224,153232,1,4
224,128,153580,1,4
320,128,153940,1,4
256,224,154300,1,4
416,320,155379,5,0
352,288,155559,1,4
416,256,155739,1,4
480,288,155918,1,4
480,224,156098,1,0
416,192,156278,1,0
352,224,156458,1,0
352,160,156638,1,4
416,128,156818,1,0
352,96,156998,1,4
288,128,157177,1,4
128,32,158257,5,0
160,96,158436,1,4
224,192,158796,1,0
160,288,159156,1,0
224,192,159516,1,4
320,128,159875,1,0
352,192,160055,1,4
288,288,160415,1,4
352,192,160775,1,4
256,160,161134,5,0
192,128,161314,1,0
256,96,161494,1,4
384,160,162034,1,0
320,192,162213,1,0
256,160,162393,1,4
192,64,162753,1,0
256,96,162933,1,4
32,352,164012,5,4
32,288,164192,1,0
96,320,164372,1,4
224,192,164911,1,4
128,256,165271,1,4
224,320,165631,1,0
192,256,165811,1,4
256,160,166890,5,0
320,160,167070,1,0
256,160,167249,1,0
352,224,167609,1,0
416,192,167821,1,0
384,128,168002,1,0
320,96,168183,1,0
224,64,168546,1,0
192,128,168727,1,0
0,256,169815,5,0
64,224,169996,1,0
128,192,170177,1,4
192,96,170540,1,4
224,160,170721,1,0
256,96,170903,1,0
224,32,171084,1,4
288,128,171447,1,0
352,128,171628,1,4
160,128,172716,5,4
224,160,172897,1,4
256,192,173078,12,4,182143
96,192,182506,1,4
256,32,182869,5,4
416,192,183231,5,4
256,352,183594,5,4
192,256,183925,5,0
160,192,184106,1,0
224,192,184287,1,0
256,256,184469,1,0
288,320,184650,1,0
352,288,184831,1,0
320,224,185013,1,0
288,160,185194,1,0
352,128,185375,5,0
384,192,185556,1,0
416,256,185738,1,0
448,320,185919,1,0
384,352,186100,1,0
352,288,186282,1,0
288,320,186463,1,0
256,256,186644,1,0
192,288,186825,5,0
160,224,187007,1,0
224,192,187188,1,0
192,128,187369,1,0
128,160,187551,1,0
96,96,187732,1,0
160,64,187913,1,0
224,32,188094,1,0
256,96,188276,5,0
288,160,188457,1,0
320,224,188638,1,0
384,192,188820,1,0
352,128,189001,1,4
64,64,195165,5,0
160,96,195527,1,0
64,160,195890,1,0
160,224,196253,1,0
192,128,196615,1,0
288,96,196978,2,6,B|352:96|256:32|320:0|416:32|448:96,1,210
416,128,197703,1,4
384,224,198065,5,0
384,320,198421,1,0
288,288,198783,1,0
160,288,199145,1,0
128,192,199507,1,0
160,96,199870,1,0
256,96,200232,2,6,B|384:128|384:192|288:256|128:192|128:160,1,350
192,128,201319,5,4
160,64,201500,1,0
96,64,201681,1,0
128,128,201862,1,0
160,192,202043,1,4
256,192,202406,5,4
288,128,202587,1,0
352,160,202768,1,4
416,192,202949,1,0
352,224,203130,1,0
288,256,203311,1,0
288,192,203492,1,4
192,160,203855,5,4
128,128,204036,1,0
64,96,204217,1,4
128,64,204398,1,0
192,96,204579,1,0
192,160,204760,1,0
160,224,204942,1,4
256,288,205304,5,4
256,224,205485,1,0
256,160,205666,1,4
320,160,205847,1,0
320,224,206028,1,0
320,288,206210,1,0
256,288,206391,1,4
160,224,206753,5,0
224,128,207115,1,0
320,64,207478,1,0
384,160,207840,1,0
320,64,208202,1,0
384,160,208543,1,0
320,256,208905,1,0
224,192,209267,5,0
288,96,209629,1,0
192,128,209991,1,0
96,192,210354,1,0
160,288,210716,1,0
192,192,211078,1,0
160,288,211440,1,0
256,256,211802,1,4
320,288,211984,1,0
320,224,212165,1,4
96,96,218281,6,4,B|128:96|160:128,1,70
192,160,218643,1,4
288,192,219006,1,0
192,256,219368,1,4
288,320,219730,1,0
384,256,220093,1,4
320,160,220455,1,0
384,64,220818,5,4
320,160,221180,1,0
384,256,221542,1,4
288,320,221905,1,0
192,288,222267,1,4
128,256,222448,1,0
160,192,222630,1,4
224,224,222811,1,0
320,160,223173,1,0
288,96,223354,1,4
256,192,223536,12,0,226073
288,160,229895,5,4
224,128,230077,1,0
224,192,230259,1,4
256,192,230441,12,4,230987
448,320,231351,5,4
384,288,231533,1,0
320,256,231715,1,4
256,192,231897,12,4,232442
64,32,232806,5,4
32,96,232988,1,0
64,160,233170,1,4
256,192,233352,12,4,233898
320,64,234262,5,4
288,128,234458,1,0
256,192,234641,1,4
256,192,234824,12,4,235557
