osu file format v14

[General]
AudioFilename: Cytus - Sanctity.mp3
AudioLeadIn: 0
PreviewTime: -1
Countdown: 1
SampleSet: None
StackLeniency: 1
Mode: 0
LetterboxInBreaks: 1
WidescreenStoryboard: 1

[Editor]
DistanceSpacing: 1
BeatDivisor: 4
GridSize: 16
TimelineZoom: 1.1

[Metadata]
Title:Sanctity
TitleUnicode:Sanctity
Artist:Rabpit
ArtistUnicode:Rabpit
Creator:Nitronic Techno
Version:Saintly
Source:Cytus
Tags:Cytus Sanctity Rabpit
BeatmapID:787938
BeatmapSetID:358338

[Difficulty]
HPDrainRate:4.3
CircleSize:3.5
OverallDifficulty:4.6
ApproachRate:6.3
SliderMultiplier:1.4
SliderTickRate:1

[Events]
//Background and Video events
0,0,"(sanctity).jpg",0,0
//Break Periods
//Storyboard Layer 0 (Background)
//Storyboard Layer 1 (Fail)
//Storyboard Layer 2 (Pass)
//Storyboard Layer 3 (Foreground)
//Storyboard Sound Samples

[TimingPoints]
1363,419.58041958042,4,2,0,100,1,0
8076,-100,4,1,0,100,0,0
11642,-100,4,2,0,100,0,0
14789,-90.9090909090909,4,1,0,100,0,0
24859,-111.111111111111,4,1,0,100,0,0
28635,-200,4,2,0,100,0,0
29894,-90.9090909090909,4,1,0,100,0,0
43321,-125,4,1,0,100,0,0
55069,-100,4,2,0,100,0,0
56852,-100,4,1,0,100,0,0
63460,-66.6666666666667,4,1,0,100,0,0
66817,-83.3333333333333,4,1,0,100,0,0
70174,-100,4,1,0,100,0,0
80244,-200,4,1,0,100,0,0
80873,-133.333333333333,4,1,0,100,0,0
81502,-100,4,1,0,100,0,0
82132,-80,4,1,0,100,0,0
82761,-66.6666666666667,4,1,0,100,0,0
83390,-57.1428571428571,4,1,0,100,0,0
84020,-100,4,1,0,100,0,0
85279,-142.857142857143,4,2,0,100,0,0
91992,-142.857142857143,4,3,0,100,0,0
98705,-90.9090909090909,4,1,0,100,0,0
111922,833.333333333333,4,2,0,100,1,0

[HitObjects]
202,199,1363,6,0,P|134:184|75:148,1,140,0|8,0:0|0:0,0:0:0:0:
326,267,2197,1,0,0:0:0:0:
326,267,2616,1,8,0:0:0:0:
434,177,3036,1,0,0:0:0:0:
434,177,3455,1,8,0:0:0:0:
300,140,3875,1,0,0:0:0:0:
300,140,4295,1,8,0:0:0:0:
162,118,4719,6,0,P|151:185|101:233,1,140,0|8,0:0|0:0,0:0:0:0:
281,176,5558,1,0,0:0:0:0:
281,176,5978,1,8,0:0:0:0:
193,285,6397,1,0,0:0:0:0:
193,285,6817,1,8,0:0:0:0:
157,150,7237,1,0,0:0:0:0:
157,150,7656,1,8,0:0:0:0:
295,61,8076,6,0,P|330:65|361:81,1,70
296,59,8495,2,2,P|264:75|230:80,1,70
296,60,8915,2,0,P|267:79|261:113,1,70
261,113,9335,2,2,P|288:113|332:105,1,70
347,120,9754,6,0,P|362:152|350:185,1,70
359,188,10174,2,2,P|326:174|292:178,1,70
293,178,10593,2,0,P|290:135|256:103,1,70
255,109,11013,2,2,P|238:149|245:186,1,70
217,255,11433,5,0,0:0:0:0:
151,278,11643,1,8,0:0:0:0:
151,278,11853,1,2,0:0:0:0:
151,278,12063,1,8,0:0:0:0:
105,221,12482,5,2,0:0:0:0:
105,221,12692,1,8,0:0:0:0:
105,221,12902,1,2,0:0:0:0:
87,289,13321,5,8,0:0:0:0:
87,289,13531,1,2,0:0:0:0:
87,289,13741,1,8,0:0:0:0:
179,231,14161,5,2,0:0:0:0:
179,231,14370,1,8,0:0:0:0:
179,231,14580,1,2,0:0:0:0:
249,208,14790,6,0,L|260:284,1,77.0000023498536
189,256,15210,2,0,L|169:181,1,77.0000023498536,2|0,0:0|0:0,0:0:0:0:
114,236,15629,2,0,L|105:146,1,77.0000023498536,2|0,0:0|0:0,0:0:0:0:
163,131,16049,2,0,L|238:112,1,77.0000023498536,2|0,0:0|0:0,0:0:0:0:
316,111,16468,5,2,0:0:0:0:
316,111,16678,1,0,0:0:0:0:
316,111,16888,1,2,0:0:0:0:
316,111,17098,1,0,0:0:0:0:
372,162,17307,5,2,0:0:0:0:
331,217,17517,1,0,0:0:0:0:
381,276,17727,1,2,0:0:0:0:
453,302,17937,1,0,0:0:0:0:
380,327,18147,6,0,L|317:281,1,77.0000023498536
252,241,18566,2,0,L|302:173,1,77.0000023498536,2|0,0:0|0:0,0:0:0:0:
237,129,18986,2,0,L|170:77,1,77.0000023498536,2|0,0:0|0:0,0:0:0:0:
126,141,19405,2,0,L|82:204,1,77.0000023498536,2|0,0:0|0:0,0:0:0:0:
151,240,19825,5,2,0:0:0:0:
225,222,20035,1,0,0:0:0:0:
295,190,20245,1,2,0:0:0:0:
322,118,20454,1,0,0:0:0:0:
267,70,20664,5,2,0:0:0:0:
194,96,20874,1,0,0:0:0:0:
161,165,21084,1,2,0:0:0:0:
217,217,21293,1,0,0:0:0:0:
272,270,21503,6,0,P|309:276|343:293,1,77.0000023498536
272,270,21923,2,0,P|295:300|309:336,1,77.0000023498536,2|0,0:0|0:0,0:0:0:0:
272,270,22342,2,0,P|280:307|270:343,1,77.0000023498536,2|0,0:0|0:0,0:0:0:0:
272,270,22762,2,0,P|261:306|236:335,1,77.0000023498536,2|0,0:0|0:0,0:0:0:0:
184,277,23182,5,2,0:0:0:0:
112,250,23391,1,0,0:0:0:0:
66,188,23601,1,2,0:0:0:0:
74,111,23811,1,0,0:0:0:0:
141,79,24021,5,2,0:0:0:0:
145,153,24231,1,0,0:0:0:0:
212,191,24440,1,2,0:0:0:0:
241,263,24650,1,0,0:0:0:0:
303,266,24860,5,0,0:0:0:0:
303,266,25070,1,4,2:0:0:0:
303,266,25279,1,0,0:0:0:0:
314,204,25489,5,0,0:0:0:0:
314,204,25699,1,4,2:0:0:0:
314,204,25909,1,0,0:0:0:0:
294,144,26119,5,0,0:0:0:0:
294,144,26328,1,4,2:0:0:0:
294,144,26538,1,0,0:0:0:0:
232,129,26748,5,0,0:0:0:0:
232,129,26958,1,4,2:0:0:0:
232,129,27168,1,0,0:0:0:0:
170,139,27377,5,0,0:0:0:0:
170,139,27587,1,4,2:0:0:0:
170,139,27797,1,0,0:0:0:0:
113,195,28007,5,0,0:0:0:0:
113,195,28217,1,4,2:0:0:0:
113,195,28426,1,0,0:0:0:0:
192,222,28635,6,0,L|211:251,1,35
130,229,29265,2,0,L|131:263,1,35
273,320,29894,6,0,P|350:320|421:294,1,154.000004699707
250,268,30733,2,0,P|319:235|373:181,1,154.000004699707
248,210,31572,2,0,P|174:189|109:147,1,154.000004699707
255,144,32411,2,0,P|170:128|148:59,1,154.000004699707
266,89,33251,6,0,L|342:83,1,77.0000023498536
266,89,33670,2,0,L|308:153,1,77.0000023498536
266,89,34090,2,0,L|207:153,1,77.0000023498536
266,89,34509,2,0,L|190:103,1,77.0000023498536
190,103,34930,5,0,0:0:0:0:
178,112,35140,1,0,0:0:0:0:
167,121,35349,1,0,0:0:0:0:
155,130,35559,1,0,0:0:0:0:
155,130,35768,2,0,L|163:167,4,38.5000011749268,8|0|0|0|0,2:0|0:0|0:0|0:0|0:0,0:0:0:0:
215,177,36607,6,0,P|264:232|231:296,1,154.000004699707
231,296,37446,2,0,L|211:221,1,77.0000023498536
211,221,37866,2,0,L|292:208,1,77.0000023498536
316,201,38286,2,0,L|459:144,1,154.000004699707
385,280,39126,2,0,L|321:235,1,77.0000023498536
245,244,39545,2,0,L|235:167,1,77.0000023498536
205,96,39964,2,0,P|278:74|353:86,1,154.000004699707
345,240,40803,2,0,P|268:230|199:198,1,154.000004699707
140,186,41642,5,0,0:0:0:0:
126,184,41851,1,0,0:0:0:0:
112,182,42061,1,0,0:0:0:0:
97,179,42272,1,0,0:0:0:0:
95,129,42481,2,0,L|131:118,4,38.5000011749268,8|0|0|0|0,2:0|0:0|0:0|0:0|0:0,0:0:0:0:
202,61,43321,6,0,L|250:91,1,56
147,260,44790,5,0,0:0:0:0:
150,148,45000,5,0,0:0:0:0:
152,121,45210,1,0,0:0:0:0:
346,238,46468,5,0,0:0:0:0:
256,288,46678,5,0,0:0:0:0:
231,293,46888,1,0,0:0:0:0:
300,193,48147,5,0,0:0:0:0:
203,222,48356,5,0,0:0:0:0:
189,234,48566,1,0,0:0:0:0:
175,248,48986,1,0,0:0:0:0:
158,264,49405,1,0,0:0:0:0:
146,274,49825,1,0,0:0:0:0:
233,302,50035,5,0,0:0:0:0:
249,302,50245,1,0,0:0:0:0:
262,302,50664,1,0,0:0:0:0:
279,302,51084,1,0,0:0:0:0:
297,302,51503,1,0,0:0:0:0:
256,192,51713,12,0,53391,0:0:0:0:
420,320,55070,5,8,0:0:0:0:
405,306,55279,1,8,0:0:0:0:
391,292,55489,1,8,0:0:0:0:
376,278,55699,1,8,0:0:0:0:
359,266,55908,6,0,L|324:265,4,35,8|0|8|0|8,0:0|0:0|0:0|0:0|0:0,0:0:0:0:
270,257,56748,5,4,0:0:0:0:
270,257,56958,1,0,0:0:0:0:
270,257,57168,1,2,0:0:0:0:
270,257,57377,1,0,0:0:0:0:
208,222,57587,1,2,0:0:0:0:
208,222,57797,1,0,0:0:0:0:
208,222,58007,1,2,0:0:0:0:
208,222,58217,1,0,0:0:0:0:
161,179,58425,6,0,L|183:267,1,70,2|0,0:0|0:0,0:0:0:0:
159,177,58845,2,0,L|81:186,1,70,2|0,0:0|0:0,0:0:0:0:
160,178,59264,2,0,L|145:108,1,70,2|0,0:0|0:0,0:0:0:0:
160,178,59684,2,0,L|257:152,1,70,2|0,0:0|0:0,0:0:0:0:
297,169,60105,5,4,2:0:0:0:
297,169,60314,1,0,0:0:0:0:
355,207,60524,1,2,0:0:0:0:
355,207,60734,1,0,0:0:0:0:
351,276,60944,1,2,0:0:0:0:
351,276,61154,1,0,0:0:0:0:
284,296,61363,1,2,0:0:0:0:
284,296,61573,1,0,0:0:0:0:
215,281,61782,6,0,P|228:238|252:219,1,70,2|0,0:0|0:0,0:0:0:0:
316,219,62203,2,0,P|357:232|383:266,1,70,2|0,0:0|0:0,0:0:0:0:
316,219,62622,2,0,P|352:195|365:160,1,70,2|0,0:0|0:0,0:0:0:0:
316,219,63042,2,0,P|274:206|259:171,1,70,2|0,0:0|0:0,0:0:0:0:
179,120,63460,6,8,L|108:203,1,105.000004005432
157,225,63880,2,8,L|254:286,1,105.000004005432
208,294,64300,2,8,L|280:190,1,105.000004005432
401,293,64929,2,8,L|104:97,1,315.000012016297
438,189,66818,5,0,0:0:0:0:
401,266,67028,1,4,2:0:0:0:
390,286,67238,1,0,0:0:0:0:
343,190,67447,5,0,0:0:0:0:
299,279,67657,1,4,2:0:0:0:
283,305,67867,1,0,0:0:0:0:
222,191,68077,5,0,0:0:0:0:
180,292,68286,1,4,2:0:0:0:
171,317,68496,1,0,0:0:0:0:
104,193,68706,5,0,0:0:0:0:
104,193,69126,1,0,0:0:0:0:
280,68,69545,5,0,0:0:0:0:
249,164,69755,1,0,0:0:0:0:
161,131,69965,1,0,0:0:0:0:
156,200,70175,5,4,2:0:0:0:
197,256,70384,1,0,0:0:0:0:
257,290,70594,1,2,0:0:0:0:
325,274,70804,1,0,0:0:0:0:
356,211,71014,1,2,0:0:0:0:
352,141,71224,1,0,0:0:0:0:
284,122,71433,1,2,0:0:0:0:
222,155,71643,1,0,0:0:0:0:
185,215,71853,5,2,0:0:0:0:
185,215,72063,1,0,0:0:0:0:
245,250,72272,1,2,0:0:0:0:
245,250,72482,1,0,0:0:0:0:
286,306,72692,1,2,0:0:0:0:
286,306,72902,1,0,0:0:0:0:
356,304,73112,1,2,0:0:0:0:
356,304,73321,1,0,0:0:0:0:
350,234,73531,5,4,2:0:0:0:
300,184,73741,1,0,0:0:0:0:
252,132,73951,1,2,0:0:0:0:
269,64,74161,1,0,0:0:0:0:
338,67,74370,1,2,0:0:0:0:
398,101,74580,1,0,0:0:0:0:
418,168,74790,1,2,0:0:0:0:
408,237,75000,1,0,0:0:0:0:
346,270,75210,5,2,0:0:0:0:
346,270,75419,1,0,0:0:0:0:
346,270,75629,1,2,0:0:0:0:
275,267,75839,1,0,0:0:0:0:
275,267,76049,1,2,0:0:0:0:
275,267,76259,1,0,0:0:0:0:
275,267,76468,1,2,0:0:0:0:
275,267,76678,1,0,0:0:0:0:
239,206,76888,5,4,2:0:0:0:
267,142,77098,1,0,0:0:0:0:
329,111,77307,1,2,0:0:0:0:
388,148,77517,1,0,0:0:0:0:
407,215,77727,1,2,0:0:0:0:
366,272,77937,1,0,0:0:0:0:
301,298,78147,1,2,0:0:0:0:
236,271,78356,1,0,0:0:0:0:
192,216,78566,5,2,0:0:0:0:
192,216,78776,1,0,0:0:0:0:
218,151,78986,1,2,0:0:0:0:
218,151,79196,1,0,0:0:0:0:
285,133,79405,1,2,0:0:0:0:
285,133,79615,1,0,0:0:0:0:
354,129,79825,1,2,0:0:0:0:
354,129,80035,1,0,0:0:0:0:
395,184,80243,6,0,L|322:228,1,70,0|4,0:0|2:0,0:0:0:0:
395,184,80873,6,0,L|396:247,1,52.5000020027161,0|4,0:0|2:0,0:0:0:0:
395,184,81503,6,0,L|476:187,1,70,0|4,0:0|2:0,0:0:0:0:
395,184,82132,6,0,L|455:97,1,87.5,0|4,0:0|2:0,0:0:0:0:
395,184,82761,6,0,L|305:102,1,105.000004005432,0|4,0:0|2:0,0:0:0:0:
395,184,83390,6,0,L|302:272,1,122.500001168251,0|4,0:0|2:0,0:0:0:0:
222,205,84021,5,0,0:0:0:0:
222,205,84231,1,4,0:0:0:0:
153,278,84650,5,0,0:0:0:0:
153,278,84860,1,4,0:0:0:0:
93,172,85279,6,0,P|100:126|130:72,2,97.9999970092774
243,173,86537,2,0,P|244:142|233:117,2,48.9999985046387
285,247,87376,6,0,P|298:291|344:338,2,97.9999970092774
431,235,88635,2,0,P|422:266|413:286,2,48.9999985046387
291,188,89474,6,0,P|284:142|232:92,1,97.9999970092774
333,230,90314,5,8,2:0:0:0:
333,230,90524,1,0,0:0:0:0:
333,230,90734,1,0,0:0:0:0:
333,230,90944,1,0,0:0:0:0:
328,200,91154,5,8,0:0:0:0:
292,186,91363,1,0,0:0:0:0:
257,174,91573,1,0,0:0:0:0:
220,169,91783,1,0,0:0:0:0:
183,163,91993,5,2,0:0:0:0:
148,197,92203,1,0,0:0:0:0:
126,240,92412,1,0,0:0:0:0:
152,281,92622,1,0,0:0:0:0:
197,299,92832,5,2,0:0:0:0:
245,292,93042,1,0,0:0:0:0:
288,269,93252,1,0,0:0:0:0:
298,221,93461,1,0,0:0:0:0:
276,177,93671,5,2,0:0:0:0:
227,173,93881,1,0,0:0:0:0:
181,154,94091,1,0,0:0:0:0:
146,119,94300,1,0,0:0:0:0:
102,95,94510,5,2,0:0:0:0:
134,58,94720,1,0,0:0:0:0:
182,60,94930,1,0,0:0:0:0:
224,83,95140,1,0,0:0:0:0:
270,98,95349,5,0,0:0:0:0:
312,122,95559,1,0,0:0:0:0:
356,141,95769,1,0,0:0:0:0:
397,167,95979,1,0,0:0:0:0:
350,182,96189,5,2,0:0:0:0:
302,191,96398,1,0,0:0:0:0:
253,195,96608,1,2,0:0:0:0:
204,199,96817,1,0,0:0:0:0:
155,205,97028,5,2,0:0:0:0:
130,246,97237,1,0,0:0:0:0:
157,286,97446,1,2,0:0:0:0:
205,278,97656,1,0,0:0:0:0:
253,271,97867,5,2,0:0:0:0:
262,270,97972,1,0,0:0:0:0:
271,268,98077,1,2,0:0:0:0:
279,266,98182,1,0,0:0:0:0:
288,265,98286,5,2,0:0:0:0:
297,263,98391,1,0,0:0:0:0:
306,261,98496,1,2,0:0:0:0:
315,259,98601,1,0,0:0:0:0:
325,259,98705,6,0,P|392:202|361:139,1,154.000004699707,4|0,2:0|0:0,0:0:0:0:
222,174,99544,2,0,P|315:199|390:168,1,154.000004699707
392,171,100384,2,0,P|372:101|332:60,4,115.50000352478
294,161,102062,6,0,P|211:215|125:224,1,154.000004699707
160,138,102902,2,0,P|219:214|223:290,1,154.000004699707
316,310,103741,6,2,L|330:220,1,77.0000023498536
316,310,104161,2,2,L|264:239,1,77.0000023498536
316,310,104580,2,2,L|241:294,1,77.0000023498536
316,310,105000,2,2,L|238:334,1,77.0000023498536
256,192,105419,12,0,106993,0:0:0:0:
256,192,107097,12,0,108670,0:0:0:0:
256,192,108775,12,4,110453,2:0:0:0:
263,302,111922,6,2,P|333:306|403:297,1,140
338,270,113172,2,2,P|337:181|366:141,1,140
386,186,114422,2,2,P|325:154|262:179,1,140
192,180,115672,6,2,L|148:259,1,70
152,135,116505,2,2,L|90:168,1,70
149,76,117338,2,2,L|65:82,1,70
150,150,118172,2,2,L|73:151,1,70
161,55,119213,5,2,0:0:0:0:
218,163,119942,6,0,L|249:160,2,17.5
256,192,120880,12,4,123172,0:0:0:0:
