osu file format v14

[General]
AudioFilename: Cytus - Sanctity.mp3
AudioLeadIn: 0
PreviewTime: -1
Countdown: 1
SampleSet: None
StackLeniency: 1
Mode: 0
LetterboxInBreaks: 1
WidescreenStoryboard: 0

[Editor]
DistanceSpacing: 1
BeatDivisor: 4
GridSize: 16
TimelineZoom: 1.1

[Metadata]
Title:Sanctity
TitleUnicode:Sanctity
Artist:Rabpit
ArtistUnicode:Rabpit
Creator:Nitronic Techno
Version:Holiness
Source:Cytus
Tags:Cytus Sanctity Rabpit
BeatmapID:787937
BeatmapSetID:358338

[Difficulty]
HPDrainRate:6
CircleSize:4
OverallDifficulty:6
ApproachRate:8
SliderMultiplier:1.8
SliderTickRate:1

[Events]
//Background and Video events
0,0,"(sanctity).jpg",0,0
//Break Periods
//Storyboard Layer 0 (Background)
//Storyboard Layer 1 (Fail)
//Storyboard Layer 2 (Pass)
//Storyboard Layer 3 (Foreground)
//Storyboard Sound Samples

[TimingPoints]
1363,419.58041958042,4,2,0,100,1,0
8076,-100,4,1,0,100,0,0
11642,-100,4,2,0,100,0,0
14789,-90.9090909090909,4,1,0,100,0,0
24859,-111.111111111111,4,1,0,100,0,0
28635,-200,4,2,0,100,0,0
29894,-90.9090909090909,4,1,0,100,0,0
43321,-125,4,1,0,100,0,0
55069,-100,4,2,0,100,0,0
56852,-100,4,1,0,100,0,0
63460,-66.6666666666667,4,1,0,100,0,0
66817,-83.3333333333333,4,1,0,100,0,0
70174,-100,4,1,0,100,0,0
80244,-200,4,1,0,100,0,0
80873,-133.333333333333,4,1,0,100,0,0
81502,-100,4,1,0,100,0,0
82132,-80,4,1,0,100,0,0
82761,-66.6666666666667,4,1,0,100,0,0
83390,-57.1428571428571,4,1,0,100,0,0
84020,-100,4,1,0,100,0,0
85279,-142.857142857143,4,2,0,100,0,0
91992,-142.857142857143,4,3,0,100,0,0
98705,-90.9090909090909,4,1,0,100,0,0
111922,833.333333333333,4,2,0,100,1,0

[HitObjects]
308,143,1363,6,0,P|268:115|128:91,1,180,0|8,0:0|0:0,0:0:0:0:
141,89,2202,1,0,0:0:0:0:
141,89,2621,1,8,0:0:0:0:
148,214,3041,1,0,0:0:0:0:
246,292,3460,1,8,0:0:0:0:
364,248,3880,1,0,0:0:0:0:
395,125,4300,1,8,0:0:0:0:
291,52,4719,6,0,P|240:107|237:224,1,180,0|8,0:0|0:0,0:0:0:0:
231,208,5558,1,0,0:0:0:0:
231,208,5978,1,8,0:0:0:0:
321,120,6397,1,0,0:0:0:0:
436,171,6817,1,8,0:0:0:0:
457,295,7237,1,0,0:0:0:0:
341,345,7656,1,8,0:0:0:0:
216,323,8076,6,0,P|156:306|134:269,1,90
143,222,8495,2,2,P|197:202|249:211,1,90
291,210,8915,2,0,P|346:186|366:148,1,90
341,102,9335,2,2,P|292:87|246:100,1,90
196,71,9754,6,0,P|196:157|222:169,1,90
251,135,10174,2,2,P|254:192|234:240,1,90
181,214,10593,2,0,P|195:272|220:285,1,90
264,327,11013,2,2,P|281:268|263:233,1,90
332,227,11432,5,0,0:0:0:0:
386,195,11642,1,8,0:0:0:0:
413,178,11852,1,2,0:0:0:0:
383,162,12062,1,8,0:0:0:0:
386,195,12481,1,2,0:0:0:0:
403,134,12691,1,8,0:0:0:0:
342,151,12901,1,2,0:0:0:0:
386,195,13321,1,8,0:0:0:0:
306,160,13530,1,2,0:0:0:0:
323,263,13740,1,8,0:0:0:0:
386,195,14160,1,2,0:0:0:0:
319,324,14369,1,8,0:0:0:0:
449,325,14579,1,2,0:0:0:0:
467,243,14789,6,0,P|455:164|426:123,1,99.0000030212403
371,82,15209,2,0,P|317:90|263:141,1,99.0000030212403,2|0,0:0|0:0,0:0:0:0:
245,207,15628,2,0,P|240:278|291:313,1,99.0000030212403,2|0,0:0|0:0,0:0:0:0:
343,342,16048,2,0,P|409:338|444:297,1,99.0000030212403,2|0,0:0|0:0,0:0:0:0:
404,223,16467,5,2,0:0:0:0:
412,159,16677,1,0,0:0:0:0:
359,120,16887,1,2,0:0:0:0:
344,185,17097,1,0,0:0:0:0:
429,281,17307,5,2,0:0:0:0:
474,138,17516,1,0,0:0:0:0:
327,58,17726,1,2,0:0:0:0:
285,215,17936,1,0,0:0:0:0:
204,157,18146,6,0,L|117:95,1,99.0000030212403
204,157,18565,2,0,L|125:239,1,99.0000030212403,2|0,0:0|0:0,0:0:0:0:
204,157,18985,2,0,L|289:219,1,99.0000030212403,2|0,0:0|0:0,0:0:0:0:
204,157,19404,2,0,L|294:91,1,99.0000030212403,2|0,0:0|0:0,0:0:0:0:
347,175,19824,5,2,0:0:0:0:
416,176,20034,1,0,0:0:0:0:
414,245,20244,1,2,0:0:0:0:
344,244,20453,1,0,0:0:0:0:
297,117,20663,5,2,0:0:0:0:
468,124,20873,1,0,0:0:0:0:
468,292,21083,1,2,0:0:0:0:
293,289,21293,1,0,0:0:0:0:
194,282,21502,6,0,P|146:272|104:237,1,99.0000030212403
206,248,21922,2,0,P|173:197|166:126,1,99.0000030212403,2|0,0:0|0:0,0:0:0:0:
230,234,22342,2,0,P|224:178|257:133,1,99.0000030212403,2|0,0:0|0:0,0:0:0:0:
264,239,22761,2,0,P|282:191|332:154,1,99.0000030212403,2|0,0:0|0:0,0:0:0:0:
397,101,23181,5,2,0:0:0:0:
433,192,23390,1,0,0:0:0:0:
391,281,23600,1,2,0:0:0:0:
296,309,23810,1,0,0:0:0:0:
197,301,24020,5,2,0:0:0:0:
108,181,24230,1,0,0:0:0:0:
186,55,24439,1,2,0:0:0:0:
332,77,24649,1,0,0:0:0:0:
277,215,24859,5,0,0:0:0:0:
277,215,25069,1,4,2:0:0:0:
277,215,25279,1,0,0:0:0:0:
197,200,25488,5,0,0:0:0:0:
197,200,25698,1,4,2:0:0:0:
197,200,25908,1,0,0:0:0:0:
226,98,26118,5,0,0:0:0:0:
226,98,26328,1,4,2:0:0:0:
226,98,26537,1,0,0:0:0:0:
346,115,26747,5,0,0:0:0:0:
346,115,26957,1,4,2:0:0:0:
346,115,27167,1,0,0:0:0:0:
386,237,27376,5,0,0:0:0:0:
386,237,27586,1,4,2:0:0:0:
386,237,27796,1,0,0:0:0:0:
237,302,28006,5,0,0:0:0:0:
237,302,28216,1,4,2:0:0:0:
237,302,28425,1,0,0:0:0:0:
171,240,28635,6,0,L|141:197,1,45
209,227,29265,2,0,L|206:176,1,45
90,90,29894,6,0,P|149:66|288:74,1,198.000006042481
475,109,30733,2,0,P|410:138|331:246,1,198.000006042481
151,158,31572,2,0,P|213:174|340:274,1,198.000006042481
124,271,32411,2,0,P|187:303|320:296,1,198.000006042481
391,117,33251,6,0,L|278:124,1,99.0000030212403
193,117,33670,2,0,L|251:207,1,99.0000030212403
345,213,34090,2,0,L|449:231,1,99.0000030212403
367,294,34509,2,0,L|250:319,1,99.0000030212403
171,303,34929,6,0,L|110:256,3,49.5000015106202,8|0|0|0,2:0|0:0|0:0|0:0,0:0:0:0:
179,257,35349,2,0,L|163:194,3,49.5000015106202,8|0|0|0,2:0|0:0|0:0|0:0,0:0:0:0:
216,213,35768,2,0,L|230:147,3,49.5000015106202,8|0|0|0,2:0|0:0|0:0|0:0,0:0:0:0:
265,195,36188,2,0,L|314:151,3,49.5000015106202,8|0|0|0,2:0|0:0|0:0|0:0,0:0:0:0:
341,191,36607,6,0,P|390:129|280:61,1,198.000006042481
128,85,37446,2,0,L|156:209,1,99.0000030212403
65,128,37866,2,0,L|109:239,1,99.0000030212403
167,294,38286,2,0,L|366:218,1,198.000006042481
223,72,39125,2,0,L|332:145,1,99.0000030212403
403,114,39544,2,0,L|415:226,1,99.0000030212403
376,304,39964,2,0,P|276:325|148:280,1,198.000006042481
126,113,40803,2,0,P|208:124|322:207,1,198.000006042481
467,297,41642,6,0,L|379:284,3,49.5000015106202,8|0|0|0,2:0|0:0|0:0|0:0,0:0:0:0:
375,315,42062,2,0,L|322:328,3,49.5000015106202,8|0|0|0,2:0|0:0|0:0|0:0,0:0:0:0:
287,297,42481,2,0,L|220:285,3,49.5000015106202,8|0|0|0,2:0|0:0|0:0|0:0,0:0:0:0:
198,318,42901,2,0,L|135:332,3,49.5000015106202,8|0|0|0,2:0|0:0|0:0|0:0,0:0:0:0:
120,306,43321,6,0,L|39:252,1,72
139,152,43950,1,0,0:0:0:0:
255,67,44369,1,0,0:0:0:0:
358,167,44789,1,0,0:0:0:0:
412,213,44999,5,0,0:0:0:0:
360,263,45209,1,0,0:0:0:0:
226,316,45628,1,0,0:0:0:0:
106,234,46048,1,0,0:0:0:0:
176,108,46467,1,0,0:0:0:0:
221,52,46677,5,0,0:0:0:0:
281,91,46887,1,0,0:0:0:0:
396,177,47307,1,0,0:0:0:0:
313,294,47726,1,0,0:0:0:0:
212,191,48146,1,0,0:0:0:0:
283,185,48356,5,0,0:0:0:0:
336,137,48565,1,0,0:0:0:0:
197,97,48985,1,0,0:0:0:0:
331,45,49404,1,0,0:0:0:0:
349,187,49824,1,0,0:0:0:0:
289,146,50034,5,0,0:0:0:0:
216,148,50244,1,0,0:0:0:0:
119,41,50663,1,0,0:0:0:0:
112,184,51083,1,0,0:0:0:0:
208,290,51502,1,0,0:0:0:0:
256,192,51712,12,0,53390,0:0:0:0:
92,64,55069,5,8,0:0:0:0:
99,71,55174,1,0,0:0:0:0:
107,78,55279,1,8,0:0:0:0:
114,85,55383,1,0,0:0:0:0:
121,92,55488,1,8,0:0:0:0:
128,99,55593,1,0,0:0:0:0:
136,106,55698,1,8,0:0:0:0:
144,113,55803,1,0,0:0:0:0:
153,118,55908,6,0,L|228:119,7,45,8|0|8|0|8|0|8|0,0:0|0:0|0:0|0:0|0:0|0:0|0:0|0:0,0:0:0:0:
242,127,56747,5,4,0:0:0:0:
326,96,56957,1,0,0:0:0:0:
408,132,57167,1,2,0:0:0:0:
434,217,57376,1,0,0:0:0:0:
389,295,57586,1,2,0:0:0:0:
302,319,57796,1,0,0:0:0:0:
221,277,58006,1,2,0:0:0:0:
212,187,58216,1,0,0:0:0:0:
300,203,58425,6,0,P|317:153|362:144,1,90,2|0,0:0|0:0,0:0:0:0:
300,203,58845,2,0,P|361:184|386:197,1,90,2|0,0:0|0:0,0:0:0:0:
300,203,59265,2,0,P|325:255|295:291,1,90,2|0,0:0|0:0,0:0:0:0:
300,203,59684,2,0,P|256:237|226:215,1,90,2|0,0:0|0:0,0:0:0:0:
100,188,60104,5,4,2:0:0:0:
98,97,60314,1,0,0:0:0:0:
163,36,60523,1,2,0:0:0:0:
253,36,60733,1,0,0:0:0:0:
305,109,60943,1,2,0:0:0:0:
305,199,61153,1,0,0:0:0:0:
247,267,61363,1,2,0:0:0:0:
157,265,61572,1,0,0:0:0:0:
196,164,61782,6,0,P|239:129|244:81,1,90,2|0,0:0|0:0,0:0:0:0:
196,164,62202,2,0,P|148:143|145:88,1,90,2|0,0:0|0:0,0:0:0:0:
196,164,62621,2,0,P|153:199|148:247,1,90,2|0,0:0|0:0,0:0:0:0:
196,164,63041,2,0,P|244:185|247:240,1,90,2|0,0:0|0:0,0:0:0:0:
324,256,63460,6,8,L|433:147,1,135.000005149842
419,160,63880,2,8,L|263:65,1,135.000005149842
304,90,64300,2,8,L|211:228,1,135.000005149842
110,91,64929,2,8,P|112:201|439:131,1,540.000020599366
74,195,66817,5,0,0:0:0:0:
122,98,67027,1,4,2:0:0:0:
122,98,67237,1,0,0:0:0:0:
169,194,67446,5,0,0:0:0:0:
230,79,67656,1,4,2:0:0:0:
230,79,67866,1,0,0:0:0:0:
290,193,68076,5,0,0:0:0:0:
348,53,68286,1,4,2:0:0:0:
348,53,68495,1,0,0:0:0:0:
408,191,68705,5,0,0:0:0:0:
408,191,69125,1,0,0:0:0:0:
232,316,69544,5,0,0:0:0:0:
224,153,69754,1,0,0:0:0:0:
351,253,69964,1,0,0:0:0:0:
351,117,70174,5,4,2:0:0:0:
272,74,70383,1,0,0:0:0:0:
182,82,70593,1,2,0:0:0:0:
128,154,70803,1,0,0:0:0:0:
147,242,71013,1,2,0:0:0:0:
222,291,71223,1,0,0:0:0:0:
309,272,71432,1,2,0:0:0:0:
361,198,71642,1,0,0:0:0:0:
272,183,71852,5,2,0:0:0:0:
206,134,72062,1,0,0:0:0:0:
285,151,72272,1,2,0:0:0:0:
197,174,72481,1,0,0:0:0:0:
275,106,72691,1,2,0:0:0:0:
218,208,72901,1,0,0:0:0:0:
230,95,73111,1,2,0:0:0:0:
252,225,73321,1,0,0:0:0:0:
329,269,73530,5,4,2:0:0:0:
411,232,73740,1,0,0:0:0:0:
449,150,73950,1,2,0:0:0:0:
404,71,74160,1,0,0:0:0:0:
314,60,74369,1,2,0:0:0:0:
232,97,74579,1,0,0:0:0:0:
212,184,74789,1,2,0:0:0:0:
257,261,74999,1,0,0:0:0:0:
311,193,75209,5,2,0:0:0:0:
359,128,75418,1,0,0:0:0:0:
297,131,75628,1,2,0:0:0:0:
379,191,75838,1,0,0:0:0:0:
389,151,76048,1,2,0:0:0:0:
272,169,76258,1,0,0:0:0:0:
330,94,76467,1,2,0:0:0:0:
345,226,76677,1,0,0:0:0:0:
277,285,76887,5,4,2:0:0:0:
194,320,77097,1,0,0:0:0:0:
107,294,77307,1,2,0:0:0:0:
76,209,77516,1,0,0:0:0:0:
103,123,77726,1,2,0:0:0:0:
185,87,77936,1,0,0:0:0:0:
270,114,78146,1,2,0:0:0:0:
315,192,78356,1,0,0:0:0:0:
277,285,78565,5,2,0:0:0:0:
103,123,78775,1,0,0:0:0:0:
192,321,78985,1,2,0:0:0:0:
185,87,79195,1,0,0:0:0:0:
109,294,79404,1,2,0:0:0:0:
270,114,79614,1,0,0:0:0:0:
61,199,79824,1,2,0:0:0:0:
310,198,80034,1,0,0:0:0:0:
387,243,80244,6,0,L|435:214,1,45,0|4,0:0|2:0,0:0:0:0:
385,241,80873,6,0,L|375:144,1,67.5000025749208,0|4,0:0|2:0,0:0:0:0:
383,239,81502,6,0,L|252:231,1,90,0|4,0:0|2:0,0:0:0:0:
381,237,82132,6,0,L|309:345,1,112.5,0|4,0:0|2:0,0:0:0:0:
379,235,82761,6,0,L|493:339,1,135.000005149842,0|4,0:0|2:0,0:0:0:0:
377,233,83390,6,0,L|504:122,1,157.500001502037,0|4,0:0|2:0,0:0:0:0:
352,110,84020,5,0,0:0:0:0:
274,155,84230,1,4,0:0:0:0:
274,155,84649,5,0,0:0:0:0:
185,93,84859,1,4,0:0:0:0:
92,212,85279,6,0,P|102:263|153:297,2,94.499997116089
243,211,86328,2,0,P|221:271|204:277,2,62.9999980773926
283,146,86957,6,0,P|296:101|348:65,2,94.499997116089
430,148,88006,2,0,P|411:102|385:81,2,62.9999980773926
420,212,88635,6,0,P|410:263|359:297,2,94.499997116089
269,211,89684,2,0,P|291:271|308:277,2,62.9999980773926
210,162,90314,6,0,L|152:147,3,31.4999990386963,8|0|0|0,2:0|0:0|0:0|0:0,0:0:0:0:
179,154,90733,5,8,2:0:0:0:
179,154,90838,1,0,0:0:0:0:
179,154,90943,1,0,0:0:0:0:
179,154,91048,1,0,0:0:0:0:
179,154,91153,6,0,L|190:211,3,31.4999990386963,8|0|0|0,0:0|0:0|0:0|0:0,0:0:0:0:
184,184,91572,5,8,0:0:0:0:
220,198,91677,1,0,0:0:0:0:
255,210,91782,1,0,0:0:0:0:
292,215,91887,1,0,0:0:0:0:
329,221,91992,5,2,0:0:0:0:
396,154,92202,1,0,0:0:0:0:
405,79,92411,1,0,0:0:0:0:
333,54,92621,1,0,0:0:0:0:
257,62,92831,5,2,0:0:0:0:
182,120,93041,1,0,0:0:0:0:
146,186,93251,1,0,0:0:0:0:
200,238,93460,1,0,0:0:0:0:
273,254,93670,5,2,0:0:0:0:
322,173,93880,1,0,0:0:0:0:
397,176,94090,1,0,0:0:0:0:
471,186,94300,1,0,0:0:0:0:
468,280,94509,5,2,0:0:0:0:
375,299,94719,1,0,0:0:0:0:
299,299,94929,1,0,0:0:0:0:
232,263,95139,1,0,0:0:0:0:
160,239,95349,6,0,L|123:231,3,31.4999990386963,2|0|0|0,0:0|0:0|0:0|0:0,0:0:0:0:
158,208,95768,2,0,L|127:181,3,31.4999990386963,2|0|0|0,0:0|0:0|0:0|0:0,0:0:0:0:
172,184,96188,2,0,L|172:143,3,31.4999990386963,2|0|0|0,0:0|0:0|0:0|0:0,0:0:0:0:
202,175,96607,2,0,L|239:139,3,31.4999990386963,2|0|0|0,0:0|0:0|0:0|0:0,0:0:0:0:
242,186,97027,5,2,0:0:0:0:
251,186,97132,1,0,0:0:0:0:
260,187,97237,1,2,0:0:0:0:
269,188,97342,1,0,0:0:0:0:
278,189,97446,5,2,0:0:0:0:
287,190,97551,1,0,0:0:0:0:
296,191,97656,1,2,0:0:0:0:
305,191,97761,1,0,0:0:0:0:
314,192,97866,5,2,0:0:0:0:
323,193,97971,1,0,0:0:0:0:
332,195,98076,1,2,0:0:0:0:
340,197,98181,1,0,0:0:0:0:
349,198,98286,5,2,0:0:0:0:
358,200,98390,1,0,0:0:0:0:
367,202,98495,1,2,0:0:0:0:
376,204,98600,1,0,0:0:0:0:
384,207,98705,6,0,P|442:174|378:91,1,198.000006042481,4|0,2:0|0:0,0:0:0:0:
281,95,99544,2,0,P|205:69|96:123,1,198.000006042481
120,212,100383,2,0,P|134:274|207:331,4,148.50000453186
218,222,102062,6,0,P|278:178|412:161,1,198.000006042481
352,246,102901,2,0,P|308:203|299:64,1,198.000006042481
196,74,103740,6,2,L|177:185,1,99.0000030212403
196,74,104160,2,2,L|281:189,1,99.0000030212403
196,74,104579,2,2,L|321:114,1,99.0000030212403
196,74,104999,2,2,L|313:62,1,99.0000030212403
256,192,105418,12,0,106992,0:0:0:0:
256,192,107097,12,0,108775,0:0:0:0:
249,183,110453,5,4,2:0:0:0:
109,86,111922,6,2,P|174:77|316:103,1,180
254,123,113172,2,2,P|249:190|335:312,1,180
259,307,114422,2,2,P|214:329|106:257,1,180
117,226,115672,6,2,L|165:130,1,90
176,186,116505,2,2,L|275:135,1,90
254,189,117338,2,2,L|356:169,1,90
321,211,118172,2,2,L|434:208,1,90
351,329,119213,5,2,0:0:0:0:
314,244,119942,5,2,0:0:0:0:
293,234,120046,1,2,0:0:0:0:
273,222,120151,1,2,0:0:0:0:
256,192,120463,12,4,122755,0:0:0:0:
