osu file format v14

[General]
AudioFilename: Cytus - Sanctity.mp3
AudioLeadIn: 0
PreviewTime: -1
Countdown: 1
SampleSet: Normal
StackLeniency: 1
Mode: 0
LetterboxInBreaks: 1
WidescreenStoryboard: 1

[Editor]
Bookmarks: 47516
DistanceSpacing: 0.8
BeatDivisor: 4
GridSize: 16
TimelineZoom: 1.1

[Metadata]
Title:Sanctity
TitleUnicode:Sanctity
Artist:Rabpit
ArtistUnicode:Rabpit
Creator:Nitronic Techno
Version:Godly
Source:Cytus
Tags:Cytus Sanctity Rabpit
BeatmapID:787936
BeatmapSetID:358338

[Difficulty]
HPDrainRate:7
CircleSize:5
OverallDifficulty:7
ApproachRate:9
SliderMultiplier:1.8
SliderTickRate:1

[Events]
//Background and Video events
0,0,"(sanctity).jpg",0,0
//Break Periods
//Storyboard Layer 0 (Background)
//Storyboard Layer 1 (Fail)
//Storyboard Layer 2 (Pass)
//Storyboard Layer 3 (Foreground)
//Storyboard Sound Samples

[TimingPoints]
1363,419.58041958042,4,2,0,100,1,0
8076,-100,4,1,0,100,0,0
11642,-100,4,2,0,100,0,0
14789,-90.9090909090909,4,1,0,100,0,0
24859,-111.111111111111,4,1,0,100,0,0
28635,-200,4,2,0,100,0,0
29894,-90.9090909090909,4,1,0,100,0,0
43321,-125,4,1,0,100,0,0
55069,-100,4,2,0,100,0,0
56852,-100,4,1,0,100,0,0
63460,-66.6666666666667,4,1,0,100,0,0
66817,-83.3333333333333,4,1,0,100,0,0
70174,-100,4,1,0,100,0,0
80244,-200,4,1,0,100,0,0
80873,-133.333333333333,4,1,0,100,0,0
81502,-100,4,1,0,100,0,0
82132,-80,4,1,0,100,0,0
82761,-66.6666666666667,4,1,0,100,0,0
83390,-57.1428571428571,4,1,0,100,0,0
84020,-100,4,1,0,100,0,0
85279,-142.857142857143,4,2,0,100,0,0
91992,-142.857142857143,4,3,0,100,0,0
98705,-90.9090909090909,4,1,0,100,0,0
111922,833.333333333333,4,2,0,100,1,0

[HitObjects]
360,88,1363,5,0,0:0:0:0:
300,155,1572,1,0,0:0:0:0:
390,156,1782,1,8,0:0:0:0:
327,89,1992,1,0,0:0:0:0:
236,86,2202,1,0,0:0:0:0:
154,123,2621,1,8,0:0:0:0:
151,213,3041,1,0,0:0:0:0:
219,271,3460,1,8,0:0:0:0:
308,260,3880,1,0,0:0:0:0:
347,179,4300,1,8,0:0:0:0:
326,91,4719,5,0,0:0:0:0:
255,146,4929,1,0,0:0:0:0:
256,55,5139,1,8,0:0:0:0:
325,111,5349,1,0,0:0:0:0:
309,199,5558,1,0,0:0:0:0:
227,236,5978,1,8,0:0:0:0:
162,173,6397,1,0,0:0:0:0:
173,83,6817,1,8,0:0:0:0:
261,68,7237,1,0,0:0:0:0:
321,134,7656,1,8,0:0:0:0:
369,210,8076,6,0,P|347:270|274:313,1,135
290,309,8495,1,2,0:0:0:0:
128,288,8705,1,2,0:0:0:0:
142,280,8810,1,0,0:0:0:0:
159,261,8915,1,0,0:0:0:0:
163,244,9020,1,0,0:0:0:0:
164,226,9125,1,2,0:0:0:0:
254,192,9335,1,2,0:0:0:0:
355,33,9754,6,0,P|299:70|276:132,1,135
277,133,10173,1,2,0:0:0:0:
421,167,10383,1,2,0:0:0:0:
405,181,10488,1,0,0:0:0:0:
400,201,10593,1,0,0:0:0:0:
409,223,10698,1,0,0:0:0:0:
418,239,10803,1,2,0:0:0:0:
325,308,11013,1,2,0:0:0:0:
253,252,11432,5,0,0:0:0:0:
176,191,11642,1,8,0:0:0:0:
148,293,11852,1,2,0:0:0:0:
161,107,12062,1,8,0:0:0:0:
346,182,12481,1,8,0:0:0:0:
369,333,12691,1,2,0:0:0:0:
364,74,12901,1,8,0:0:0:0:
118,183,13321,1,8,0:0:0:0:
82,332,13531,1,2,0:0:0:0:
89,47,13741,1,8,0:0:0:0:
423,177,14160,1,8,0:0:0:0:
458,371,14370,1,2,0:0:0:0:
452,30,14580,1,8,0:0:0:0:
464,122,14789,6,0,L|467:222,1,99.0000030212403
54,227,15209,2,0,L|55:122,1,99.0000030212403,2|0,0:0|0:0,0:0:0:0:
180,130,15628,6,0,L|178:233,1,99.0000030212403,2|0,0:0|0:0,0:0:0:0:
369,227,16048,2,0,L|368:127,1,99.0000030212403,2|0,0:0|0:0,0:0:0:0:
278,118,16467,5,2,0:0:0:0:
277,217,16677,1,0,0:0:0:0:
352,163,16887,1,2,0:0:0:0:
204,162,17097,1,0,0:0:0:0:
435,161,17307,5,2,0:0:0:0:
117,161,17516,1,0,0:0:0:0:
280,52,17726,1,2,0:0:0:0:
278,305,17936,1,0,0:0:0:0:
171,129,18146,6,0,L|172:29,1,99.0000030212403,2|0,0:0|0:0,0:0:0:0:
376,225,18565,2,0,L|375:335,1,99.0000030212403,2|0,0:0|0:0,0:0:0:0:
294,156,18985,6,0,L|297:276,1,99.0000030212403,2|0,0:0|0:0,0:0:0:0:
231,179,19404,2,0,L|232:38,1,99.0000030212403,2|0,0:0|0:0,0:0:0:0:
331,84,19824,5,2,0:0:0:0:
414,137,20034,1,0,0:0:0:0:
422,235,20244,1,2,0:0:0:0:
326,260,20453,1,0,0:0:0:0:
286,169,20663,5,2,0:0:0:0:
175,72,20873,1,0,0:0:0:0:
73,179,21083,1,2,0:0:0:0:
99,295,21293,1,0,0:0:0:0:
228,287,21502,6,0,P|276:277|318:242,1,99.0000030212403,2|0,0:0|0:0,0:0:0:0:
222,54,21922,2,0,P|270:64|312:99,1,99.0000030212403,2|0,0:0|0:0,0:0:0:0:
294,159,22342,6,0,P|255:128|207:118,1,99.0000030212403,2|0,0:0|0:0,0:0:0:0:
294,214,22762,2,0,P|255:244|207:254,1,99.0000030212403,2|0,0:0|0:0,0:0:0:0:
137,183,23181,5,2,0:0:0:0:
200,107,23390,1,0,0:0:0:0:
246,250,23600,1,2,0:0:0:0:
306,171,23810,1,0,0:0:0:0:
401,198,24020,5,2,0:0:0:0:
319,66,24230,1,0,0:0:0:0:
192,291,24439,1,2,0:0:0:0:
78,146,24649,1,0,0:0:0:0:
159,146,24859,5,0,0:0:0:0:
172,143,25069,1,4,2:0:0:0:
185,138,25279,1,0,0:0:0:0:
159,146,25488,5,0,0:0:0:0:
175,160,25698,1,4,2:0:0:0:
190,172,25908,1,0,0:0:0:0:
159,146,26118,5,0,0:0:0:0:
158,167,26328,1,4,2:0:0:0:
158,199,26537,1,0,0:0:0:0:
159,146,26747,5,0,0:0:0:0:
113,165,26957,1,4,2:0:0:0:
75,186,27167,1,0,0:0:0:0:
159,146,27376,5,0,0:0:0:0:
120,107,27586,1,4,2:0:0:0:
82,68,27796,1,0,0:0:0:0:
159,146,28006,5,0,0:0:0:0:
192,78,28216,1,4,2:0:0:0:
230,17,28425,1,0,0:0:0:0:
277,58,28635,6,0,L|302:94,1,45
302,94,29265,2,0,L|304:138,1,45
424,297,29894,6,0,L|479:212,2,99.0000030212403,0|0|2,0:0|0:0|0:0,0:0:0:0:
337,293,30523,1,0,0:0:0:0:
338,277,30628,1,2,0:0:0:0:
179,341,30838,1,2,0:0:0:0:
161,316,30943,1,0,0:0:0:0:
167,279,31048,1,0,0:0:0:0:
198,256,31153,1,2,0:0:0:0:
289,212,31363,1,2,0:0:0:0:
152,153,31572,6,0,L|60:202,2,99.0000030212403,0|0|2,0:0|0:0|0:0,0:0:0:0:
200,96,32201,1,0,0:0:0:0:
182,97,32306,1,2,0:0:0:0:
360,87,32516,1,2,0:0:0:0:
337,96,32621,1,0,0:0:0:0:
321,117,32726,1,0,0:0:0:0:
333,145,32831,1,2,0:0:0:0:
364,272,33041,1,2,0:0:0:0:
424,87,33251,6,0,L|400:195,2,99.0000030212403,0|0|2,0:0|0:0|0:0,0:0:0:0:
325,77,33880,1,0,0:0:0:0:
347,80,33985,1,2,0:0:0:0:
197,72,34195,1,2,0:0:0:0:
218,90,34300,1,0,0:0:0:0:
208,114,34405,1,0,0:0:0:0:
229,131,34510,1,0,0:0:0:0:
225,156,34614,1,0,0:0:0:0:
252,182,34719,1,0,0:0:0:0:
271,195,34824,1,0,0:0:0:0:
287,251,34929,5,8,2:0:0:0:
294,248,35034,1,0,0:0:0:0:
301,245,35139,1,0,0:0:0:0:
312,241,35244,1,0,0:0:0:0:
362,260,35349,5,8,2:0:0:0:
370,241,35453,1,0,0:0:0:0:
376,223,35558,1,0,0:0:0:0:
385,200,35663,1,0,0:0:0:0:
446,213,35768,5,8,2:0:0:0:
446,180,35873,1,0,0:0:0:0:
445,147,35978,1,0,0:0:0:0:
445,118,36083,1,0,0:0:0:0:
432,60,36188,5,8,2:0:0:0:
397,48,36293,1,0,0:0:0:0:
351,50,36397,1,0,0:0:0:0:
314,77,36502,1,0,0:0:0:0:
315,87,36607,6,0,L|318:191,2,99.0000030212403,0|0|2,0:0|0:0|0:0,0:0:0:0:
216,73,37237,1,0,0:0:0:0:
229,73,37342,1,2,0:0:0:0:
102,77,37551,1,2,0:0:0:0:
94,107,37656,1,0,0:0:0:0:
102,141,37761,1,0,0:0:0:0:
133,155,37866,1,2,0:0:0:0:
218,139,38076,1,2,0:0:0:0:
156,313,38286,6,0,L|178:214,2,99.0000030212403,0|0|2,0:0|0:0|0:0,0:0:0:0:
296,312,38916,1,0,0:0:0:0:
283,311,39021,1,2,0:0:0:0:
420,309,39230,1,2,0:0:0:0:
416,285,39335,1,0,0:0:0:0:
407,265,39440,1,0,0:0:0:0:
393,243,39545,1,2,0:0:0:0:
278,197,39755,1,2,0:0:0:0:
137,88,39964,6,0,L|100:180,2,99.0000030212403,0|0|2,0:0|0:0|0:0,0:0:0:0:
298,73,40594,1,0,0:0:0:0:
283,73,40699,1,2,0:0:0:0:
389,75,40908,1,2,0:0:0:0:
400,89,41013,1,0,0:0:0:0:
404,110,41118,1,0,0:0:0:0:
401,127,41223,1,0,0:0:0:0:
388,146,41328,1,0,0:0:0:0:
375,158,41432,1,0,0:0:0:0:
353,164,41537,1,0,0:0:0:0:
328,164,41642,5,8,2:0:0:0:
303,152,41747,1,0,0:0:0:0:
284,134,41852,1,0,0:0:0:0:
268,116,41957,1,0,0:0:0:0:
237,87,42062,5,8,2:0:0:0:
202,85,42167,1,0,0:0:0:0:
168,87,42272,1,0,0:0:0:0:
130,88,42376,1,0,0:0:0:0:
83,133,42481,5,8,2:0:0:0:
77,183,42586,1,0,0:0:0:0:
72,236,42691,1,0,0:0:0:0:
72,290,42796,1,0,0:0:0:0:
133,335,42901,5,8,2:0:0:0:
184,312,43006,1,0,0:0:0:0:
230,277,43111,1,0,0:0:0:0:
283,266,43216,1,0,0:0:0:0:
339,335,43321,6,0,P|398:340|482:294,1,144
257,194,43950,1,0,0:0:0:0:
88,89,44160,2,0,P|157:74|223:100,1,144
414,58,44999,5,0,0:0:0:0:
414,58,45209,1,4,0:0:0:0:
406,301,45628,1,0,0:0:0:0:
301,322,45838,1,0,0:0:0:0:
407,196,46048,1,4,0:0:0:0:
256,193,46467,1,0,0:0:0:0:
296,293,46677,6,0,P|312:246|355:157,1,144
316,31,47307,1,0,0:0:0:0:
216,293,47516,2,0,P|200:246|157:157,1,144
147,94,48356,5,0,0:0:0:0:
147,94,48565,1,4,0:0:0:0:
74,297,48985,1,0,0:0:0:0:
62,189,49195,1,0,0:0:0:0:
189,291,49404,1,4,0:0:0:0:
398,233,49824,1,0,0:0:0:0:
196,163,50034,6,0,P|207:121|316:108,1,144
454,164,50663,1,0,0:0:0:0:
196,163,50873,2,0,P|207:205|316:218,1,144
72,72,51712,5,0,0:0:0:0:
72,72,51922,1,4,0:0:0:0:
83,287,52342,1,0,0:0:0:0:
83,150,52551,1,0,0:0:0:0:
252,347,52761,1,4,0:0:0:0:
429,209,53181,1,0,0:0:0:0:
382,167,53390,5,0,0:0:0:0:
266,91,53600,1,8,0:0:0:0:
280,91,54020,1,8,0:0:0:0:
294,91,54439,1,8,0:0:0:0:
308,91,54859,1,8,0:0:0:0:
326,91,55069,5,8,0:0:0:0:
328,108,55174,1,0,0:0:0:0:
328,126,55279,1,8,0:0:0:0:
327,143,55383,1,0,0:0:0:0:
304,170,55488,1,8,0:0:0:0:
275,191,55593,1,0,0:0:0:0:
245,212,55698,1,8,0:0:0:0:
216,234,55803,1,0,0:0:0:0:
200,266,55908,5,8,0:0:0:0:
235,306,56013,1,0,0:0:0:0:
285,325,56118,1,8,0:0:0:0:
337,313,56223,1,0,0:0:0:0:
386,273,56328,1,8,0:0:0:0:
414,217,56432,1,0,0:0:0:0:
421,154,56537,1,8,0:0:0:0:
411,91,56642,1,0,0:0:0:0:
354,63,56747,5,4,0:0:0:0:
229,193,56957,1,0,0:0:0:0:
384,125,57167,1,2,0:0:0:0:
205,138,57376,1,0,0:0:0:0:
377,189,57586,1,2,0:0:0:0:
230,84,57796,1,0,0:0:0:0:
338,227,58006,1,2,0:0:0:0:
286,54,58216,1,0,0:0:0:0:
279,233,58425,6,0,L|213:294,1,90,2|0,0:0|0:0,0:0:0:0:
299,148,58845,2,0,L|364:86,1,90,2|0,0:0|0:0,0:0:0:0:
288,313,59265,2,0,L|222:374,1,90,2|0,0:0|0:0,0:0:0:0:
324,80,59684,2,0,L|389:18,1,90,2|0,0:0|0:0,0:0:0:0:
227,98,60104,5,4,2:0:0:0:
112,236,60314,1,0,0:0:0:0:
176,68,60523,1,2,0:0:0:0:
185,247,60733,1,0,0:0:0:0:
113,81,60943,1,2,0:0:0:0:
237,211,61153,1,0,0:0:0:0:
74,133,61363,1,2,0:0:0:0:
252,151,61572,1,0,0:0:0:0:
76,190,61782,6,0,L|196:199,1,90,2|0,0:0|0:0,0:0:0:0:
455,171,62202,2,0,L|359:166,1,90,2|0,0:0|0:0,0:0:0:0:
256,339,62621,2,0,L|280:230,1,90,2|0,0:0|0:0,0:0:0:0:
257,28,63041,2,0,L|225:141,1,90,2|0,0:0|0:0,0:0:0:0:
417,311,63460,5,0,0:0:0:0:
382,194,63670,1,0,0:0:0:0:
240,114,63880,1,0,0:0:0:0:
115,256,64090,1,0,0:0:0:0:
242,301,64300,1,0,0:0:0:0:
281,200,64509,6,0,P|325:124|229:49,1,202.500007724762
245,49,64929,2,0,P|201:71|161:327,1,337.500012874604
175,319,65558,2,0,P|213:240|450:334,1,405.000015449525
117,280,66817,5,0,0:0:0:0:
122,98,67027,1,4,2:0:0:0:
122,98,67132,1,0,0:0:0:0:
122,98,67237,1,0,0:0:0:0:
200,315,67446,5,0,0:0:0:0:
203,60,67656,1,4,2:0:0:0:
203,60,67761,1,0,0:0:0:0:
203,60,67866,1,0,0:0:0:0:
269,349,68076,5,0,0:0:0:0:
270,20,68286,1,4,2:0:0:0:
270,20,68390,1,0,0:0:0:0:
270,20,68495,1,0,0:0:0:0:
345,186,68705,5,0,0:0:0:0:
361,187,69125,1,0,0:0:0:0:
412,332,69544,5,0,0:0:0:0:
215,182,69754,1,0,0:0:0:0:
396,54,69964,1,0,0:0:0:0:
351,117,70174,5,4,2:0:0:0:
327,104,70383,1,0,0:0:0:0:
302,92,70593,1,2,0:0:0:0:
277,80,70803,1,0,0:0:0:0:
250,82,71013,1,2,0:0:0:0:
223,84,71223,1,0,0:0:0:0:
196,87,71432,1,2,0:0:0:0:
169,92,71642,1,0,0:0:0:0:
137,189,71852,5,2,0:0:0:0:
272,304,72062,1,0,0:0:0:0:
213,306,72272,1,2,0:0:0:0:
336,197,72481,1,0,0:0:0:0:
336,197,72691,1,2,0:0:0:0:
223,84,72901,1,0,0:0:0:0:
271,83,73111,1,2,0:0:0:0:
137,189,73321,1,0,0:0:0:0:
196,220,73530,5,4,2:0:0:0:
221,229,73740,1,0,0:0:0:0:
246,238,73950,1,2,0:0:0:0:
271,245,74160,1,0,0:0:0:0:
297,241,74369,1,2,0:0:0:0:
320,226,74579,1,0,0:0:0:0:
333,202,74789,1,2,0:0:0:0:
341,176,74999,1,0,0:0:0:0:
217,128,75209,5,2,0:0:0:0:
468,318,75418,1,0,0:0:0:0:
431,354,75628,1,2,0:0:0:0:
113,333,75838,1,0,0:0:0:0:
399,333,76048,1,0,0:0:0:0:
44,318,76258,1,0,0:0:0:0:
81,354,76468,1,2,0:0:0:0:
295,128,76677,1,2,0:0:0:0:
255,193,76887,5,4,2:0:0:0:
255,220,77097,1,0,0:0:0:0:
269,242,77307,1,2,0:0:0:0:
293,254,77516,1,0,0:0:0:0:
319,249,77726,1,2,0:0:0:0:
338,230,77936,1,0,0:0:0:0:
351,206,78146,1,2,0:0:0:0:
354,179,78356,1,0,0:0:0:0:
331,123,78565,5,2,0:0:0:0:
251,157,78775,1,0,0:0:0:0:
414,218,78985,1,2,0:0:0:0:
212,258,79195,1,0,0:0:0:0:
476,312,79404,1,2,0:0:0:0:
274,324,79614,1,0,0:0:0:0:
383,341,79824,1,2,0:0:0:0:
330,373,80034,1,0,0:0:0:0:
219,218,80244,6,0,L|260:189,1,45,0|4,0:0|2:0,0:0:0:0:
262,259,80873,6,0,L|252:162,1,67.5000025749208,0|4,0:0|2:0,0:0:0:0:
344,197,81502,6,0,L|213:189,1,90,0|4,0:0|2:0,0:0:0:0:
316,97,82132,6,0,L|244:205,1,112.5,0|4,0:0|2:0,0:0:0:0:
153,99,82761,6,0,L|267:203,1,135.000005149842,0|4,0:0|2:0,0:0:0:0:
134,293,83390,6,0,L|261:182,1,157.500001502037,0|4,0:0|2:0,0:0:0:0:
340,341,84020,5,0,0:0:0:0:
253,190,84230,1,4,0:0:0:0:
503,190,84649,5,0,0:0:0:0:
252,189,84859,1,4,0:0:0:0:
77,107,85279,6,0,P|122:68|184:58,1,94.499997116089
154,58,85698,1,2,0:0:0:0:
239,92,85908,1,2,0:0:0:0:
265,113,86013,1,0,0:0:0:0:
265,166,86118,1,0,0:0:0:0:
264,219,86223,1,0,0:0:0:0:
284,246,86328,1,2,0:0:0:0:
346,275,86537,1,2,0:0:0:0:
410,250,86747,1,2,0:0:0:0:
435,107,86957,6,0,P|390:68|328:58,1,94.499997116089
357,58,87376,1,2,0:0:0:0:
273,92,87586,1,2,0:0:0:0:
247,113,87691,1,0,0:0:0:0:
247,166,87796,1,0,0:0:0:0:
248,219,87901,1,0,0:0:0:0:
228,246,88006,1,2,0:0:0:0:
166,275,88215,1,2,0:0:0:0:
102,250,88425,1,2,0:0:0:0:
77,107,88635,6,0,P|122:68|184:58,1,94.499997116089
154,58,89054,1,2,0:0:0:0:
239,92,89264,1,2,0:0:0:0:
265,113,89369,1,0,0:0:0:0:
265,166,89474,1,0,0:0:0:0:
264,219,89579,1,0,0:0:0:0:
284,246,89684,1,2,0:0:0:0:
346,275,89894,1,2,0:0:0:0:
410,250,90103,1,2,0:0:0:0:
400,180,90314,5,8,0:0:0:0:
393,162,90418,1,0,0:0:0:0:
386,144,90523,1,0,0:0:0:0:
377,127,90628,1,0,0:0:0:0:
345,125,90733,5,8,2:0:0:0:
313,128,90838,1,0,0:0:0:0:
281,131,90943,1,0,0:0:0:0:
250,137,91048,1,0,0:0:0:0:
211,140,91153,5,8,0:0:0:0:
188,175,91258,1,0,0:0:0:0:
192,215,91363,1,0,0:0:0:0:
206,252,91467,1,0,0:0:0:0:
233,272,91572,5,8,0:0:0:0:
276,294,91677,1,0,0:0:0:0:
318,273,91782,1,0,0:0:0:0:
347,233,91887,1,0,0:0:0:0:
355,184,91992,5,2,0:0:0:0:
463,46,92202,1,0,0:0:0:0:
453,56,92411,1,0,0:0:0:0:
437,75,92621,1,0,0:0:0:0:
344,75,92831,5,2,0:0:0:0:
182,120,93041,1,0,0:0:0:0:
195,115,93251,1,0,0:0:0:0:
208,110,93460,1,0,0:0:0:0:
173,202,93670,5,2,0:0:0:0:
357,157,93880,1,0,0:0:0:0:
337,164,94090,1,0,0:0:0:0:
313,168,94300,1,0,0:0:0:0:
376,63,94509,5,2,0:0:0:0:
375,299,94719,1,0,0:0:0:0:
377,276,94929,1,0,0:0:0:0:
374,248,95139,1,0,0:0:0:0:
316,221,95349,6,0,L|279:213,3,31.4999990386963,2|0|0|0,0:0|0:0|0:0|0:0,0:0:0:0:
315,196,95768,2,0,L|284:169,3,31.4999990386963,2|0|0|0,0:0|0:0|0:0|0:0,0:0:0:0:
325,181,96188,2,0,L|325:140,3,31.4999990386963,2|0|0|0,0:0|0:0|0:0|0:0,0:0:0:0:
366,179,96607,2,0,L|403:143,3,31.4999990386963,2|0|0|0,0:0|0:0|0:0|0:0,0:0:0:0:
364,131,97027,5,2,0:0:0:0:
353,115,97132,1,0,0:0:0:0:
344,98,97237,1,2,0:0:0:0:
331,83,97342,1,0,0:0:0:0:
313,76,97446,5,2,0:0:0:0:
294,80,97551,1,0,0:0:0:0:
276,97,97656,1,2,0:0:0:0:
260,124,97761,1,0,0:0:0:0:
244,158,97866,5,2,0:0:0:0:
238,195,97971,1,0,0:0:0:0:
248,231,98076,1,2,0:0:0:0:
273,259,98181,1,0,0:0:0:0:
297,278,98286,5,2,0:0:0:0:
321,273,98390,1,0,0:0:0:0:
340,262,98495,1,2,0:0:0:0:
350,255,98600,1,0,0:0:0:0:
367,247,98705,6,0,P|425:214|361:131,1,198.000006042481,4|0,2:0|0:0,0:0:0:0:
254,112,99335,1,0,0:0:0:0:
432,91,99544,2,0,P|356:65|247:119,1,198.000006042481
103,155,100383,6,0,L|82:266,2,99.0000030212403
181,166,101013,1,2,0:0:0:0:
188,127,101118,1,2,0:0:0:0:
253,171,101328,1,2,0:0:0:0:
250,210,101432,1,0,0:0:0:0:
245,249,101537,1,0,0:0:0:0:
242,288,101642,1,2,0:0:0:0:
310,327,101852,1,2,0:0:0:0:
425,300,102062,6,0,P|342:246|245:236,1,198.000006042481
143,181,102691,1,0,0:0:0:0:
200,355,102901,2,0,P|156:312|147:173,1,198.000006042481
196,74,103740,6,2,L|177:185,1,99.0000030212403
179,171,104055,1,8,0:0:0:0:
179,171,104160,2,2,L|264:286,1,99.0000030212403
237,250,104474,1,8,0:0:0:0:
237,250,104579,2,2,L|362:290,1,99.0000030212403
331,280,104894,1,8,0:0:0:0:
331,280,104999,2,2,L|448:268,1,99.0000030212403
429,269,105314,1,8,0:0:0:0:
256,192,105418,12,0,106992,0:0:0:0:
256,192,107097,12,0,108775,0:0:0:0:
334,99,108985,6,0,L|266:200,1,99.0000030212403
161,162,109509,2,0,P|157:238|189:289,1,99.0000030212403
239,285,109929,1,0,0:0:0:0:
239,285,110034,1,0,0:0:0:0:
371,266,110244,1,0,0:0:0:0:
284,138,110453,5,4,2:0:0:0:
286,92,111922,6,2,P|198:76|109:86,1,180
108,297,113172,2,2,P|198:307|286:291,1,180
462,198,114422,2,2,P|373:182|284:191,1,180
116,229,115672,6,2,L|226:227,1,90
406,172,116505,2,2,L|283:170,1,90
105,111,117338,2,2,L|215:113,1,90
439,319,118172,2,2,L|330:318,1,90
351,329,119213,5,2,0:0:0:0:
314,244,119942,5,2,0:0:0:0:
294,207,120046,1,2,0:0:0:0:
273,165,120151,1,2,0:0:0:0:
256,192,120463,12,4,122755,0:0:0:0:
