osu file format v12

[General]
AudioFilename: Saika Ver.2.mp3
AudioLeadIn: 0
PreviewTime: 47618
Countdown: 0
SampleSet: Normal
StackLeniency: 0.7
Mode: 0
LetterboxInBreaks: 0
WidescreenStoryboard: 0

[Editor]
DistanceSpacing: 1
BeatDivisor: 2
GridSize: 4

[Metadata]
Title:Saika -Ver.B-
TitleUnicode:Saika -Ver.B-
Artist:Rabpit
ArtistUnicode:Rabpit
Creator:Azmato
Version:Normal
Source:Cytus
Tags:[Navy] Startrick 7omoa
BeatmapID:313890
BeatmapSetID:115114

[Difficulty]
HPDrainRate:4
CircleSize:3
OverallDifficulty:4
ApproachRate:4
SliderMultiplier:1
SliderTickRate:1

[Events]
//Background and Video events
0,0,"BG.png",0,0
//Break Periods
2,78294,84393
2,93532,99631
//Storyboard Layer 0 (Background)
//Storyboard Layer 1 (Fail)
//Storyboard Layer 2 (Pass)
//Storyboard Layer 3 (Foreground)
//Storyboard Sound Samples
//Background Colour Transformations
3,100,163,162,255

[TimingPoints]
1904,476.190476190476,4,1,0,100,1,0
1904,-100,4,2,1,30,0,0
17142,-100,4,1,1,45,0,0
47618,-100,4,1,1,55,0,1
66427,-100,4,1,1,50,0,1
70475,-100,4,1,1,45,0,0
73808,-100,4,1,1,45,0,0
100951,-100,4,2,1,30,0,0
108570,-100,4,1,1,55,0,1
116189,-100,4,1,1,50,0,1
123570,-100,4,1,1,40,0,0

[Colours]
Combo1 : 255,255,255
Combo2 : 128,255,255
Combo3 : 111,111,111
Combo4 : 128,128,255

[HitObjects]
204,112,1904,2,0,P|148:112|68:224,1,200,0|2,0:0|0:0,0:0:0:0:
216,352,3808,2,0,P|272:352|344:232,1,200,0|2,0:0|0:0,0:0:0:0:
448,72,5713,2,0,P|351:61|282:129,1,200,0|2,0:0|0:0,0:0:0:0:
104,108,7618,6,0,L|76:204,1,100,0|2,0:0|0:0,0:0:0:0:
172,232,8570,2,0,L|140:340,1,100,0|2,0:0|0:0,0:0:0:0:
240,348,9523,6,0,B|344:352|332:148|440:148,1,300,0|2,0:0|0:0,0:0:0:0:
468,244,11427,2,0,B|379:299|288:116|194:170,1,300,0|2,0:0|0:0,0:0:0:0:
148,80,13332,5,0,0:0:0:0:
108,276,14284,1,2,0:0:0:0:
300,220,15237,2,0,P|284:188|204:172,1,100,0|2,0:0|0:0,0:0:0:0:
140,216,16189,2,0,L|124:272,2,50,0|0|4,0:0|0:0|0:0,0:0:0:0:
192,128,17142,6,0,P|232:156|348:84,1,200,4|0,0:0|0:0,0:0:0:0:
444,112,18570,1,8,0:0:0:0:
460,212,19046,2,0,P|460:272|348:340,1,200,4|0,0:0|0:0,0:0:0:0:
276,276,20475,1,8,0:0:0:0:
176,288,20951,6,0,P|190:193|118:130,1,200,4|0,0:0|0:0,0:0:0:0:
164,40,22380,1,8,0:0:0:0:
248,92,22856,2,0,L|352:108,1,100,4|8,0:0|0:0,0:0:0:0:
300,196,23808,2,0,L|399:211,1,100,0|8,0:0|0:0,0:0:0:0:
332,288,24761,5,4,0:0:0:0:
232,280,25237,2,0,P|180:296|132:280,1,100,8|0,0:0|0:0,0:0:0:0:
64,216,26189,1,8,0:0:0:0:
144,152,26665,6,0,P|191:139|238:155,1,100,4|8,0:0|0:0,0:0:0:0:
296,72,27618,1,0,0:0:0:0:
338,163,28094,1,8,0:0:0:0:
316,260,28570,6,0,P|288:304|244:316,1,100,4|8,0:0|0:0,0:0:0:0:
176,244,29523,2,0,P|124:224|72:248,1,100,0|8,0:0|0:0,0:0:0:0:
52,332,30475,1,4,2:0:0:0:
176,76,32380,6,0,L|156:176,1,100,0|8,0:0|0:0,0:0:0:0:
236,340,33570,2,0,L|248:292,1,50,0|8,0:0|0:0,0:0:0:0:
328,232,34284,2,0,L|308:133,1,100,0|8,0:0|0:0,0:0:0:0:
184,48,35475,2,0,L|196:100,1,50,0|8,0:0|0:0,0:0:0:0:
120,160,36189,5,0,0:0:0:0:
160,252,36665,1,8,0:0:0:0:
256,280,37142,2,0,L|264:344,2,50,0|0|8,0:0|0:0|0:0,0:0:0:0:
344,232,38094,2,0,P|374:193|383:144,1,100,0|8,0:0|0:0,0:0:0:0:
284,148,39046,2,0,P|275:99|244:60,1,100,0|8,0:0|0:0,0:0:0:0:
188,144,39999,5,0,0:0:0:0:
128,224,40475,1,8,0:0:0:0:
228,232,40951,2,0,P|272:264|280:312,1,100,0|8,0:0|0:0,0:0:0:0:
180,320,41903,1,0,0:0:0:0:
96,264,42380,1,8,0:0:0:0:
136,172,42856,2,0,L|132:112,2,50,0|0|8,0:0|0:0|0:0,0:0:0:0:
236,188,43808,5,4,0:0:0:0:
308,260,44284,2,0,L|360:304,1,50,8|0,0:0|0:0,0:0:0:0:
360,192,44999,2,0,L|308:148,1,50,0|8,0:0|0:0,0:0:0:0:
284,64,45713,6,0,L|176:92,1,100,0|8,0:0|0:0,0:0:0:0:
172,188,46665,2,0,L|268:163,1,100,0|8,0:0|0:0,0:0:0:0:
268,264,47618,5,4,0:0:0:0:
352,316,48094,2,0,P|368:268|340:208,1,100,8|0,0:0|0:0,0:0:0:0:
384,128,49046,1,8,0:0:0:0:
284,148,49523,2,0,P|224:172|180:152,1,100,0|8,0:0|0:0,0:0:0:0:
108,216,50475,2,0,L|64:256,2,50,0|0|8,0:0|0:0|0:0,0:0:0:0:
196,260,51427,5,0,0:0:0:0:
292,284,51903,1,8,0:0:0:0:
372,224,52380,1,0,0:0:0:0:
400,128,52856,1,8,0:0:0:0:
332,56,53332,2,0,P|308:80|240:96,1,100,0|8,0:0|0:0,0:0:0:0:
164,152,54284,2,0,P|201:183|250:192,1,100,0|8,0:0|0:0,0:0:0:0:
308,272,55237,5,4,0:0:0:0:
368,192,55713,2,0,P|412:228|412:284,1,100,8|0,0:0|0:0,0:0:0:0:
308,272,56665,1,8,0:0:0:0:
228,336,57142,2,0,P|180:352|132:336,1,100,0|8,0:0|0:0,0:0:0:0:
184,252,58094,2,0,L|184:152,1,100,0|8,0:0|0:0,0:0:0:0:
144,60,59046,5,0,0:0:0:0:
244,80,59523,1,8,0:0:0:0:
304,160,59999,1,0,0:0:0:0:
300,260,60475,1,8,0:0:0:0:
228,332,60951,2,0,L|130:352,1,100,0|8,0:0|0:0,0:0:0:0:
148,252,61903,2,0,L|50:231,1,100,0|8,0:0|0:0,0:0:0:0:
64,132,62856,5,4,0:0:0:0:
152,84,63332,2,0,P|180:72|260:96,1,100,8|0,0:0|0:0,0:0:0:0:
312,160,64284,1,8,0:0:0:0:
248,236,64761,2,0,P|220:248|140:224,1,100,0|8,0:0|0:0,0:0:0:0:
68,288,65713,2,0,P|43:269|24:188,1,100,0|8,0:0|0:0,0:0:0:0:
72,192,66427,6,0,P|84:156|152:116,1,100
200,192,67380,2,0,P|212:156|280:116,1,100
328,192,68332,2,0,P|340:156|408:116,1,100,0|4,0:0|0:0,0:0:0:0:
424,212,69284,2,0,P|405:257|324:288,1,100
316,296,69999,2,0,L|272:244,2,50,0|0|4,0:0|0:0|0:0,0:0:0:0:
216,312,70951,6,0,L|260:364,2,50,0|0|0,0:0|0:0|0:0,0:0:0:0:
116,304,71903,1,8,0:0:0:0:
68,216,72380,2,0,P|76:172|128:116,1,100,0|8,0:0|0:0,0:0:0:0:
168,208,73332,1,0,0:0:0:0:
260,172,73808,1,8,0:0:0:0:
328,248,74284,6,0,L|360:148,1,100,4|8,0:0|0:0,0:0:0:0:
260,172,75237,2,0,L|292:72,1,100,4|8,0:0|0:0,0:0:0:0:
192,100,76189,2,0,L|161:195,1,100,4|8,0:0|0:0,0:0:0:0:
228,268,77142,2,0,L|259:173,1,100,0|8,0:0|0:0,0:0:0:0:
290,76,78094,1,4,2:0:0:0:
328,80,85713,6,0,P|376:132|296:216,1,200,4|0,0:0|0:0,0:0:0:0:
244,140,87142,1,8,0:0:0:0:
189,67,87618,2,0,P|119:126|168:204,1,200
244,140,89046,1,8,0:0:0:0:
264,240,89523,6,0,P|236:284|176:304,1,100,4|8,0:0|0:0,0:0:0:0:
156,212,90475,2,0,P|103:209|56:167,1,100,0|8,0:0|0:0,0:0:0:0:
48,84,91427,1,0,0:0:0:0:
144,112,91903,2,0,P|204:72|244:76,1,100,8|0,0:0|0:0,0:0:0:0:
312,128,92856,2,0,P|360:121|397:88,1,100,8|4,0:0|2:0,0:0:0:0:
216,104,100951,6,0,B|304:136|304:136|332:220|368:220,1,200,4|8,0:0|1:0,0:0:0:0:
272,260,102380,1,2,0:0:0:0:
208,192,102856,2,0,B|120:160|120:160|92:76|56:76,1,200,0|8,0:0|0:0,0:0:0:0:
156,44,104284,5,2,0:0:0:0:
248,80,104761,2,0,B|336:76|336:76|328:108|272:160|336:240|404:240,1,300,2|2,3:0|0:0,0:0:0:0:
328,316,106665,2,0,P|204:308|232:168,1,300,0|2,0:0|0:0,0:0:0:0:
184,80,108570,6,0,P|144:76|88:120,1,100,4|8,0:0|0:0,0:0:0:0:
172,172,109523,2,0,P|211:200|260:199,1,100,0|8,0:0|0:0,0:0:0:0:
324,124,110475,2,0,P|373:122|412:151,1,100,0|8,0:0|0:0,0:0:0:0:
340,220,111427,2,0,P|330:268|352:311,1,100,0|8,0:0|0:0,0:0:0:0:
388,348,112142,5,0,0:0:0:0:
436,260,112618,2,0,P|460:216|460:148,1,100
360,184,113570,2,0,P|358:133|324:75,1,100
252,132,114523,2,0,P|225:89|167:55,1,100
140,148,115475,2,0,P|96:123|27:124,1,100
44,168,116189,6,0,L|20:220,2,50,4|0|8,0:0|0:0|0:0,0:0:0:0:
128,224,117142,2,0,L|152:276,2,50,0|0|8,0:0|0:0|0:0,0:0:0:0:
228,232,118094,2,0,L|272:336,1,100,0|8,0:0|0:0,0:0:0:0:
344,260,119046,2,0,L|305:167,1,100,0|8,0:0|0:0,0:0:0:0:
400,132,119999,6,0,L|352:88,2,50,0|0|8,0:0|0:0|0:0,0:0:0:0:
304,164,120951,2,0,L|236:152,2,50,0|0|8,0:0|0:0|0:0,0:0:0:0:
256,252,121903,2,0,L|192:276,2,50,0|0|8,0:0|0:0|0:0,0:0:0:0:
332,316,122856,2,0,L|296:368,2,50
380,308,123570,1,4,2:0:0:0:
