osu file format v13

[General]
AudioFilename: 13 -Saika-.mp3
AudioLeadIn: 0
PreviewTime: 34867
Countdown: 0
SampleSet: Soft
StackLeniency: 0.7
Mode: 3
LetterboxInBreaks: 0
SpecialStyle: 1
WidescreenStoryboard: 1

[Editor]
Bookmarks: 40782,43058,45334,48024,61265,64368,74506,87748,100989
DistanceSpacing: 1.4
BeatDivisor: 4
GridSize: 8
TimelineZoom: 1.7

[Metadata]
Title:Saika
TitleUnicode:Saika
Artist:Rabpit
ArtistUnicode:Rabpit
Creator:Rumia-
Version:Lv.6
Source:Mozarc
Tags:Cytus Dr_dy
BeatmapID:437374
BeatmapSetID:182221

[Difficulty]
HPDrainRate:7
CircleSize:7
OverallDifficulty:7
ApproachRate:9
SliderMultiplier:1.6
SliderTickRate:1

[Events]
//Background and Video events
0,0,"saika bg.jpg",0,0
//Break Periods
//Storyboard Layer 0 (Background)
//Storyboard Layer 1 (Fail)
//Storyboard Layer 2 (Pass)
//Storyboard Layer 3 (Foreground)
//Storyboard Sound Samples
//Background Colour Transformations
3,100,163,162,255

[TimingPoints]
8385,413.793103448276,4,2,2,60,1,0
13350,-100,4,2,2,60,0,0
13453,-100,4,2,2,60,0,0
18316,-100,4,2,2,60,0,0
21626,-100,4,2,2,60,0,0
21729,-100,4,2,2,60,0,0
21936,-100,4,2,2,60,0,0
22143,-100,4,2,2,60,0,0
22350,-100,4,2,2,60,0,0
22557,-100,4,2,2,60,0,0
22764,-100,4,2,2,60,0,0
22971,-100,4,2,2,60,0,0
23281,-100,4,2,2,60,0,0
23385,-100,4,2,2,60,0,0
23591,-100,4,2,2,60,0,0
23798,-100,4,2,2,60,0,0
24109,-100,4,2,2,60,0,0
24212,-100,4,2,2,60,0,0
24419,-100,4,2,2,60,0,0
24936,-100,4,2,2,60,0,0
25040,-100,4,2,2,60,0,0
25247,-100,4,2,2,60,0,0
25660,-100,4,2,2,60,0,0
26074,-100,4,2,2,60,0,0
26281,-100,4,2,2,60,0,0
28247,-100,4,2,2,60,0,0
28557,-100,4,2,2,60,0,0
31971,-100,4,2,2,60,0,0
34764,-100,4,2,2,60,0,0
34867,-100,4,2,2,60,0,1
41488,-100,4,2,2,60,0,1
44695,-100,4,2,2,60,0,1
46453,-100,4,2,2,60,0,0
47281,-100,4,2,2,70,0,0
47695,-100,4,2,2,80,0,0
48212,-100,4,2,2,60,0,0
53074,-100,4,2,2,80,0,0
54212,-100,4,2,2,60,0,0
58557,-100,4,2,2,60,0,0
60522,-100,4,2,2,60,0,0
61143,-100,4,2,2,80,0,0
64453,-100,4,2,2,75,0,0
67867,-100,4,2,2,60,0,0
68695,-100,4,2,2,80,0,0
69109,-100,4,2,2,80,0,0
71385,-100,4,2,2,70,0,0
72833,-100,4,2,2,90,0,0
74591,-100,4,2,2,40,0,0
79958,-100,4,2,2,75,0,0
81109,-100,4,2,2,75,0,0
81316,-100,4,2,2,55,0,0
82557,-100,4,2,2,65,0,0
84419,-100,4,2,2,75,0,0
85453,-100,4,2,2,85,0,0
87005,-100,4,2,2,85,0,0
87833,-100,4,2,2,85,0,0
87936,-100,4,2,2,65,0,0
93522,-100,4,2,2,75,0,0
94143,-100,4,2,2,65,0,0
101074,-100,4,2,2,65,0,1
104178,-100,4,2,2,65,0,1
107695,-100,4,2,2,65,0,0
110695,-100,4,2,2,75,0,0
113281,-100,4,2,2,65,0,0
114005,-100,4,2,2,65,0,0

[Colours]
Combo1 : 255,179,255
Combo2 : 164,209,255
Combo3 : 221,221,221
Combo4 : 191,191,255

[HitObjects]
256,192,8384,5,4,0:0:0:0:
182,192,8798,1,0,0:0:0:0:
329,192,9005,1,0,0:0:0:0:
182,192,9626,1,4,0:0:0:0:
402,192,9833,1,2,0:0:0:0:
182,192,10453,1,4,0:0:0:0:
329,192,10660,1,2,0:0:0:0:
182,192,11281,1,4,0:0:0:0:
256,192,11488,1,2,0:0:0:0:
109,192,13350,1,0,0:0:0:0:
402,192,13971,1,2,0:0:0:0:
36,192,14385,1,2,0:0:0:0:
256,192,14591,1,0,0:0:0:0:
36,192,14798,1,2,0:0:0:0:
475,192,15005,1,4,0:0:0:0:
182,192,15419,1,0,0:0:0:40:soft-hitfinish2.wav
329,192,15626,1,2,0:0:0:0:
182,192,16247,1,0,0:0:0:0:
256,192,16453,1,2,0:0:0:0:
182,192,17074,1,0,0:0:0:0:
329,192,17281,1,2,0:0:0:0:
182,192,17902,1,0,0:0:0:0:
402,192,18109,1,2,0:0:0:0:
256,192,18316,1,4,0:0:0:0:
256,192,18729,1,4,0:0:0:0:
256,192,19143,1,4,0:0:0:0:
256,192,19557,1,4,0:0:0:0:
256,192,19971,1,4,0:0:0:0:
256,192,20385,1,4,0:0:0:0:
256,192,20798,1,4,0:0:0:0:
256,192,21212,1,4,0:0:0:0:
256,192,21419,1,2,0:0:0:0:
256,192,21626,1,4,0:0:0:0:
329,192,21833,1,2,0:0:0:0:
402,192,22247,1,2,0:0:0:0:
475,192,22660,1,0,0:0:0:0:
402,192,23074,1,2,0:0:0:0:
329,192,23488,1,2,0:0:0:0:
256,192,23902,1,0,0:0:0:70:buluh 2.wav
182,192,24109,1,4,0:0:0:70:buluh 2.wav
256,192,24316,1,0,0:0:0:70:buluh 2.wav
329,192,24729,1,0,0:0:0:70:buluh 2.wav
402,192,25143,1,0,0:0:0:0:
475,192,25764,1,4,0:0:0:70:buluh 1.wav
475,192,25971,1,0,0:0:0:70:buluh 1.wav
329,192,26385,1,0,0:0:0:70:buluh 2.wav
256,192,26591,128,4,27212:0:0:0:0:
182,192,27212,128,2,27833:0:0:0:0:
109,192,27833,1,4,0:0:0:0:
329,192,28040,1,2,0:0:0:0:
109,192,28247,1,4,0:0:0:0:
182,192,28453,1,2,0:0:0:0:
256,192,28867,1,2,0:0:0:0:
329,192,29281,1,2,0:0:0:0:
256,192,29695,1,0,0:0:0:70:buluh 2.wav
182,192,30109,1,2,0:0:0:70:buluh 2.wav
109,192,30522,1,2,0:0:0:70:buluh 2.wav
36,192,30729,1,4,0:0:0:70:buluh 1.wav
109,192,30936,1,2,0:0:0:70:buluh 2.wav
182,192,31350,1,2,0:0:0:70:buluh 2.wav
182,192,32178,1,2,0:0:0:70:buluh 2.wav
329,192,32385,1,4,0:0:0:70:buluh 2.wav
109,192,32591,1,2,0:0:0:70:buluh 2.wav
402,192,32798,1,4,0:0:0:70:buluh 2.wav
182,192,33005,1,2,0:0:0:70:buluh 2.wav
329,192,33212,1,4,0:0:0:70:buluh 2.wav
256,192,33626,1,4,0:0:0:70:buluh 1.wav
182,192,34040,1,4,0:0:0:70:buluh 2.wav
182,192,34453,1,4,0:0:0:0:
329,192,34660,1,4,0:0:0:0:
475,192,34867,1,4,2:0:0:0:
109,192,35281,1,8,0:0:0:0:
329,192,35488,1,2,0:0:0:0:
109,192,36109,1,8,0:0:0:0:
402,192,36316,1,0,0:0:0:0:
109,192,36936,1,8,0:0:0:0:
256,192,37143,1,0,0:0:0:70:buluh 2.wav
109,192,37764,1,8,0:0:0:0:
256,192,38385,1,2,0:0:0:0:
329,192,38798,1,2,0:0:0:0:
402,192,39212,1,4,0:0:0:0:
475,192,39626,1,2,0:0:0:0:
36,192,40040,1,2,0:0:0:0:
109,192,40453,1,2,0:0:0:0:
182,192,40867,1,2,0:0:0:0:
256,192,41281,1,0,0:0:0:70:buluh 2.wav
329,192,41488,128,4,42316:0:0:0:0:
109,192,42316,128,4,43143:0:0:0:0:
402,192,43143,128,4,43764:0:0:0:0:
109,192,43764,1,2,0:0:0:0:
256,192,44178,1,0,0:0:0:0:
475,192,44591,128,2,46040:0:0:0:0:
329,192,46040,1,8,0:0:0:0:
182,192,46453,1,4,2:0:0:0:
256,192,46867,1,0,0:0:0:0:
109,192,47281,1,0,0:0:0:70:buluh 1.wav
182,192,47695,1,4,2:0:0:0:
36,192,48109,1,4,2:0:0:0:
109,192,48522,1,8,0:0:0:0:
36,192,48936,1,4,0:0:0:0:
109,192,49350,1,8,0:0:0:0:
182,192,49557,1,0,0:0:0:0:
256,192,49971,1,0,0:0:0:0:
329,192,50178,1,8,0:0:0:0:
256,192,50385,1,0,0:0:0:0:
329,192,50798,1,0,0:0:0:70:buluh 2.wav
475,192,51212,1,2,0:0:0:0:
402,192,51626,1,0,0:0:0:0:buluh 2.wav
329,192,52040,1,0,0:0:0:70:buluh 1.wav
256,192,52453,1,0,0:0:0:70:buluh 1.wav
182,192,52867,128,0,54109:0:0:0:0:
109,192,54109,1,0,0:0:0:70:buluh 1.wav
402,192,54316,1,8,0:0:0:0:
182,192,54522,1,2,0:0:0:0:
475,192,54729,1,4,0:0:0:0:
402,192,55143,1,8,0:0:0:0:
329,192,55350,1,0,0:0:0:0:
402,192,55971,1,8,0:0:0:0:
256,192,56178,1,0,0:0:0:0:
329,192,56798,1,8,0:0:0:0:
256,192,57005,1,0,0:0:0:0:
329,192,57626,1,8,0:0:0:0:
182,192,57833,128,2,59695:0:0:0:0:
329,192,59695,1,4,0:0:0:0:
402,192,60109,1,8,0:0:0:0:
402,192,60316,1,2,0:0:0:0:
109,192,60729,1,0,0:0:0:70:buluh 2.wav
256,192,60936,1,4,0:0:0:0:
402,192,61143,1,4,0:0:0:0:
36,192,61350,1,4,2:0:0:0:
475,192,61350,1,4,0:0:0:0:
109,192,61764,1,8,0:0:0:0:
256,192,61971,1,2,0:0:0:0:
182,192,62385,1,2,0:0:0:0:
329,192,62798,1,0,0:0:0:0:
256,192,63419,1,8,0:0:0:0:
402,192,63626,1,2,0:0:0:0:
329,192,64040,1,0,0:0:0:70:buluh 1.wav
475,192,64453,1,0,0:0:0:0:
402,192,64867,1,2,0:0:0:0:
329,192,65281,1,2,0:0:0:0:
256,192,65695,1,2,0:0:0:0:
182,192,66109,1,2,0:0:0:0:
329,192,66522,1,2,0:0:0:0:
256,192,66936,1,2,0:0:0:0:
182,192,67350,1,2,0:0:0:0:
109,192,67764,128,4,68798:0:0:0:0:
256,192,67971,1,4,2:0:0:0:
402,192,68798,1,4,0:0:0:70:buluh 1.wav
402,192,69005,1,0,0:0:0:70:buluh 1.wav
329,192,69419,128,2,70660:0:0:0:0:
109,192,70660,1,0,0:0:0:0:
109,192,71074,1,0,0:0:0:70:buluh 2.wav
256,192,71488,1,0,0:0:0:70:buluh 2.wav
256,192,71695,1,8,0:0:0:70:buluh 2.wav
402,192,72109,1,4,0:0:0:70:buluh 2.wav
109,192,72316,1,0,0:0:0:70:buluh 2.wav
402,192,72522,1,8,0:0:0:70:buluh 2.wav
109,192,72729,1,0,0:0:0:70:buluh 2.wav
36,192,72936,1,4,0:0:0:70:buluh 2.wav
109,192,73143,1,0,0:0:0:70:buluh 2.wav
182,192,73350,1,8,0:0:0:70:buluh 2.wav
256,192,73557,1,0,0:0:0:70:buluh 2.wav
329,192,73764,1,4,0:0:0:70:buluh 2.wav
402,192,73971,1,0,0:0:0:70:buluh 2.wav
475,192,74178,1,8,0:0:0:70:buluh 2.wav
402,192,74385,1,0,0:0:0:70:buluh 2.wav
329,192,74591,1,4,2:0:0:0:
182,192,75212,1,2,0:0:0:0:
256,192,75626,1,2,0:0:0:0:
329,192,76040,1,0,0:0:0:70:buluh 1.wav
402,192,76453,1,0,0:0:0:70:buluh 1.wav
402,192,76867,1,2,0:0:0:0:
402,192,77074,1,0,0:0:0:70:buluh 2.wav
475,192,77281,1,0,0:0:0:70:buluh 2.wav
402,192,77488,1,0,0:0:0:0:
329,192,77695,1,0,0:0:0:70:buluh 1.wav
182,192,78109,1,2,0:0:0:0:
182,192,78522,1,2,0:0:0:0:
109,192,78936,1,0,0:0:0:70:buluh 2.wav
109,192,79350,1,0,0:0:0:70:buluh 2.wav
36,192,79764,1,0,0:0:0:70:buluh 1.wav
36,192,80178,1,0,0:0:0:0:
36,192,80385,1,0,0:0:0:0:
182,192,80591,1,0,0:0:0:70:buluh 1.wav
329,192,80798,1,0,0:0:0:0:
475,192,81005,1,0,0:0:0:0:
256,192,81212,1,2,0:0:0:70:buluh 2.wav
256,192,81626,1,2,0:0:0:70:buluh 2.wav
256,192,82040,1,2,0:0:0:70:buluh 2.wav
256,192,82453,1,2,0:0:0:70:buluh 2.wav
256,192,82867,1,2,0:0:0:70:buluh 2.wav
256,192,83281,1,2,0:0:0:70:buluh 2.wav
256,192,83695,1,2,0:0:0:70:buluh 1.wav
256,192,84109,1,2,0:0:0:70:buluh 1.wav
256,192,84316,1,2,0:0:0:70:soft-hitwhistle2.wav
256,192,84522,1,2,0:0:0:70:buluh 2.wav
256,192,84936,1,2,0:0:0:70:buluh 1.wav
256,192,85350,1,2,0:0:0:0:
256,192,85764,1,2,0:0:0:70:buluh 1.wav
256,192,86178,1,2,0:0:0:70:buluh 1.wav
256,192,86591,1,2,0:0:0:70:buluh 1.wav
256,192,87005,1,2,0:0:0:70:buluh 2.wav
256,192,87419,1,4,0:0:0:70:buluh 2.wav
256,192,87626,1,4,0:0:0:70:buluh 2.wav
256,192,87833,1,4,2:0:0:0:
475,192,87833,1,4,0:0:0:0:
36,192,88247,1,4,0:0:0:0:
475,192,88660,1,4,0:0:0:70:buluh 2.wav
36,192,89074,1,4,0:0:0:0:
402,192,89488,1,4,0:0:0:70:buluh 2.wav
109,192,89902,1,4,0:0:0:0:
402,192,90316,1,4,0:0:0:0:
109,192,90729,1,4,0:0:0:0:
329,192,91143,1,4,0:0:0:0:
182,192,91557,1,4,0:0:0:0:
329,192,91971,1,4,0:0:0:0:
182,192,92385,1,4,0:0:0:0:
402,192,92798,1,4,0:0:0:0:
109,192,93212,1,4,0:0:0:0:
402,192,93626,1,4,0:0:0:0:
109,192,94040,1,4,0:0:0:0:
256,192,94247,1,2,0:0:0:0:
402,192,94453,128,4,96936:0:0:0:0:
256,192,96936,128,4,97764:0:0:0:70:buluh 2.wav
109,192,97764,128,6,99419:0:0:0:0:
475,192,99419,1,4,0:0:0:70:buluh 2.wav
182,192,100247,1,0,0:0:0:70:buluh 1.wav
402,192,100453,1,0,0:0:0:70:buluh 2.wav
256,192,100660,1,0,0:0:0:70:buluh 2.wav
109,192,100867,1,4,0:0:0:70:buluh 2.wav
36,192,101074,1,4,2:0:0:0:
182,192,101488,1,8,0:0:0:0:
256,192,101695,1,2,0:0:0:0:
182,192,102109,1,2,0:0:0:0:
329,192,102522,1,2,0:0:0:0:
256,192,103143,1,8,0:0:0:0:
329,192,103350,1,2,0:0:0:0:
256,192,103764,1,0,0:0:0:70:buluh 1.wav
402,192,104178,1,0,0:0:0:0:
475,192,104591,1,0,0:0:0:0:
402,192,105005,1,0,0:0:0:0:
329,192,105419,1,0,0:0:0:0:
256,192,105833,1,0,0:0:0:0:
182,192,106247,1,2,0:0:0:0:
109,192,106660,1,2,0:0:0:0:
36,192,107074,1,2,0:0:0:0:
256,192,107488,128,0,109350:0:0:0:0:
36,192,107695,1,4,0:0:0:0:
36,192,108109,1,8,0:0:0:0:
36,192,108522,1,4,0:0:0:0:
36,192,108936,1,8,0:0:0:0:
36,192,109350,1,4,0:0:0:0:
329,192,109350,128,0,111005:0:0:0:0:
36,192,109764,1,8,0:0:0:0:
36,192,110178,1,4,0:0:0:0:
36,192,110591,1,8,0:0:0:0:
36,192,111005,1,4,0:0:0:70:buluh 2.wav
475,192,111212,1,0,0:0:0:70:buluh 1.wav
475,192,111626,1,2,0:0:0:0:
402,192,112040,1,2,0:0:0:0:
329,192,112453,1,2,0:0:0:0:
256,192,112867,1,2,0:0:0:0:
109,192,113074,1,8,0:0:0:0:
402,192,113488,1,4,0:0:0:70:buluh 1.wav
256,192,113695,1,0,0:0:0:70:buluh 1.wav
109,192,113902,1,8,0:0:0:0:
402,192,114109,1,0,0:0:0:0:
