osu file format v13

[General]
AudioFilename: 13 -Saika-.mp3
AudioLeadIn: 0
PreviewTime: 34867
Countdown: 0
SampleSet: Soft
StackLeniency: 0.7
Mode: 3
LetterboxInBreaks: 0
SpecialStyle: 1
WidescreenStoryboard: 1

[Editor]
Bookmarks: 40782,43058,45334,48024,61265,64368,74506,87748,100989
DistanceSpacing: 1.4
BeatDivisor: 4
GridSize: 8
TimelineZoom: 1.7

[Metadata]
Title:Saika
TitleUnicode:Saika
Artist:Rabpit
ArtistUnicode:Rabpit
Creator:Rumia-
Version:Lv.15
Source:Mozarc
Tags:Cytus Dr_dy
BeatmapID:437117
BeatmapSetID:182221

[Difficulty]
HPDrainRate:8
CircleSize:7
OverallDifficulty:7
ApproachRate:9
SliderMultiplier:1.6
SliderTickRate:1

[Events]
//Background and Video events
0,0,"saika bg.jpg",0,0
//Break Periods
//Storyboard Layer 0 (Background)
//Storyboard Layer 1 (Fail)
//Storyboard Layer 2 (Pass)
//Storyboard Layer 3 (Foreground)
//Storyboard Sound Samples
//Background Colour Transformations
3,100,163,162,255

[TimingPoints]
8385,413.793103448276,4,2,2,60,1,0
13350,-100,4,2,2,60,0,0
13453,-100,4,2,2,60,0,0
18316,-100,4,2,2,60,0,0
21626,-100,4,2,2,60,0,0
21729,-100,4,2,2,60,0,0
21936,-100,4,2,2,60,0,0
22143,-100,4,2,2,60,0,0
22350,-100,4,2,2,60,0,0
22557,-100,4,2,2,60,0,0
22764,-100,4,2,2,60,0,0
22971,-100,4,2,2,60,0,0
23281,-100,4,2,2,60,0,0
23385,-100,4,2,2,60,0,0
23591,-100,4,2,2,60,0,0
23798,-100,4,2,2,60,0,0
24109,-100,4,2,2,60,0,0
24212,-100,4,2,2,60,0,0
24419,-100,4,2,2,60,0,0
24936,-100,4,2,2,60,0,0
25040,-100,4,2,2,60,0,0
25247,-100,4,2,2,60,0,0
25660,-100,4,2,2,60,0,0
26074,-100,4,2,2,60,0,0
26281,-100,4,2,2,60,0,0
28247,-100,4,2,2,60,0,0
28557,-100,4,2,2,60,0,0
31971,-100,4,2,2,60,0,0
34764,-100,4,2,2,60,0,0
34867,-100,4,2,2,60,0,1
41488,-100,4,2,2,60,0,1
44695,-100,4,2,2,60,0,1
46453,-100,4,2,2,60,0,0
47281,-100,4,2,2,70,0,0
47695,-100,4,2,2,80,0,0
48212,-100,4,2,2,60,0,0
53074,-100,4,2,2,80,0,0
54212,-100,4,2,2,60,0,0
58557,-100,4,2,2,60,0,0
60522,-100,4,2,2,60,0,0
61143,-100,4,2,2,80,0,0
64453,-100,4,2,2,75,0,0
67867,-100,4,2,2,60,0,0
68695,-100,4,2,2,80,0,0
69109,-100,4,2,2,80,0,0
71385,-100,4,2,2,70,0,0
72833,-100,4,2,2,90,0,0
74591,-100,4,2,2,40,0,0
79958,-100,4,2,2,75,0,0
81109,-100,4,2,2,75,0,0
81316,-100,4,2,2,55,0,0
82557,-100,4,2,2,65,0,0
84419,-100,4,2,2,75,0,0
85453,-100,4,2,2,85,0,0
87005,-100,4,2,2,85,0,0
87833,-100,4,2,2,85,0,0
87936,-100,4,2,2,65,0,0
93522,-100,4,2,2,75,0,0
94143,-100,4,2,2,65,0,0
101074,-100,4,2,2,65,0,1
104178,-100,4,2,2,65,0,1
107695,-100,4,2,2,65,0,0
110695,-100,4,2,2,75,0,0
113281,-100,4,2,2,65,0,0
114005,-100,4,2,2,65,0,0

[Colours]
Combo1 : 255,179,255
Combo2 : 164,209,255
Combo3 : 221,221,221
Combo4 : 191,191,255

[HitObjects]
109,192,7764,5,2,0:0:0:0:
402,192,7971,1,2,0:0:0:0:
109,192,8178,1,2,0:0:0:0:
475,192,8384,1,4,0:0:0:0:
329,192,8591,1,2,0:0:0:0:
402,192,8798,1,0,0:0:0:0:
329,192,9005,1,2,0:0:0:0:
475,192,9212,1,0,0:0:0:0:
329,192,9419,1,2,0:0:0:0:
402,192,9626,1,4,0:0:0:0:
329,192,9833,1,2,0:0:0:0:
182,192,10040,1,0,0:0:0:0:
256,192,10040,1,0,0:0:0:0:
36,192,10247,1,2,0:0:0:0:
109,192,10453,1,4,0:0:0:0:
36,192,10660,1,2,0:0:0:0:
109,192,10764,1,2,0:0:0:0:
182,192,10867,1,0,0:0:0:0:
402,192,10867,1,0,0:0:0:0:
36,192,11074,1,2,0:0:0:0:
109,192,11281,1,4,0:0:0:0:
36,192,11488,1,2,0:0:0:0:
475,192,11695,1,0,0:0:0:0:
109,192,11695,1,0,0:0:0:0:
329,192,11902,1,2,0:0:0:0:
182,192,12109,1,0,0:0:0:0:
329,192,12316,1,2,0:0:0:0:
475,192,12522,1,0,0:0:0:0:
329,192,12729,1,2,0:0:0:0:
182,192,12936,1,0,0:0:0:0:
36,192,13143,1,2,0:0:0:0:
109,192,13350,1,0,0:0:0:0:
402,192,13350,1,0,0:0:0:0:
182,192,13557,1,2,0:0:0:0:
329,192,13557,1,0,0:0:0:0:
182,192,13764,1,0,0:0:0:0:
329,192,13764,1,0,0:0:0:0:
256,192,13971,128,2,15005:0:0:0:0:
109,192,14385,1,2,0:0:0:0:
402,192,14591,1,0,0:0:0:0:
109,192,14798,1,2,0:0:0:0:
329,192,15005,1,4,0:0:0:0:
475,192,15005,1,4,0:0:0:0:
36,192,15212,1,2,0:0:0:0:
402,192,15212,1,0,0:0:0:0:
256,192,15419,1,0,0:0:0:40:soft-hitfinish2.wav
402,192,15626,1,2,0:0:0:0:
329,192,15833,1,0,0:0:0:0:
402,192,16040,1,2,0:0:0:0:
256,192,16247,1,0,0:0:0:0:
402,192,16453,1,2,0:0:0:0:
182,192,16660,1,4,0:0:0:0:
475,192,16660,1,0,0:0:0:0:
109,192,16867,1,2,0:0:0:0:
256,192,17074,1,0,0:0:0:0:
109,192,17281,1,2,0:0:0:0:
329,192,17385,1,2,0:0:0:0:
182,192,17488,1,0,0:0:0:0:
402,192,17488,1,0,0:0:0:0:
109,192,17695,1,2,0:0:0:0:
256,192,17902,1,0,0:0:0:0:
109,192,18109,1,2,0:0:0:0:
36,192,18316,1,4,0:0:0:0:
475,192,18316,1,0,0:0:0:0:
36,192,18729,1,4,0:0:0:0:
475,192,18729,1,0,0:0:0:0:
36,192,19143,1,4,0:0:0:0:
475,192,19143,1,0,0:0:0:0:
36,192,19557,1,4,0:0:0:0:
475,192,19557,1,0,0:0:0:0:
36,192,19971,1,4,0:0:0:0:
475,192,19971,1,0,0:0:0:0:
329,192,20178,1,2,0:0:0:0:
36,192,20385,1,4,0:0:0:0:
182,192,20385,1,0,0:0:0:0:
329,192,20591,1,2,0:0:0:0:
36,192,20798,1,4,0:0:0:0:
475,192,20798,1,0,0:0:0:0:
256,192,21005,1,2,0:0:0:0:
36,192,21212,1,4,0:0:0:0:
475,192,21212,1,0,0:0:0:0:
256,192,21419,128,2,21626:0:0:0:0:
36,192,21626,1,4,0:0:0:0:
109,192,21626,1,0,0:0:0:0:
256,192,21833,1,2,0:0:0:0:
402,192,21833,1,0,0:0:0:0:
329,192,22247,1,2,0:0:0:0:
475,192,22247,1,2,0:0:0:0:
256,192,22660,1,0,0:0:0:0:
402,192,22660,1,0,0:0:0:0:
182,192,23074,1,2,0:0:0:0:
329,192,23074,1,2,0:0:0:0:
109,192,23488,1,2,0:0:0:0:
256,192,23488,1,0,0:0:0:0:
36,192,23902,1,0,0:0:0:70:buluh 2.wav
182,192,23902,1,0,0:0:0:0:
109,192,24109,1,4,0:0:0:70:buluh 2.wav
256,192,24109,1,0,0:0:0:0:
36,192,24316,1,0,0:0:0:70:buluh 2.wav
182,192,24316,1,0,0:0:0:0:
109,192,24729,1,0,0:0:0:70:buluh 2.wav
256,192,24729,1,0,0:0:0:0:
182,192,25143,1,0,0:0:0:0:
329,192,25143,1,0,0:0:0:0:
256,192,25764,1,4,0:0:0:70:buluh 1.wav
402,192,25764,1,0,0:0:0:0:
256,192,25971,1,0,0:0:0:70:buluh 1.wav
402,192,25971,1,0,0:0:0:0:
329,192,26178,1,4,0:0:0:0:
475,192,26178,1,0,0:0:0:0:
256,192,26385,1,0,0:0:0:70:buluh 2.wav
402,192,26385,1,0,0:0:0:0:
182,192,26591,128,4,27212:0:0:0:0:
329,192,26591,128,0,27212:0:0:0:0:
109,192,27212,128,2,27833:0:0:0:0:
256,192,27212,128,2,27833:0:0:0:0:
36,192,27833,1,4,0:0:0:0:
182,192,27833,1,0,0:0:0:0:
329,192,28040,1,2,0:0:0:0:
475,192,28040,1,0,0:0:0:0:
36,192,28247,1,4,0:0:0:0:
182,192,28247,1,4,0:0:0:0:
256,192,28453,1,2,0:0:0:0:
402,192,28453,1,2,0:0:0:0:
182,192,28867,1,2,0:0:0:0:
329,192,28867,1,2,0:0:0:0:
109,192,29281,1,2,0:0:0:0:
256,192,29281,1,2,0:0:0:0:
182,192,29695,1,0,0:0:0:70:buluh 2.wav
329,192,29695,1,0,0:0:0:0:
256,192,30109,1,2,0:0:0:70:buluh 2.wav
402,192,30109,1,2,0:0:0:0:
329,192,30522,1,2,0:0:0:70:buluh 2.wav
475,192,30522,1,0,0:0:0:0:
256,192,30729,1,4,0:0:0:70:buluh 1.wav
402,192,30729,1,4,0:0:0:0:
329,192,30936,1,2,0:0:0:70:buluh 2.wav
475,192,30936,1,0,0:0:0:0:
256,192,31350,1,2,0:0:0:70:buluh 2.wav
402,192,31350,1,0,0:0:0:0:
402,192,32178,1,2,0:0:0:70:buluh 2.wav
329,192,32281,1,2,0:0:0:70:buluh 2.wav
256,192,32385,1,4,0:0:0:70:buluh 2.wav
475,192,32385,1,4,0:0:0:0:
182,192,32591,1,2,0:0:0:70:buluh 2.wav
402,192,32591,1,0,0:0:0:0:
109,192,32798,1,4,0:0:0:70:buluh 2.wav
329,192,32798,1,4,0:0:0:0:
36,192,33005,1,2,0:0:0:70:buluh 2.wav
256,192,33005,1,0,0:0:0:0:
109,192,33212,1,4,0:0:0:70:buluh 2.wav
182,192,33212,1,4,0:0:0:0:
402,192,33419,1,0,0:0:0:70:buluh 2.wav
329,192,33522,1,0,0:0:0:70:buluh 2.wav
256,192,33626,1,4,0:0:0:70:buluh 1.wav
402,192,33626,1,0,0:0:0:0:
109,192,33833,1,0,0:0:0:70:buluh 1.wav
182,192,33936,1,0,0:0:0:70:buluh 2.wav
109,192,34040,1,4,0:0:0:70:buluh 2.wav
256,192,34040,1,0,0:0:0:0:
182,192,34247,1,0,0:0:0:0:
329,192,34247,1,0,0:0:0:0:
109,192,34453,1,4,0:0:0:0:
256,192,34453,1,0,0:0:0:0:
329,192,34660,1,4,0:0:0:0:
475,192,34660,1,4,0:0:0:0:
329,192,34867,1,4,0:0:0:0:
475,192,34867,1,4,2:0:0:0:
36,192,35074,1,2,0:0:0:0:
329,192,35281,1,8,0:0:0:0:
475,192,35281,1,0,0:0:0:0:
36,192,35488,1,2,0:0:0:0:
182,192,35488,1,2,0:0:0:0:
475,192,35695,1,4,0:0:0:0:
36,192,35902,1,2,0:0:0:0:
256,192,36109,1,8,0:0:0:0:
475,192,36109,1,0,0:0:0:0:
36,192,36316,1,0,0:0:0:0:
109,192,36316,1,0,0:0:0:0:
475,192,36522,1,4,0:0:0:0:
182,192,36522,1,0,0:0:0:0:
36,192,36729,1,0,0:0:0:0:
329,192,36936,1,8,0:0:0:0:
475,192,36936,1,0,0:0:0:0:
36,192,37143,1,0,0:0:0:70:buluh 2.wav
182,192,37143,1,0,0:0:0:0:
475,192,37350,1,4,0:0:0:70:buluh 2.wav
36,192,37557,1,0,0:0:0:70:buluh 2.wav
402,192,37764,1,8,0:0:0:0:
475,192,37764,1,0,0:0:0:0:
36,192,37971,1,2,0:0:0:0:
256,192,37971,1,2,0:0:0:0:
475,192,38178,1,4,0:0:0:0:
182,192,38178,1,0,0:0:0:0:
402,192,38385,128,2,38798:0:0:0:0:
36,192,38591,1,8,0:0:0:0:
329,192,38798,128,2,39212:0:0:0:0:
109,192,39005,1,4,0:0:0:0:
256,192,39212,128,4,39626:0:0:0:0:
475,192,39419,1,8,0:0:0:0:
182,192,39626,128,2,40040:0:0:0:0:
402,192,39833,1,4,0:0:0:0:
475,192,40040,128,2,40453:0:0:0:0:
109,192,40247,1,8,0:0:0:0:
402,192,40453,128,2,40867:0:0:0:0:
36,192,40660,1,0,0:0:0:70:buluh 2.wav
329,192,40867,128,2,41281:0:0:0:0:
109,192,41074,1,8,0:0:0:0:
256,192,41281,128,0,42316:0:0:0:70:buluh 2.wav
475,192,41488,1,4,0:0:0:0:
36,192,41695,1,2,0:0:0:0:
402,192,41902,1,8,0:0:0:0:
109,192,42109,1,2,0:0:0:0:
475,192,42316,1,4,0:0:0:0:
36,192,42522,1,2,0:0:0:0:
402,192,42729,1,8,0:0:0:0:
109,192,42936,1,2,0:0:0:0:
402,192,43143,128,4,43764:0:0:0:0:
475,192,43143,1,4,0:0:0:0:
36,192,43350,1,0,0:0:0:0:
109,192,43557,1,8,0:0:0:0:
256,192,43557,1,8,0:0:0:0:
36,192,43764,1,2,0:0:0:0:
182,192,43764,1,2,0:0:0:0:
475,192,43971,1,4,0:0:0:0:
36,192,44178,1,0,0:0:0:0:
256,192,44178,1,0,0:0:0:0:
109,192,44385,1,8,0:0:0:0:
329,192,44385,1,8,0:0:0:0:
36,192,44591,1,2,0:0:0:0:
475,192,44591,128,0,46040:0:0:0:0:
182,192,44798,1,4,0:0:0:0:
329,192,45005,1,2,0:0:0:0:
109,192,45212,1,8,0:0:0:0:
329,192,45419,1,2,0:0:0:0:
182,192,45626,1,4,0:0:0:0:
329,192,45833,1,2,0:0:0:0:
109,192,46040,1,8,0:0:0:0:
256,192,46040,1,8,0:0:0:0:
329,192,46247,1,0,0:0:0:0:
329,192,46453,1,4,2:0:0:0:
182,192,46453,128,4,46867:2:0:0:0:
402,192,46867,128,0,47281:0:0:0:0:
256,192,47281,128,0,47695:0:0:0:70:buluh 1.wav
109,192,47695,128,4,48109:2:0:0:0:
36,192,48109,1,4,2:0:0:0:
329,192,48109,1,4,2:0:0:0:
256,192,48316,1,2,0:0:0:0:
402,192,48522,1,8,0:0:0:0:
475,192,48522,1,0,0:0:0:0:
256,192,48729,1,0,0:0:0:0:
36,192,48936,1,4,0:0:0:0:
329,192,48936,1,4,0:0:0:0:
256,192,49143,1,0,0:0:0:0:
182,192,49350,1,8,0:0:0:0:
475,192,49350,1,8,0:0:0:0:
256,192,49557,1,0,0:0:0:0:
329,192,49557,1,0,0:0:0:0:
36,192,49764,1,4,0:0:0:0:
256,192,49971,1,0,0:0:0:0:
402,192,49971,1,0,0:0:0:0:
329,192,50178,1,8,0:0:0:0:
475,192,50178,1,8,0:0:0:0:
256,192,50385,1,0,0:0:0:0:
109,192,50488,1,2,0:0:0:0:
36,192,50591,1,4,0:0:0:0:
256,192,50798,1,0,0:0:0:70:buluh 2.wav
329,192,50798,1,0,0:0:0:0:
475,192,51005,1,8,0:0:0:0:
402,192,51005,1,0,0:0:0:0:
256,192,51212,1,0,0:0:0:0:
182,192,51316,1,2,0:0:0:0:
36,192,51419,1,4,0:0:0:0:
256,192,51626,1,0,0:0:0:0:buluh 2.wav
402,192,51626,1,0,0:0:0:0:
475,192,51833,1,8,0:0:0:0:buluh 2.wav
329,192,51833,1,0,0:0:0:0:
256,192,52040,1,0,0:0:0:70:buluh 1.wav
36,192,52247,1,4,0:0:0:0:
256,192,52453,1,0,0:0:0:70:buluh 1.wav
402,192,52453,1,0,0:0:0:0:
402,192,52660,1,8,0:0:0:0:
475,192,52660,1,0,0:0:0:0:
109,192,52867,128,0,54109:0:0:0:0:
256,192,53074,1,4,0:0:0:0:
329,192,53281,1,2,0:0:0:0:
475,192,53488,1,8,0:0:0:70:buluh 1.wav
182,192,53488,1,0,0:0:0:0:
402,192,53591,1,0,0:0:0:70:buluh 1.wav
256,192,53695,1,2,0:0:0:0:
36,192,53902,1,4,0:0:0:0:
182,192,54109,128,0,54316:0:0:0:70:buluh 1.wav
256,192,54109,1,0,0:0:0:0:
329,192,54316,128,8,54522:0:0:0:0:
475,192,54316,1,8,0:0:0:0:
182,192,54522,128,2,54729:0:0:0:0:
256,192,54522,1,0,0:0:0:0:
36,192,54729,1,4,0:0:0:0:
402,192,54729,1,4,0:0:0:0:
256,192,54936,1,0,0:0:0:0:
109,192,55143,1,8,0:0:0:0:
475,192,55143,1,0,0:0:0:0:
256,192,55350,1,0,0:0:0:0:
402,192,55350,1,0,0:0:0:0:
36,192,55557,1,0,0:0:0:0:
256,192,55764,1,0,0:0:0:0:
182,192,55971,1,8,0:0:0:0:
475,192,55971,1,0,0:0:0:0:
256,192,56178,1,0,0:0:0:0:
402,192,56178,1,0,0:0:0:0:
36,192,56385,1,4,0:0:0:0:
256,192,56591,1,2,0:0:0:0:
109,192,56798,1,8,0:0:0:0:
475,192,56798,1,8,0:0:0:0:
329,192,57005,1,0,0:0:0:0:
182,192,57109,1,0,0:0:0:70:buluh 1.wav
36,192,57212,1,0,0:0:0:0:
402,192,57316,1,0,0:0:0:70:buluh 1.wav
256,192,57419,1,0,0:0:0:0:
182,192,57626,1,8,0:0:0:0:
475,192,57626,1,8,0:0:0:0:
256,192,57833,1,2,0:0:0:0:
329,192,57833,128,2,59695:0:0:0:0:
36,192,58040,1,4,0:0:0:0:
256,192,58247,1,2,0:0:0:0:
475,192,58453,1,8,0:0:0:0:
182,192,58453,1,8,0:0:0:0:
256,192,58660,1,2,0:0:0:0:
36,192,58867,1,4,0:0:0:0:
256,192,59074,1,2,0:0:0:0:
475,192,59281,1,8,0:0:0:0:
182,192,59281,1,8,0:0:0:0:
256,192,59488,1,2,0:0:0:0:
36,192,59695,1,4,0:0:0:0:
182,192,59902,1,2,0:0:0:0:
329,192,60109,1,8,0:0:0:0:
109,192,60109,1,8,0:0:0:0:
475,192,60212,1,0,0:0:0:0:
329,192,60316,1,2,0:0:0:0:
256,192,60522,1,2,0:0:0:0:
109,192,60729,128,0,60936:0:0:0:70:buluh 2.wav
256,192,60936,128,4,61143:0:0:0:0:
402,192,61143,128,4,61350:0:0:0:0:
36,192,61350,1,4,2:0:0:0:
475,192,61350,1,4,0:0:0:0:
109,192,61764,1,8,0:0:0:0:
402,192,61764,1,0,0:0:0:0:
329,192,61971,128,2,62178:0:0:0:0:
36,192,62178,1,4,0:0:0:0:
256,192,62385,128,2,62591:0:0:0:0:
109,192,62591,1,8,0:0:0:0:
475,192,62591,1,0,0:0:0:0:
402,192,62798,128,0,63005:0:0:0:0:
182,192,63005,1,4,0:0:0:0:
109,192,63419,1,8,0:0:0:0:
329,192,63419,1,0,0:0:0:0:
475,192,63626,128,2,63833:0:0:0:0:
182,192,63833,1,4,0:0:0:0:
402,192,63936,1,0,0:0:0:0:
329,192,64040,1,0,0:0:0:70:buluh 1.wav
109,192,64247,1,8,0:0:0:0:
256,192,64247,1,0,0:0:0:0:
475,192,64453,128,0,64660:0:0:0:0:
36,192,64660,1,4,0:0:0:0:
402,192,64867,128,2,65074:0:0:0:0:
109,192,65074,1,8,0:0:0:0:
329,192,65281,128,2,65488:0:0:0:0:
36,192,65488,1,4,0:0:0:0:
256,192,65695,128,2,65902:0:0:0:0:
109,192,65902,1,8,0:0:0:0:
329,192,66109,128,2,66316:0:0:0:0:
182,192,66316,1,4,0:0:0:0:
256,192,66522,128,2,66729:0:0:0:0:
109,192,66729,1,8,0:0:0:0:
36,192,66936,128,2,67143:0:0:0:0:
182,192,67143,1,4,0:0:0:0:
256,192,67350,128,2,67557:0:0:0:0:
109,192,67557,1,8,0:0:0:0:
109,192,67764,1,4,0:0:0:0:
475,192,67764,128,4,68798:0:0:0:0:
36,192,67971,1,4,2:0:0:0:
329,192,67971,1,4,0:0:0:0:
182,192,68178,1,2,0:0:0:0:
109,192,68385,1,8,0:0:0:0:
402,192,68385,1,8,0:0:0:0:
182,192,68591,1,2,0:0:0:0:
36,192,68798,1,4,0:0:0:70:buluh 1.wav
256,192,68798,1,0,0:0:0:0:
256,192,69005,1,0,0:0:0:70:buluh 1.wav
109,192,69212,1,8,0:0:0:0:
475,192,69212,1,8,0:0:0:0:
329,192,69419,1,2,0:0:0:0:
402,192,69419,128,2,70660:0:0:0:0:
182,192,69626,1,4,0:0:0:0:
256,192,69833,1,2,0:0:0:0:
109,192,70040,1,8,0:0:0:0:
36,192,70040,1,8,0:0:0:0:
256,192,70247,1,2,0:0:0:0:
182,192,70453,1,4,0:0:0:0:
256,192,70660,1,2,0:0:0:0:
109,192,70867,1,8,0:0:0:0:
475,192,70867,1,0,0:0:0:0:
329,192,71074,1,0,0:0:0:70:buluh 2.wav
256,192,71281,1,4,0:0:0:0:
402,192,71488,1,0,0:0:0:70:buluh 2.wav
402,192,71695,1,8,0:0:0:70:buluh 2.wav
329,192,72109,1,4,0:0:0:70:buluh 2.wav
256,192,72316,1,0,0:0:0:70:buluh 2.wav
182,192,72522,1,8,0:0:0:70:buluh 2.wav
109,192,72729,1,0,0:0:0:70:buluh 2.wav
36,192,72936,1,4,0:0:0:70:buluh 2.wav
475,192,72936,1,4,0:0:0:0:
109,192,73143,1,0,0:0:0:70:buluh 2.wav
402,192,73143,1,0,0:0:0:0:
182,192,73350,1,8,0:0:0:70:buluh 2.wav
329,192,73350,1,8,0:0:0:0:
256,192,73557,1,0,0:0:0:70:buluh 2.wav
182,192,73764,1,4,0:0:0:70:buluh 2.wav
329,192,73764,1,0,0:0:0:0:
109,192,73971,1,0,0:0:0:70:buluh 2.wav
402,192,73971,1,0,0:0:0:0:
36,192,74178,1,8,0:0:0:70:buluh 2.wav
475,192,74178,1,0,0:0:0:0:
109,192,74385,1,0,0:0:0:70:buluh 2.wav
402,192,74385,1,0,0:0:0:0:
182,192,74591,1,4,2:0:0:0:
329,192,74591,1,0,0:0:0:0:
256,192,74798,128,0,75212:0:0:0:70:buluh 1.wav
402,192,75212,128,2,75626:0:0:0:0:
256,192,75626,128,2,76040:0:0:0:0:
109,192,76040,128,0,76453:0:0:0:70:buluh 1.wav
36,192,76453,128,0,76660:0:0:0:70:buluh 1.wav
36,192,76867,128,2,77074:0:0:0:0:
109,192,77074,128,0,77281:0:0:0:70:buluh 2.wav
329,192,77281,128,0,77488:0:0:0:70:buluh 2.wav
182,192,77488,128,0,77695:0:0:0:0:
402,192,77695,128,0,77902:0:0:0:70:buluh 1.wav
329,192,77902,128,0,78109:0:0:0:70:buluh 1.wav
256,192,78109,128,2,78316:0:0:0:0:
256,192,78522,128,2,78729:0:0:0:0:
402,192,78729,128,2,78936:0:0:0:0:
109,192,78936,128,0,79143:0:0:0:70:buluh 2.wav
109,192,79350,128,0,79764:0:0:0:70:buluh 1.wav
402,192,79764,128,0,80178:0:0:0:70:buluh 1.wav
475,192,80178,1,0,0:0:0:0:
36,192,80385,1,0,0:0:0:0:
475,192,80385,1,0,0:0:0:0:
329,192,80591,1,0,0:0:0:70:buluh 1.wav
182,192,80798,1,0,0:0:0:0:
36,192,81005,1,0,0:0:0:0:
109,192,81212,1,2,0:0:0:70:buluh 2.wav
256,192,81419,1,2,0:0:0:70:buluh 2.wav
182,192,81626,1,2,0:0:0:70:buluh 2.wav
329,192,81833,1,2,0:0:0:70:buluh 2.wav
256,192,82040,1,2,0:0:0:70:buluh 2.wav
402,192,82247,1,2,0:0:0:70:buluh 2.wav
329,192,82453,1,2,0:0:0:70:buluh 2.wav
475,192,82660,1,2,0:0:0:70:buluh 1.wav
329,192,82867,1,2,0:0:0:70:buluh 2.wav
402,192,83074,1,2,0:0:0:70:buluh 1.wav
256,192,83281,1,2,0:0:0:70:buluh 2.wav
329,192,83488,1,2,0:0:0:70:buluh 2.wav
182,192,83695,1,2,0:0:0:70:buluh 1.wav
256,192,83902,1,2,0:0:0:0:
109,192,84109,1,2,0:0:0:70:buluh 1.wav
182,192,84316,1,2,0:0:0:70:soft-hitwhistle2.wav
36,192,84522,1,2,0:0:0:70:buluh 2.wav
182,192,84729,1,2,0:0:0:70:buluh 2.wav
109,192,84936,1,2,0:0:0:70:buluh 1.wav
182,192,85143,1,2,0:0:0:0:
256,192,85350,1,2,0:0:0:0:
109,192,85557,1,2,0:0:0:70:buluh 1.wav
256,192,85764,1,2,0:0:0:70:buluh 1.wav
329,192,85971,1,2,0:0:0:0:
182,192,86178,1,2,0:0:0:70:buluh 1.wav
329,192,86385,1,2,0:0:0:70:buluh 2.wav
475,192,86591,1,2,0:0:0:70:buluh 1.wav
329,192,86798,1,2,0:0:0:70:buluh 1.wav
402,192,87005,1,2,0:0:0:70:buluh 2.wav
256,192,87212,1,0,0:0:0:70:buluh 1.wav
109,192,87316,1,0,0:0:0:70:buluh 2.wav
329,192,87419,1,4,0:0:0:70:buluh 2.wav
182,192,87522,1,0,0:0:0:70:buluh 2.wav
36,192,87626,1,4,0:0:0:70:buluh 2.wav
256,192,87833,1,4,2:0:0:0:
475,192,87833,1,4,0:0:0:0:
109,192,88040,1,2,0:0:0:0:
256,192,88247,1,4,0:0:0:0:
402,192,88247,1,0,0:0:0:0:
109,192,88453,1,2,0:0:0:0:
256,192,88660,1,4,0:0:0:70:buluh 2.wav
402,192,88764,1,0,0:0:0:0:
475,192,88867,1,2,0:0:0:0:
256,192,89074,1,4,0:0:0:0:
402,192,89074,1,0,0:0:0:0:
329,192,89281,1,0,0:0:0:70:buluh 2.wav
109,192,89488,1,4,0:0:0:70:buluh 2.wav
256,192,89488,1,0,0:0:0:0:
329,192,89695,1,0,0:0:0:70:buluh 2.wav
109,192,89902,1,4,0:0:0:0:
256,192,89902,1,0,0:0:0:0:
329,192,90109,1,2,0:0:0:0:
182,192,90212,1,2,0:0:0:0:
256,192,90316,1,4,0:0:0:0:
475,192,90316,1,0,0:0:0:0:
402,192,90522,1,4,0:0:0:0:
182,192,90729,1,4,0:0:0:0:
256,192,90729,1,0,0:0:0:0:
36,192,90936,1,2,0:0:0:0:
256,192,91143,1,4,0:0:0:0:
402,192,91143,1,0,0:0:0:0:
109,192,91350,1,2,0:0:0:0:
256,192,91557,1,4,0:0:0:0:
402,192,91557,1,0,0:0:0:0:
109,192,91764,1,2,0:0:0:0:
329,192,91867,1,2,0:0:0:0:
256,192,91971,1,4,0:0:0:0:
475,192,91971,1,0,0:0:0:0:
329,192,92178,1,2,0:0:0:0:
36,192,92385,1,4,0:0:0:0:
256,192,92385,1,0,0:0:0:0:
182,192,92591,1,2,0:0:0:0:
109,192,92798,1,4,0:0:0:0:
256,192,92798,1,0,0:0:0:0:
109,192,93005,1,2,0:0:0:0:
256,192,93212,1,4,0:0:0:0:
402,192,93212,1,0,0:0:0:0:
109,192,93419,1,2,0:0:0:0:
182,192,93626,1,4,0:0:0:0:
256,192,93626,1,0,0:0:0:0:
329,192,93833,1,2,0:0:0:0:
256,192,94040,1,4,0:0:0:0:
402,192,94040,1,0,0:0:0:0:
475,192,94247,1,2,0:0:0:0:
36,192,94453,128,4,96936:0:0:0:0:
475,192,94453,128,0,96936:0:0:0:0:
109,192,96936,128,4,97764:0:0:0:70:buluh 2.wav
402,192,96936,128,0,97764:0:0:0:0:
182,192,97350,1,4,0:0:0:70:buluh 1.wav
329,192,97350,1,0,0:0:0:0:
182,192,97557,1,0,0:0:0:70:buluh 1.wav
329,192,97557,1,0,0:0:0:0:
182,192,97764,128,6,99419:0:0:0:0:
329,192,97764,128,2,99419:0:0:0:0:
256,192,99419,128,4,101074:0:0:0:70:buluh 2.wav
402,192,100247,128,0,100453:0:0:0:70:buluh 1.wav
109,192,100453,128,0,100660:0:0:0:70:buluh 2.wav
402,192,100660,128,0,101074:0:0:0:70:buluh 2.wav
109,192,100867,128,4,101074:0:0:0:70:buluh 2.wav
36,192,101074,1,4,2:0:0:0:
475,192,101074,1,4,0:0:0:0:
182,192,101281,1,2,0:0:0:0:
109,192,101488,1,8,0:0:0:0:
402,192,101488,1,0,0:0:0:0:
256,192,101488,1,0,0:0:0:0:
329,192,101695,1,2,0:0:0:0:
475,192,101695,1,2,0:0:0:0:
182,192,101902,1,4,0:0:0:0:
256,192,102109,1,2,0:0:0:0:
402,192,102109,1,2,0:0:0:0:
109,192,102316,1,8,0:0:0:0:
402,192,102316,1,0,0:0:0:0:
182,192,102316,1,0,0:0:0:0:
329,192,102522,1,2,0:0:0:0:
475,192,102522,1,0,0:0:0:0:
36,192,102729,1,4,0:0:0:0:
182,192,102936,1,2,0:0:0:0:
109,192,103143,1,8,0:0:0:0:
329,192,103143,1,0,0:0:0:0:
475,192,103143,1,0,0:0:0:0:
256,192,103350,1,2,0:0:0:0:
402,192,103350,1,0,0:0:0:0:
182,192,103557,1,4,0:0:0:70:buluh 1.wav
329,192,103764,1,0,0:0:0:70:buluh 1.wav
402,192,103764,1,0,0:0:0:0:
109,192,103971,1,8,0:0:0:0:
182,192,103971,1,0,0:0:0:0:
256,192,104178,128,0,104591:0:0:0:0:
475,192,104178,128,0,104591:0:0:0:0:
109,192,104591,128,0,105005:0:0:0:0:
329,192,104591,128,0,105005:0:0:0:0:
182,192,105005,128,0,105419:0:0:0:0:
402,192,105005,128,0,105419:0:0:0:0:
256,192,105419,128,0,105833:0:0:0:0:
475,192,105419,128,0,105833:0:0:0:0:
329,192,105833,128,0,106247:0:0:0:0:
402,192,105833,128,0,106247:0:0:0:0:
36,192,106247,128,2,106660:0:0:0:0:
256,192,106247,128,0,106660:0:0:0:0:
109,192,106660,128,2,107074:0:0:0:0:
329,192,106660,128,2,107074:0:0:0:0:
182,192,107074,128,2,107488:0:0:0:0:
402,192,107074,128,0,107488:0:0:0:0:
256,192,107488,128,0,109143:0:0:0:0:
329,192,107488,128,0,109143:0:0:0:0:
475,192,107695,1,4,0:0:0:0:
36,192,107902,1,2,0:0:0:0:
402,192,108109,1,8,0:0:0:0:
109,192,108316,1,2,0:0:0:0:
475,192,108522,1,4,0:0:0:0:
36,192,108729,1,2,0:0:0:0:
402,192,108936,1,8,0:0:0:0:
109,192,109143,1,4,0:0:0:0:
182,192,109350,128,4,110798:0:0:0:0:
256,192,109350,128,0,110798:0:0:0:0:
475,192,109350,1,0,0:0:0:0:
36,192,109557,1,2,0:0:0:0:
402,192,109764,1,8,0:0:0:0:
109,192,109971,1,2,0:0:0:0:
475,192,110178,1,4,0:0:0:0:
36,192,110385,1,0,0:0:0:0:
402,192,110591,1,8,0:0:0:0:
109,192,110798,1,0,0:0:0:70:buluh 2.wav
329,192,111005,1,4,0:0:0:70:buluh 2.wav
402,192,111212,128,0,111419:0:0:0:70:buluh 1.wav
256,192,111419,1,8,0:0:0:0:
329,192,111626,128,2,111833:0:0:0:0:
182,192,111833,1,4,0:0:0:0:
256,192,112040,128,2,112247:0:0:0:0:
109,192,112247,1,8,0:0:0:0:
182,192,112453,128,2,112660:0:0:0:0:
36,192,112660,1,4,0:0:0:0:
402,192,112867,1,2,0:0:0:0:
256,192,112971,1,2,0:0:0:0:
109,192,113074,128,8,113281:0:0:0:0:
256,192,113281,1,0,0:0:0:0:
109,192,113488,1,4,0:0:0:70:buluh 1.wav
402,192,113488,1,0,0:0:0:0:
109,192,113695,1,0,0:0:0:70:buluh 1.wav
402,192,113695,1,0,0:0:0:0:
36,192,113902,1,8,0:0:0:0:
475,192,113902,1,0,0:0:0:0:
109,192,114109,1,0,0:0:0:0:
402,192,114109,1,0,0:0:0:0:
256,192,114316,1,0,0:0:0:20:tong.wav
256,192,114522,128,0,115971:0:0:0:20:tong.wav
