osu file format v14

[General]
AudioFilename: Deemo Pilot.mp3
AudioLeadIn: 0
PreviewTime: 7155
Countdown: 0
SampleSet: Soft
StackLeniency: 0.7
Mode: 0
LetterboxInBreaks: 0
EpilepsyWarning: 1
WidescreenStoryboard: 1

[Editor]
DistanceSpacing: 1
BeatDivisor: 4
GridSize: 4
TimelineZoom: 1.5

[Metadata]
Title:Pilot
TitleUnicode:Pilot
Artist:Rabpit
ArtistUnicode:Rabpit
Creator:XinCrin
Version:Relax
Source:Deemo
Tags:rayark piano
BeatmapID:699244
BeatmapSetID:313196

[Difficulty]
HPDrainRate:7
CircleSize:4.2
OverallDifficulty:8
ApproachRate:8
SliderMultiplier:1.8
SliderTickRate:1

[Events]
//Background and Video events
0,0,"BGD.jpg",0,0
//Break Periods
//Storyboard Layer 0 (Background)
//Storyboard Layer 1 (Fail)
//Storyboard Layer 2 (Pass)
//Storyboard Layer 3 (Foreground)
//Storyboard Sound Samples

[TimingPoints]
54,451.127819548872,4,2,1,60,1,0
5805,-100,4,2,1,50,0,0
6257,-100,4,2,1,30,0,0
6482,-100,4,2,1,10,0,0
6933,-100,4,2,1,5,0,0
7272,-100,4,2,1,40,0,0
7384,-100,4,2,1,50,0,0
79452,-100,4,2,1,50,0,1
92929,-100,4,2,1,30,0,1
93381,-100,4,2,1,60,0,1
93832,-100,4,2,1,30,0,1
94283,-100,4,2,1,60,0,1
95185,-100,4,2,1,65,0,1
96990,-100,4,2,1,50,0,1
108324,-100,4,2,1,50,0,0

[Colours]
Combo1 : 77,225,242
Combo2 : 233,111,20
Combo3 : 133,244,66

[HitObjects]
32,328,54,6,0,L|236:320,1,180,2|0,1:2|0:0,0:0:0:0:
256,244,730,2,0,B|220:204|240:156|240:156|260:112|244:73,1,180,2|0,0:0|0:0,0:0:0:0:
308,188,1407,2,0,P|340:220|388:236,1,90,0|2,0:0|0:0,0:0:0:0:
468,260,1858,6,0,B|448:212|468:172|468:172|444:136|448:84,1,180,2|0,0:2|0:0,0:0:0:0:
368,124,2535,2,0,P|302:76|254:142,1,180,2|0,0:0|0:0,0:0:0:0:
211,32,3211,2,0,P|185:69|172:112,1,90,0|2,0:0|0:0,0:0:0:0:
116,184,3663,6,0,B|156:208|200:192|200:192|236:228|288:216,1,180,2|0,0:2|0:0,0:0:0:0:
406,328,4339,2,0,B|372:304|328:324|328:324|292:284|240:296,1,180,2|2,0:0|0:0,0:0:0:0:
164,348,5016,1,0,0:0:0:0:
92,296,5241,1,2,0:0:0:0:
128,168,5467,6,0,P|156:128|200:108,1,90,4|2,3:0|0:0,0:0:0:0:
368,251,5918,2,0,B|348:248|324:260|324:260|304:256|280:260,1,90,2|2,0:0|0:0,0:0:0:0:
280,124,6369,2,0,B|304:128|324:124|324:124|348:136|368:132,1,90,2|2,0:0|0:0,0:0:0:0:
440,184,6820,1,2,0:0:0:0:
488,260,7046,1,2,0:0:0:0:
380,340,7272,6,0,B|344:360|296:352|296:352|276:300|228:288,1,180,4|0,1:0|0:0,0:0:0:0:
148,320,7948,2,0,P|124:280|120:236,1,90,2|0,0:0|0:0,0:0:0:0:
136,148,8399,1,2,0:0:0:0:
220,112,8625,2,0,B|248:104|260:92|260:92|280:96|304:88,1,90,0|2,0:0|0:0,0:0:0:0:
358,257,9076,6,0,P|320:281|276:284,1,90
249,198,9527,2,0,P|287:174|332:172,1,90
192,272,9978,1,0,0:0:0:0:
128,208,10204,1,2,0:0:0:0:
156,124,10429,2,0,P|116:120|68:144,1,90,2|2,0:0|0:0,0:0:0:0:
176,48,10881,6,0,B|224:76|264:56|264:56|292:68|292:68|320:52|352:60,1,180,2|0,0:0|0:0,0:0:0:0:
332,148,11557,2,0,L|320:240,1,90,2|0,0:0|0:0,0:0:0:0:
396,345,12008,2,0,L|408:256,1,90,2|0,0:0|0:0,0:0:0:0:
404,164,12460,6,0,B|416:100|352:60|304:80|304:80|272:84,1,180,2|0,0:0|0:0,0:0:0:0:
204,44,13136,2,0,L|104:44,1,90,0|2,0:0|0:0,0:0:0:0:
112,136,13587,2,0,P|156:128|200:136,1,90,0|2,0:0|0:0,0:0:0:0:
200,280,14038,2,0,P|155:288|111:280,1,90,0|2,0:0|0:0,0:0:0:0:
88,268,14377,1,2,0:0:0:0:
64,252,14490,5,2,0:0:0:0:
111,136,14715,2,0,P|156:127|200:136,1,90,0|8,0:0|0:0,0:0:0:0:
340,211,15166,2,0,P|296:220|252:212,2,90,2|0|2,0:0|0:0|0:0,0:0:0:0:
428,188,15843,1,8,0:0:0:0:
380,132,16069,6,0,B|380:276|380:276|412:304,1,180,2|0,0:0|0:0,0:0:0:0:
324,332,16745,2,0,P|284:316|236:332,1,90,8|0,0:0|0:0,0:0:0:0:
104,259,17196,2,0,P|146:272|188:256,1,90
228,176,17647,1,10,0:0:0:0:
192,92,17873,1,2,0:0:0:0:
296,224,18099,6,0,B|320:172|296:128|296:128|388:124,1,180,2|8,0:0|0:0,0:0:0:0:
228,176,18775,1,2,0:0:0:0:
232,268,19001,2,0,P|260:296|308:300,1,90,0|2,0:0|0:0,0:0:0:0:
392,268,19452,1,8,0:0:0:0:
232,268,19678,6,0,B|196:280|160:260|160:260|132:272|132:272|96:256|56:276,1,180,2|2,0:0|0:0,0:0:0:0:
96,356,20354,1,8,0:0:0:0:
128,192,20580,2,0,P|132:144|116:100,1,90,2|0,0:0|0:0,0:0:0:0:
44,156,21031,1,2,0:0:0:0:
219,100,21257,2,0,P|215:144|229:187,1,90,8|0,0:0|0:0,0:0:0:0:
248,196,21595,1,2,0:0:0:0:
268,204,21708,5,2,0:0:0:0:
400,180,21933,1,0,0:0:0:0:
476,136,22159,2,0,L|484:44,1,90,8|2,0:0|0:0,0:0:0:0:
484,228,22610,2,0,L|476:317,1,90,0|2,0:0|0:0,0:0:0:0:
388,316,23061,1,8,0:0:0:0:
300,340,23287,6,0,P|224:360|140:296,1,180,2|0,0:0|0:0,0:0:0:0:
64,272,23963,2,0,P|88:236|140:216,1,90,8|2,0:0|0:0,0:0:0:0:
133,96,24414,2,0,P|108:133|68:152,1,90,0|2,0:0|0:0,0:0:0:0:
48,64,24866,1,10,0:0:0:0:
200,152,25091,6,0,L|260:76,1,90,2|2,0:0|0:0,0:0:0:0:
455,113,25542,2,0,L|400:184,1,90,0|10,0:0|0:0,0:0:0:0:
264,208,25993,2,0,B|300:160|300:160|336:136|336:136|388:72,1,180,2|2,0:0|0:0,0:0:0:0:
220,276,26670,2,0,P|264:288|308:276,1,90,8|2,0:0|0:0,0:0:0:0:
160,336,27121,6,0,P|116:325|73:337,1,90
44,204,27572,2,0,L|64:112,1,90,8|2,0:0|0:0,0:0:0:0:
232,48,28023,2,0,L|212:135,1,90,2|2,0:0|0:0,0:0:0:0:
132,180,28475,1,8,0:0:0:0:
144,92,28700,1,2,0:0:0:0:
148,76,28813,1,2,0:0:0:0:
152,60,28926,5,2,0:0:0:0:
292,128,29151,2,0,L|272:215,1,90,0|10,0:0|0:0,0:0:0:0:
328,288,29602,2,0,P|372:300|424:288,1,90,2|2,0:0|0:0,0:0:0:0:
248,336,30053,2,0,P|204:324|152:336,1,90,2|8,0:0|0:0,0:0:0:0:
25,183,30505,6,0,P|82:249|168:240,1,180,2|0,0:0|0:0,0:0:0:0:
200,156,31181,2,0,L|152:72,1,90,8|0,0:0|0:0,0:0:0:0:
236,40,31632,2,0,P|248:84|284:108,1,90
372,124,32084,1,8,0:0:0:0:
444,68,32309,1,2,0:0:0:0:
304,188,32535,5,2,0:0:0:0:
392,212,32760,1,2,0:0:0:0:
424,296,32986,2,0,P|396:336|356:356,1,90,8|2,0:0|0:0,0:0:0:0:
236,346,33437,2,0,P|261:309|300:288,1,90,0|2,0:0|0:0,0:0:0:0:
144,328,33888,1,8,0:0:0:0:
96,252,34114,1,2,0:0:0:0:
96,164,34339,6,0,L|184:128,1,90,0|2,0:0|0:0,0:0:0:0:
351,117,34790,2,0,L|268:152,1,90,8|2,0:0|0:0,0:0:0:0:
256,160,35129,1,0,3:0:0:0:
244,168,35241,1,0,3:0:0:0:
232,176,35354,1,0,3:0:0:0:
336,352,35693,1,8,0:0:0:0:
364,252,35918,1,2,0:0:0:0:
368,244,36031,1,0,3:0:0:0:
368,244,36144,6,0,P|380:188|368:148,1,90,2|0,0:0|0:0,0:0:0:0:
320,84,36595,2,0,B|276:72|276:72|228:80,1,90,8|2,0:0|0:0,0:0:0:0:
168,144,37046,2,0,B|124:156|124:156|76:148,1,90
116,64,37497,2,0,L|136:248,1,180,8|2,0:0|0:0,0:0:0:0:
188,316,38174,5,0,0:0:0:0:
276,292,38399,2,0,P|320:280|364:292,1,90,8|0,0:0|0:0,0:0:0:0:
466,205,38850,2,0,P|422:215|380:204,1,90,0|2,0:0|0:0,0:0:0:0:
336,124,39302,1,8,0:0:0:0:
300,44,39527,1,2,0:0:0:0:
466,205,39753,5,2,0:0:0:0:
460,296,39978,1,0,0:0:0:0:
376,332,40204,2,0,L|272:344,1,90,8|2,0:0|0:0,0:0:0:0:
204,312,40655,2,0,P|184:268|184:224,1,90,0|2,0:0|0:0,0:0:0:0:
228,148,41106,2,0,B|264:128|296:128|296:128|352:148|352:148|368:128|396:124,1,180,8|0,0:0|0:0,0:0:0:0:
412,212,41783,6,0,L|404:312,1,90,0|8,0:0|0:0,0:0:0:0:
488,200,42234,2,0,L|495:110,1,90,2|0,0:0|0:0,0:0:0:0:
436,44,42685,1,0,0:0:0:0:
348,36,42911,1,8,0:0:0:0:
252,172,43136,1,0,0:0:0:0:
320,120,43362,6,0,B|276:104|260:64|260:64|184:128,1,180,2|8,0:0|0:0,0:0:0:0:
100,144,44038,2,0,B|100:184|100:184|72:228|92:280|92:280|92:320,1,180,2|2,0:0|0:0,0:0:0:0:
168,236,44715,2,0,L|264:236,1,90,8|2,0:0|0:0,0:0:0:0:
328,180,45166,6,0,P|372:168|416:180,1,90
412,288,45617,2,0,P|368:298|325:286,1,90,8|2,0:0|0:0,0:0:0:0:
328,128,46069,2,0,P|372:116|416:128,1,90,0|2,0:0|0:0,0:0:0:0:
476,192,46520,1,8,0:0:0:0:
492,280,46745,1,2,0:0:0:0:
364,324,46971,6,0,B|320:324|320:324|276:304|228:324|228:324|184:324,1,180,2|8,0:0|0:0,0:0:0:0:
26,236,47647,2,0,B|68:236|68:236|116:256|160:236|160:236|204:236,1,180,2|2,0:0|0:0,0:0:0:0:
272,176,48324,2,0,P|280:132|272:88,1,90,8|2,0:0|0:0,0:0:0:0:
192,48,48775,6,0,L|100:48,1,90,2|0,0:0|0:0,0:0:0:0:
360,68,49226,2,0,L|450:68,1,90,8|0,0:0|0:0,0:0:0:0:
492,196,49678,1,0,0:0:0:0:
480,212,49790,1,0,3:0:0:0:
468,228,49903,1,0,3:0:0:0:
360,68,50129,1,8,0:0:0:0:
256,144,50354,1,0,0:0:0:0:
152,68,50580,6,0,B|96:64|64:120|64:120|104:136|120:168,1,180,0|8,0:0|0:0,0:0:0:0:
40,204,51257,1,0,0:0:0:0:
252,264,51482,2,0,B|192:200|192:200|176:244|120:248,1,180,0|8,0:0|0:0,0:0:0:0:
48,300,52159,2,0,P|88:328|132:332,1,90
118,164,52610,5,0,0:0:0:0:
127,332,52835,1,8,0:0:0:0:
329,260,53061,2,0,P|292:336|208:328,1,180
148,260,53738,2,0,P|186:238|230:241,1,90,8|0,0:0|0:0,0:0:0:0:
128,340,54189,6,0,P|84:316|64:276,1,90
80,192,54640,1,8,0:0:0:0:
72,104,54866,1,0,0:0:0:0:
148,60,55091,2,0,B|189:60|189:60|237:40|281:60|281:60|325:60,1,180,0|8,0:0|0:0,0:0:0:0:
380,132,55768,6,0,P|412:84|412:40,1,90
222,148,56219,2,0,L|132:148,1,90,0|8,0:0|0:0,0:0:0:0:
304,184,56670,1,0,3:0:0:0:
316,196,56783,1,0,3:0:0:0:
228,312,57008,1,0,3:0:0:0:
208,312,57121,1,0,3:0:0:0:
312,280,57347,2,0,P|348:304|400:308,1,90,8|0,0:0|0:0,0:0:0:0:
464,252,57798,6,0,B|444:192|444:192|448:144|448:144|428:72,1,180,0|8,0:0|0:0,0:0:0:0:
360,136,58475,2,0,L|336:40,1,90,0|2,0:0|0:0,0:0:0:0:
260,92,58926,2,0,L|281:179,1,90,0|8,0:0|0:0,0:0:0:0:
264,268,59377,1,0,0:0:0:0:
228,352,59602,6,0,B|188:336|176:296|176:296|72:308,1,180,0|8,0:0|0:0,0:0:0:0:
92,220,60279,2,0,L|188:208,1,90,0|2,0:0|0:0,0:0:0:0:
256,156,60730,2,0,P|270:198|267:242,1,90,0|8,0:0|0:0,0:0:0:0:
180,112,61181,1,0,0:0:0:0:
308,72,61407,6,0,B|352:100|392:96|392:96|436:120|428:172,1,180,0|8,0:0|0:0,0:0:0:0:
380,248,62084,2,0,P|420:264|472:248,1,90,0|2,0:0|0:0,0:0:0:0:
344,320,62535,2,0,P|300:309|259:325,1,90,0|8,0:0|0:0,0:0:0:0:
176,356,62986,1,0,0:0:0:0:
217,185,63211,6,0,B|200:268|200:268|148:256|112:292,1,180,0|8,0:0|0:0,0:0:0:0:
32,164,64001,1,0,3:0:0:0:
72,84,64226,1,0,3:0:0:0:
84,60,64339,1,0,3:0:0:0:
172,44,64565,1,8,0:0:0:0:
252,84,64790,1,0,0:0:0:0:
268,64,64903,1,0,0:0:0:0:
324,140,65016,6,0,P|368:124|416:132,1,90
384,216,65467,2,0,P|420:248|432:296,1,90,8|0,0:0|0:0,0:0:0:0:
340,292,65918,2,0,P|332:332|300:368,1,90
224,316,66369,1,8,0:0:0:0:
107,196,66595,6,0,B|168:196|196:196|196:196|240:196|272:240,1,180
128,272,67272,2,0,L|36:272,1,90,8|0,0:0|0:0,0:0:0:0:
144,120,67723,2,0,L|234:120,1,90
312,164,68174,2,0,P|356:176|400:164,1,90,8|0,0:0|0:0,0:0:0:0:
324,268,68625,6,0,P|236:232|160:264,2,180,0|8|0,0:0|0:0|0:0,0:0:0:0:
404,308,69753,1,0,0:0:0:0:
484,352,69978,1,8,0:0:0:0:
464,240,70204,6,0,B|444:180|444:180|484:136|472:72,1,180
388,40,70881,2,0,L|276:52,1,90,8|0,0:0|0:0,0:0:0:0:
232,112,71332,2,0,L|120:124,1,90
52,128,71783,1,8,0:0:0:0:
32,40,72008,1,0,0:0:0:0:
128,244,72234,5,0,0:0:0:0:
204,292,72460,1,0,0:0:0:0:
228,300,72572,1,0,0:0:0:0:
252,308,72685,1,8,0:0:0:0:
340,284,72911,2,0,L|400:296,2,45
256,164,73362,2,0,L|256:120,2,45,0|0|8,0:0|0:0|0:0,0:0:0:0:
172,284,73813,2,0,L|112:296,2,45
340,192,74264,5,0,0:0:0:0:
356,176,74377,1,0,0:0:0:0:
372,160,74490,1,8,0:0:0:0:
172,192,74715,1,0,0:0:0:0:
156,176,74828,1,0,0:0:0:0:
140,160,74941,1,0,0:0:0:0:
256,292,75166,1,0,0:0:0:0:
256,316,75279,1,0,0:0:0:0:
256,340,75392,1,8,0:0:0:0:
420,280,75617,6,0,L|464:280,2,45,0|0|0,3:0|0:0|0:0,0:0:0:0:
92,280,76069,2,0,L|48:280,2,45,0|0|8,3:0|0:0|0:0,0:0:0:0:
368,180,76520,2,0,L|412:180,2,45,0|0|0,3:0|0:0|0:0,0:0:0:0:
144,180,76971,2,0,L|100:180,2,45,0|0|8,3:0|0:0|0:0,0:0:0:0:
256,92,77422,1,0,3:0:0:0:
256,136,77535,1,0,3:0:0:0:
256,180,77647,5,0,0:0:0:0:
256,192,77760,12,4,79452,1:0:0:0:
112,28,79903,5,0,1:0:0:0:
68,44,80016,1,2,0:0:0:0:
44,80,80129,1,2,0:0:0:0:
44,124,80241,1,0,0:0:0:0:
68,160,80354,2,0,P|78:186|80:220,1,45,0|2,1:0|0:0,0:0:0:0:
168,268,80580,2,0,P|171:245|180:225,1,45,0|2,0:0|0:0,0:0:0:0:
236,308,80805,1,0,1:0:0:0:
204,340,80918,1,2,0:0:0:0:
160,348,81031,1,2,0:0:0:0:
116,332,81144,1,0,0:0:0:0:
84,300,81257,6,0,L|76:256,1,45,0|2,1:0|0:0,0:0:0:0:
160,224,81482,2,0,L|168:268,1,45
88,200,81708,1,2,1:2:0:0:
112,164,81820,1,2,0:0:0:0:
156,148,81933,1,0,0:0:0:0:
200,156,82046,1,0,0:0:0:0:
232,188,82159,2,0,P|259:195|300:196,1,45,0|2,1:0|0:0,0:0:0:0:
372,128,82384,2,0,P|349:125|328:118,1,45,0|2,0:0|0:0,0:0:0:0:
432,84,82610,1,2,1:2:0:0:
452,124,82723,1,2,0:0:0:0:
440,168,82835,1,2,0:0:0:0:
408,200,82948,1,0,0:0:0:0:
484,240,83061,6,0,L|404:364,1,135,2|2,1:2|0:0,0:0:0:0:
392,356,83512,2,0,P|380:304|356:272,1,90,8|0,0:0|0:0,0:0:0:0:
328,260,83850,1,2,0:0:0:0:
292,252,83963,1,2,1:2:0:0:
147,339,84302,2,0,P|211:357|264:319,1,135,10|2,0:0|0:0,0:0:0:0:
196,204,84866,6,0,L|180:152,1,45,2|0,1:2|0:0,0:0:0:0:
232,48,85091,2,0,L|245:91,1,45,2|2,0:0|0:0,0:0:0:0:
152,88,85317,2,0,L|96:96,1,45,8|0,1:2|0:0,0:0:0:0:
272,168,85542,2,0,L|316:161,1,45,2|0,0:0|0:0,0:0:0:0:
360,160,85768,1,2,1:2:0:0:
403,168,85881,1,0,0:0:0:0:
439,195,85993,1,2,0:0:0:0:
458,235,86106,1,2,0:0:0:0:
458,280,86219,1,8,1:2:0:0:
438,320,86332,1,0,0:0:0:0:
403,347,86444,1,2,0:0:0:0:
359,355,86557,1,2,0:0:0:0:
316,344,86670,5,0,1:2:0:0:
244,288,86896,1,2,0:0:0:0:
244,288,87008,2,0,L|92:296,1,135,8|0,0:0|0:0,0:0:0:0:
96,288,87460,2,0,P|80:224|88:148,1,135,2|0,0:0|0:0,0:0:0:0:
96,148,87911,2,0,L|230:140,1,135,8|0,0:0|0:0,0:0:0:0:
256,128,88362,1,2,0:0:0:0:
280,120,88475,5,2,1:2:0:0:
364,88,88700,1,0,0:0:0:0:
432,144,88926,2,0,P|444:188|440:232,1,90,8|0,0:0|0:0,0:0:0:0:
278,290,89377,2,0,L|368:284,1,90,2|0,1:2|0:0,0:0:0:0:
224,196,89828,1,8,1:2:0:0:
188,223,89940,1,2,0:0:0:0:
144,230,90053,1,2,0:0:0:0:
103,215,90166,1,0,0:0:0:0:
73,182,90279,5,2,1:2:0:0:
256,72,90505,1,0,0:0:0:0:
276,64,90617,2,0,P|324:48|412:60,1,135,8|0,0:0|0:0,0:0:0:0:
472,160,91069,1,0,0:0:0:0:
452,168,91181,2,0,P|404:184|336:176,1,90,2|0,1:2|0:0,0:0:0:0:
344,176,91520,2,0,B|352:240|352:240|344:320,1,135,8|2,0:0|0:0,0:0:0:0:
328,324,91971,1,0,0:0:0:0:
308,336,92084,6,0,L|256:344,1,45,0|0,1:2|0:0,0:0:0:0:
155,298,92309,2,0,L|200:292,1,45,2|0,0:0|0:0,0:0:0:0:
96,244,92535,2,0,L|84:188,1,45,8|2,1:2|0:0,0:0:0:0:
124,88,92760,2,0,L|132:132,1,45,2|0,0:0|0:0,0:0:0:0:
216,116,92986,5,2,1:2:0:0:
252,141,93098,1,2,0:0:0:0:
296,147,93211,1,2,0:0:0:0:
339,134,93324,1,2,0:0:0:0:
380,116,93437,1,8,1:2:0:0:
425,113,93549,1,2,0:0:0:0:
466,129,93662,1,2,0:0:0:0:
492,168,93775,1,2,0:0:0:0:
504,212,93888,5,0,1:2:0:0:
488,256,94000,1,2,0:0:0:0:
456,288,94113,1,2,0:0:0:0:
410,307,94226,1,2,0:0:0:0:
369,324,94339,1,8,1:2:0:0:
324,331,94451,1,0,0:0:0:0:
280,325,94564,1,2,0:0:0:0:
238,309,94677,1,0,0:0:0:0:
198,289,94790,1,0,1:2:0:0:
162,261,94903,1,2,0:0:0:0:
133,227,95015,1,2,0:0:0:0:
113,187,95128,1,0,0:0:0:0:
104,143,95241,1,8,0:0:0:0:
111,99,95354,1,2,0:0:0:0:
134,61,95466,1,2,0:0:0:0:
171,35,95579,1,0,0:0:0:0:
214,23,95693,5,0,1:2:0:0:
258,27,95805,1,2,0:0:0:0:
299,46,95918,1,2,0:0:0:0:
330,78,96030,1,0,0:0:0:0:
349,119,96143,1,8,0:2:0:0:
352,164,96256,1,2,0:0:0:0:
343,207,96369,1,2,0:0:0:0:
322,247,96481,1,0,0:0:0:0:
293,282,96594,1,0,1:2:0:0:
258,310,96707,1,2,0:0:0:0:
218,331,96820,1,2,0:0:0:0:
175,344,96933,1,0,0:0:0:0:
131,349,97046,1,8,0:0:0:0:
86,343,97158,1,2,0:0:0:0:
45,326,97271,1,2,0:0:0:0:
32,148,97497,6,0,P|72:128|168:120,1,135,2|2,1:2|0:0,0:0:0:0:
168,124,97948,2,0,B|164:168|164:168|184:216,1,90,8|0,1:2|0:0,0:0:0:0:
264,252,98399,1,0,1:2:0:0:
306,238,98511,1,2,0:0:0:0:
349,224,98624,1,2,0:0:0:0:
392,237,98737,1,0,0:0:0:0:
435,251,98850,1,8,1:2:0:0:
484,176,99076,2,0,L|488:84,1,90,0|0,0:0|1:2,0:0:0:0:
349,224,99527,6,0,L|345:313,1,90,0|8,0:0|1:2,0:0:0:0:
260,340,99978,1,2,0:0:0:0:
172,312,100204,1,0,0:0:0:0:
128,236,100429,2,0,L|112:188,1,45,2|0,0:0|0:0,0:0:0:0:
24,176,100655,1,8,1:2:0:0:
42,135,100767,1,2,0:0:0:0:
79,109,100880,1,2,0:0:0:0:
123,105,100993,1,2,0:0:0:0:
208,140,101106,6,0,L|248:116,2,45,2|2|2,1:2|0:0|0:0,0:0:0:0:
216,228,101557,1,8,1:2:0:0:
224,248,101670,1,2,0:0:0:0:
232,268,101783,2,0,L|252:324,1,45
