osu file format v10

[General]
AudioFilename: Take off and Gala - Rabiesx86.mp3
AudioLeadIn: 0
PreviewTime: 57718
Countdown: 1
SampleSet: Soft
StackLeniency: 0.7
Mode: 0
LetterboxInBreaks: 1

[Editor]
Bookmarks: 4918,19393,25093,38518,43693,76918
DistanceSpacing: 0.9
BeatDivisor: 2
GridSize: 8

[Metadata]
Title:Take off and Gala (PonyDub)
TitleUnicode:Take off and Gala (PonyDub)
Artist:Rabies Bun
ArtistUnicode:Rabies Bun
Creator:ztrot
Version:Normal
Source:
Tags:Kitsune^2 Shiro Odaril
BeatmapID:189498
BeatmapSetID:62320

[Difficulty]
HPDrainRate:3
CircleSize:3
OverallDifficulty:4
ApproachRate:5
SliderMultiplier:1.2
SliderTickRate:2

[Events]
//Background and Video events
0,0,"Fluttershy-at-the-gala-1-.jpg"
//Break Periods
2,57928,66428
//Storyboard Layer 0 (Background)
//Storyboard Layer 1 (Fail)
//Storyboard Layer 2 (Pass)
//Storyboard Layer 3 (Foreground)
//Storyboard Sound Samples
//Background Colour Transformations
3,100,163,162,255

[TimingPoints]
128,300,4,2,0,100,1,0
9718,-100,4,2,1,100,0,0
96128,-100,4,2,1,100,0,1
115328,-100,4,2,1,100,0,0

[Colours]
Combo1 : 255,255,128
Combo2 : 121,121,255
Combo3 : 0,176,176
Combo4 : 255,191,223

[HitObjects]
80,64,4928,1,0,0:0:0
152,272,5528,1,0,0:0:0
360,272,6128,5,0,0:0:0
432,64,6728,1,0,0:0:0
256,192,7328,5,0,0:0:0
256,192,7928,1,0,0:0:0
88,328,8528,5,0,0:0:0
88,328,9128,1,0,0:0:0
424,328,9728,5,0,0:0:0
256,192,10328,1,0,0:0:0
88,328,10928,2,0,B|16:280|136:232|48:168,2,180,0|0|8,0:0|0:0|0:0,0:0:0
184,280,12128,5,0,0:0:0
328,104,12728,1,0,0:0:0
424,296,13328,2,0,B|392:360|312:360|280:296,2,180,0|0|8,0:0|0:0|0:0,0:0:0
352,216,14528,5,0,0:0:0
352,216,15128,1,0,0:0:0
160,216,15728,2,0,B|90:213|56:166|82:85,2,180,0|0|8,0:0|0:0|0:0,0:0:0
256,160,16928,5,0,0:0:0
256,160,17528,1,0,0:0:0
136,336,18128,2,0,B|376:336,1,240
376,336,19028,1,0,0:0:0
432,240,19328,6,0,B|184:240,1,240,6|0,0:0|0:0,0:0:0
88,240,20228,1,10,0:0:0
144,144,20528,6,0,B|384:144,1,240,2|0,0:0|0:0,0:0:0
448,56,21428,1,10,0:0:0
344,56,21728,5,0,0:0:0
128,56,22328,1,0,0:0:0
48,256,22928,6,0,B|88:352|208:312,2,180,2|0|10,0:0|0:0|0:0,0:0:0
152,224,24128,5,0,0:0:0
256,184,24428,1,0,0:0:0
336,320,24878,2,0,B|408:320,1,60,2|8,0:0|0:0,0:0:0
464,232,25328,6,0,B|504:136|416:72,1,180
352,160,26078,2,0,B|288:160,1,60,2|8,0:0|0:0,0:0:0
216,80,26528,5,0,0:0:0
216,80,26828,1,10,0:0:0
56,224,27428,5,10,0:0:0
56,328,27728,2,0,B|136:256|168:368|224:312,2,180,0|0|8,0:0|0:0|0:0,0:0:0
56,224,28928,5,4,0:0:0
56,120,29228,1,2,0:0:0
144,56,29528,1,0,3:3:0
256,40,29828,1,2,0:0:0
360,64,30128,2,0,B|432:88|448:152|416:208,2,180,0|2|0,0:0|0:0|0:0,0:0:0
256,144,31328,5,0,3:0:0
200,232,31628,1,10,0:0:0
312,232,31928,1,0,3:0:0
256,328,32228,1,10,0:0:0
152,328,32528,2,0,B|80:336|40:288|40:216,2,180,0|0|0,3:0|3:0|3:0,0:0:0
144,216,33728,6,0,B|208:256|264:208,1,120,0|10,2:0|0:0,0:0:0
200,120,34328,2,0,B|240:64|312:80,1,120,0|10,0:0|0:0,0:0:0
336,184,34928,2,8,B|392:240|456:232|496:176,2,180,0|0|0,3:0|0:0|3:0,0:0:0
336,288,36128,5,2,0:0:0
336,288,36428,1,8,0:0:0
240,336,36728,1,0,0:0:0
240,336,37028,1,8,0:0:0
248,232,37328,2,0,B|176:216|120:264|136:328|136:344,2,180,2|0|2,0:0|0:0|0:0,0:0:0
248,232,38528,1,4,0:0:0
200,136,38828,5,0,0:0:0
200,136,39128,1,0,0:0:0
368,272,39728,2,0,B|480:352,1,120,0|8,0:0|0:0,0:0:0
464,232,40328,2,0,B|360:160,1,120,0|8,0:0|0:0,0:0:0
256,352,41228,6,0,B|128:352,1,120
56,152,42128,1,0,0:0:0
56,152,42428,1,8,0:0:0
120,240,42728,1,0,0:0:0
120,240,43028,1,8,0:0:0
256,72,43628,5,0,0:0:0
256,176,43928,1,0,0:0:0
432,304,44528,1,0,0:0:0
432,304,44828,1,8,0:0:0
432,200,45128,2,0,B|368:200|336:264,1,120,0|8,0:0|0:0,0:0:0
256,64,46028,5,0,0:0:0
256,64,46328,1,0,0:0:0
200,272,46928,1,0,0:0:0
312,272,47228,1,8,0:0:0
256,360,47528,1,0,0:0:0
256,360,47828,1,8,0:0:0
80,232,48428,6,0,B|80:112,1,120
288,56,49328,2,0,B|408:56,1,120,0|8,0:0|0:0,0:0:0
344,144,49928,2,0,B|488:144,1,120,0|8,0:0|0:0,0:0:0
312,296,50828,5,0,0:0:0
200,296,51128,1,0,0:0:0
200,80,51728,2,0,B|256:112|320:80,3,120,0|8|0|8,0:0|0:0|0:0|0:0,0:0:0
152,232,53228,5,0,0:0:0
256,264,53528,1,0,0:0:0
416,120,54128,1,0,0:0:0
320,64,54428,1,8,0:0:0
224,120,54728,1,0,0:0:0
128,64,55028,1,8,0:0:0
256,240,55628,5,0,0:0:0
256,240,55928,1,0,0:0:0
256,192,56528,12,4,57728,0:0:0
176,360,67628,5,8,0:0:0
112,272,67928,1,0,0:0:0
48,360,68228,1,8,0:0:0
288,360,68828,5,8,0:0:0
352,272,69128,1,0,0:0:0
416,360,69428,1,8,0:0:0
232,224,70028,5,8,0:0:0
176,136,70328,1,0,0:0:0
288,136,70628,1,8,0:0:0
296,32,70928,2,0,B|176:32,3,120,0|8|0|8,0:0|0:0|0:0|0:0,0:0:0
376,104,72428,6,0,B|392:176|464:176,2,120,10|0|10,0:0|0:0|0:0,0:0:0
256,280,73628,2,0,B|192:280|160:216,2,120,10|0|10,0:0|0:0|0:0,0:0:0
80,152,74828,5,10,0:0:0
160,72,75128,1,0,0:0:0
264,72,75428,1,10,0:0:0
336,152,75728,2,0,B|400:152|432:80,3,120,0|8|0|8,0:0|0:0|0:0|0:0,0:0:0
312,248,77228,5,10,0:0:0
312,248,77528,1,0,0:0:0
144,112,78128,2,0,B|32:32,1,120,0|10,0:0|0:0,0:0:0
48,152,78728,2,0,B|152:224,1,120,0|10,0:0|0:0,0:0:0
256,32,79628,6,0,B|384:32,1,120,8|0,0:0|0:0,0:0:0
456,232,80528,1,0,0:0:0
456,232,80828,1,10,0:0:0
392,144,81128,1,0,0:0:0
392,144,81428,1,10,0:0:0
256,312,82028,5,8,0:0:0
256,208,82328,1,0,0:0:0
80,80,82928,1,0,0:0:0
80,80,83228,1,10,0:0:0
80,184,83528,2,0,B|144:184|176:120,1,120,0|10,0:0|0:0,0:0:0
256,320,84428,5,8,0:0:0
256,320,84728,1,0,0:0:0
312,112,85328,1,0,0:0:0
200,112,85628,1,10,0:0:0
256,24,85928,1,0,0:0:0
256,24,86228,1,10,0:0:0
432,152,86828,6,0,B|432:272,1,120,8|0,0:0|0:0,0:0:0
224,328,87728,2,0,B|104:328,1,120,0|8,0:0|0:0,0:0:0
168,240,88328,2,0,B|24:240,1,120,0|8,0:0|0:0,0:0:0
200,88,89228,5,8,0:0:0
312,88,89528,1,0,0:0:0
312,304,90128,2,0,B|256:272|192:304,3,120,0|8|0|8,0:0|0:0|0:0|0:0,0:0:0
360,152,91628,5,8,0:0:0
256,120,91928,1,0,0:0:0
96,264,92528,1,0,0:0:0
192,320,92828,1,10,0:0:0
288,264,93128,1,0,0:0:0
384,320,93428,1,10,0:0:0
256,144,94028,5,2,0:0:0
256,144,94328,1,0,0:0:0
72,264,94928,5,0,0:0:0
176,264,95228,1,0,0:0:0
256,192,95528,2,0,P|328:192,4,60,8|0|8|0|4,0:0|0:0|0:0|0:0|0:0,0:0:0
304,96,96428,5,0,0:0:0
408,120,96728,1,0,0:0:0
464,32,97028,1,10,0:0:0
224,24,97628,5,10,0:0:0
160,112,97928,1,0,0:0:0
96,24,98228,1,10,0:0:0
280,160,98828,5,10,0:0:0
336,248,99128,1,0,0:0:0
224,248,99428,1,10,0:0:0
216,352,99728,2,0,B|336:352,3,120,0|10|0|10,0:0|0:0|0:0|0:0,0:0:0
136,280,101228,6,0,B|120:208|48:208,2,120,10|0|10,0:0|0:0|0:0,0:0:0
256,104,102428,2,0,B|320:104|352:168,2,120,10|0|10,0:0|0:0|0:0,0:0:0
432,232,103628,5,10,0:0:0
352,312,103928,1,0,0:0:0
248,312,104228,1,10,0:0:0
176,232,104528,2,0,B|112:232|80:304,3,120,0|10|0|10,0:0|0:0|0:0|0:0,0:0:0
48,80,106028,5,10,0:0:0
152,80,106328,1,0,0:0:0
256,80,106628,1,10,0:0:0
440,192,107228,5,10,0:0:0
336,192,107528,1,0,0:0:0
232,192,107828,1,10,0:0:0
416,80,108428,5,10,0:0:0
312,80,108728,1,0,0:0:0
208,80,109028,1,10,0:0:0
104,80,109328,2,0,B|48:112|56:192,3,120,0|10|0|10,0:0|0:0|0:0|0:0,0:0:0
200,344,110828,5,10,0:0:0
304,344,111128,1,0,0:0:0
408,344,111428,1,10,0:0:0
216,256,112028,5,10,0:0:0
112,256,112328,1,0,0:0:0
48,168,112628,1,10,0:0:0
256,96,113228,6,0,B|320:120|368:72,2,120,10|0|10,0:0|0:0|0:0,0:0:0
152,64,114128,1,2,0:0:0
88,152,114428,1,8,0:0:0
152,240,114728,2,0,P|184:304|248:304,2,120,0|8|4,0:0|0:0|0:0,0:0:0
