osu file format v10

[General]
AudioFilename: Take off and Gala - Rabiesx86.mp3
AudioLeadIn: 0
PreviewTime: 57718
Countdown: 1
SampleSet: Soft
StackLeniency: 0.7
Mode: 0
LetterboxInBreaks: 1

[Editor]
Bookmarks: 4918,19393,25093,38518,43693,76918
DistanceSpacing: 0.9
BeatDivisor: 4
GridSize: 8

[Metadata]
Title:Take off and Gala (PonyDub)
TitleUnicode:Take off and Gala (PonyDub)
Artist:Rabies Bun
ArtistUnicode:Rabies Bun
Creator:ztrot
Version:Insane
Source:
Tags:Kitsune^2 Shiro Odaril
BeatmapID:185055
BeatmapSetID:62320

[Difficulty]
HPDrainRate:6
CircleSize:4
OverallDifficulty:8
ApproachRate:9
SliderMultiplier:1.9
SliderTickRate:2

[Events]
//Background and Video events
0,0,"Fluttershy-at-the-gala-1-.jpg"
//Break Periods
//Storyboard Layer 0 (Background)
//Storyboard Layer 1 (Fail)
//Storyboard Layer 2 (Pass)
//Storyboard Layer 3 (Foreground)
//Storyboard Sound Samples
//Background Colour Transformations
3,100,163,162,255

[TimingPoints]
128,300,4,2,0,100,1,0
4918,-100,4,2,2,100,0,0
9718,-100,4,2,1,100,0,0
57878,-100,4,2,2,100,0,0
66728,-100,4,2,1,100,0,0
96128,-100,4,2,1,100,0,1
115328,-100,4,2,1,100,0,0

[Colours]
Combo1 : 255,255,128
Combo2 : 121,121,255
Combo3 : 0,176,176
Combo4 : 255,191,223

[HitObjects]
256,360,4928,1,0,0:0:0
184,312,5078,1,0,0:0:0
112,360,5228,2,0,B|72:319|105:263,1,95,2|0,0:0|0:0,0:0:0
168,224,5528,1,0,0:0:0
88,192,5678,1,0,0:0:0
152,136,5828,2,0,B|112:96|64:112,1,95,2|0,0:0|0:0,0:0:0
360,136,6128,6,0,B|400:96|446:111,1,95,0|0,0:0|0:0,0:0:0
424,192,6428,1,2,0:0:0
344,224,6578,1,0,0:0:0
411,272,6728,2,0,B|439:319|400:360,1,95
328,312,7028,1,2,0:0:0
256,360,7178,1,0,0:0:0
256,216,7328,5,0,0:0:0
256,128,7478,1,0,0:0:0
183,172,7628,2,0,B|127:172|103:220,1,95,2|0,0:0|0:0,0:0:0
329,172,7928,2,0,B|385:172|409:220,1,95
330,255,8228,2,0,B|286:282|309:340,1,95,2|0,0:0|0:0,0:0:0
182,255,8528,6,0,B|226:282|203:340,1,95
120,312,8828,1,2,0:0:0
56,256,8978,1,2,0:0:0
120,200,9128,1,0,0:0:0
56,144,9278,1,0,0:0:0
120,88,9428,1,2,0:0:0
184,144,9578,1,2,0:0:0
328,144,9728,6,0,B|384:96|465:119|482:190,2,190,2|8|2,0:0|0:0|0:0,0:0:0
392,208,10478,1,0,0:0:0
328,272,10628,1,8,0:0:0
256,320,10778,1,0,0:0:0
184,272,10928,2,0,P|84:286|29:215,1,190,2|8,0:0|0:0,0:0:0
120,213,11378,1,2,0:0:0
392,208,11678,1,2,0:0:0
392,208,11828,1,8,0:0:0
256,56,12128,6,0,B|168:104|64:56,2,190,2|8|2,0:0|0:0|0:0,0:0:0
312,120,12878,1,2,0:0:0
392,88,13028,1,8,0:0:0
256,256,13328,2,0,B|360:240|432:328,1,190,2|8,0:0|0:0,0:0:0
424,320,13778,1,2,0:0:0
208,352,14078,1,0,0:0:0
304,352,14228,1,8,0:0:0
200,352,14378,1,0,0:0:0
312,352,14528,5,2,0:0:0
256,200,14828,1,8,0:0:0
160,56,15128,1,2,0:0:0
256,104,15278,1,2,0:0:0
352,56,15428,1,8,0:0:0
176,152,15728,6,0,B|88:224|152:328,1,190,2|8,0:0|0:0,0:0:0
200,248,16178,1,2,0:0:0
256,184,16328,1,0,0:0:0
312,248,16478,1,2,0:0:0
256,312,16628,1,8,0:0:0
336,152,16928,6,0,B|424:224|360:328,1,190,2|8,0:0|0:0,0:0:0
208,48,17678,1,2,0:0:0
304,48,17828,1,8,0:0:0
208,328,18128,5,2,0:0:0
304,328,18278,1,0,0:0:0
200,312,18428,1,8,0:0:0
312,312,18578,1,0,0:0:0
256,184,18728,2,8,B|256:232,4,47.5
168,200,19178,1,8,0:0:0
344,200,19328,5,4,0:0:0
256,104,19478,1,0,0:0:0
168,200,19628,1,10,0:0:0
184,368,19928,1,0,0:0:0
328,360,20078,1,2,0:0:0
184,368,20228,1,10,0:0:0
160,96,20528,6,0,B|104:104|80:160,2,95,2|0|8,0:0|3:3|0:0,0:0:0
256,48,20978,1,0,0:0:0
352,96,21128,2,0,B|408:104|432:160,2,95,0|2|10,3:0|0:0|0:0,0:0:0
256,304,21728,2,0,B|192:216|320:224|256:128,1,190,2|10,0:0|0:0,0:0:0
152,312,22328,1,0,3:0:0
256,384,22478,1,2,0:0:0
360,312,22628,1,10,0:0:0
160,168,22928,2,0,B|91:176|58:124|64:72|96:33,1,190,2|8,0:0|0:0,0:0:0
144,96,23378,1,0,3:0:0
368,96,23678,5,2,0:0:0
368,96,23828,1,8,0:0:0
368,96,23978,1,0,0:0:0
352,168,24128,2,0,B|421:176|454:124|448:72|416:33,2,190,2|8|0,0:0|0:0|3:0,0:0:0
256,160,24878,1,2,0:0:0
160,168,25028,1,10,0:0:0
56,304,25328,5,2,0:0:0
128,352,25478,1,0,0:0:0
184,288,25628,1,8,0:0:0
256,336,25778,1,0,0:0:0
328,288,25928,1,0,0:0:0
384,352,26078,1,0,0:0:0
456,304,26228,1,10,0:0:0
256,240,26528,5,0,3:0:0
192,184,26678,2,0,B|96:240,1,95,0|8,0:0|0:0,0:0:0
320,184,26978,2,0,B|416:240,1,95
256,136,27278,2,0,B|256:40,1,95,2|8,0:0|0:0,0:0:0
112,136,27728,6,0,B|128:80|192:72,1,95,2|0,0:0|0:0,0:0:0
334,74,28028,2,0,B|384:80|400:136,1,95,8|0,0:0|0:0,0:0:0
400,248,28328,2,0,B|384:304|320:312,1,95,0|2,0:0|0:0,0:0:0
177,309,28628,2,0,B|128:304|112:248,2,95,8|0|4,0:0|0:0|0:0,0:0:0
256,160,29228,5,2,0:0:0
256,328,29528,1,0,3:0:0
192,232,29678,1,2,0:0:0
320,232,29828,1,8,0:0:0
200,56,30128,6,0,B|144:56|112:96,1,95,2|0,0:0|0:0,0:0:0
176,152,30428,1,8,0:0:0
256,120,30578,1,0,3:0:0
312,56,30728,2,0,B|368:56|400:96,1,95,0|2,0:0|0:0,0:0:0
336,152,31028,1,8,0:0:0
360,320,31328,1,0,0:0:0
152,320,31628,1,8,0:0:0
256,184,31928,1,0,3:0:0
208,256,32078,1,2,0:0:0
304,256,32228,1,8,0:0:0
416,128,32528,6,0,B|368:104|376:48,1,95
464,56,32828,1,8,0:0:0
504,136,32978,1,0,0:0:0
448,200,33128,2,0,B|400:224|360:184,1,95,0|2,0:0|0:0,0:0:0
344,96,33428,2,0,B|304:72|248:96,1,95,8|0,0:0|0:0,0:0:0
256,184,33728,6,0,B|187:200|140:139|148:95|154:62,1,190,2|8,0:0|0:0,0:0:0
184,288,34328,1,0,3:0:0
256,352,34478,1,2,2:0:0
328,288,34628,1,8,0:0:0
256,80,34928,5,0,0:0:0
256,80,35078,1,0,0:0:0
184,136,35228,2,0,B|216:176|208:224,1,95,8|0,0:0|0:0,0:0:0
328,136,35528,2,0,B|296:176|304:224,1,95,0|2,0:0|0:0,0:0:0
256,296,35828,2,0,B|216:328|160:312,2,95,8|0|0,0:0|0:0|0:0,0:0:0
384,48,36428,1,8,0:0:0
128,48,36728,1,0,3:0:0
128,48,36878,1,2,0:0:0
128,48,37028,1,8,0:0:0
200,352,37328,5,0,0:0:0
312,352,37478,1,0,0:0:0
200,328,37628,1,8,0:0:0
312,328,37778,1,0,0:0:0
256,264,37928,1,8,0:0:0
256,248,38003,1,8,0:0:0
256,232,38078,1,8,0:0:0
256,216,38153,1,8,0:0:0
256,200,38228,1,8,0:0:0
256,112,38378,1,8,0:0:0
256,112,38528,1,4,0:0:0
88,72,38828,5,10,0:0:0
40,232,39128,1,0,0:0:0
40,232,39203,1,0,0:0:0
40,232,39278,2,0,B|144:232,1,95,2|8,0:0|0:0,0:0:0
368,240,39728,2,0,B|376:296|320:328,2,95,0|0|8,0:0|0:0|0:0,0:0:0
256,192,40178,1,0,0:0:0
144,144,40328,2,0,B|136:88|192:56,2,95,0|2|8,0:0|0:0|0:0,0:0:0
256,320,40928,5,0,3:0:0
256,64,41228,2,0,B|304:120|392:104|424:40,1,190,8|0,0:0|0:0,0:0:0
419,49,41603,1,0,0:0:0
418,51,41678,1,2,0:0:0
480,112,41828,1,8,0:0:0
448,280,42128,5,0,3:0:0
368,312,42278,1,0,0:0:0
304,368,42428,1,8,0:0:0
64,280,42728,1,0,3:0:0
144,312,42878,1,2,0:0:0
208,368,43028,1,8,0:0:0
256,296,43178,1,0,0:0:0
256,296,43328,1,0,3:0:0
168,72,43628,6,0,B|94:79|62:154|100:213,1,190,8|0,0:0|0:0,0:0:0
100,213,44003,1,0,0:0:0
100,213,44078,2,0,B|131:257|188:250,1,95,2|8,0:0|0:0,0:0:0
312,136,44528,1,0,3:0:0
200,136,44678,1,0,0:0:0
256,208,44828,1,8,0:0:0
208,43,45128,2,0,B|304:43,2,95,0|2|8,0:0|0:0|0:0,0:0:0
256,296,45728,1,2,0:0:0
339,250,46028,6,0,B|413:243|445:168|407:109,1,190,8|0,0:0|0:0,0:0:0
407,109,46403,1,0,0:0:0
407,109,46478,2,0,B|376:65|318:71,1,95,2|8,0:0|0:0,0:0:0
200,192,46928,1,2,0:0:0
312,144,47078,1,2,0:0:0
200,192,47228,1,8,0:0:0
344,344,47528,2,0,B|400:344|424:288,2,95,0|2|8,0:0|0:0|0:0,0:0:0
192,264,48128,6,0,B|168:304|112:312,1,95,4|0,0:0|0:0,0:0:0
320,224,48428,2,0,B|344:264|400:272,1,95,8|0,0:0|0:0,0:0:0
192,168,48728,2,0,B|168:208|112:216,2,95,0|2|8,0:0|0:0|0:0,0:0:0
424,56,49328,5,0,3:0:0
352,104,49478,1,2,0:0:0
304,32,49628,2,0,B|256:64|272:128,1,95,8|0,0:0|0:0,0:0:0
192,72,49928,1,0,3:0:0
200,160,50078,2,0,B|146:182|115:135,1,95,2|8,0:0|0:0,0:0:0
56,296,50528,5,0,3:0:0
128,344,50678,1,0,0:0:0
176,272,50828,2,0,B|216:304|208:360,1,95,10|0,0:0|0:0,0:0:0
256,248,51128,1,0,0:3:0
336,272,51278,2,0,B|296:304|304:360,1,95,2|8,0:0|0:0,0:0:0
448,272,51728,5,2,0:0:0
448,184,51878,1,0,0:0:0
368,152,52028,1,8,0:0:0
144,152,52328,1,0,0:0:0
64,184,52478,1,2,0:0:0
64,272,52628,2,0,B|112:288|128:344,2,95,8|0|2,0:0|0:0|0:0,0:0:0
256,56,53228,6,0,B|256:248,1,190,2|0,0:0|0:0,0:0:0
256,246,53603,1,0,0:0:0
256,246,53678,2,0,B|256:296|192:328,1,95,0|8,0:0|0:0,0:0:0
360,240,54128,1,2,0:0:0
432,200,54278,1,0,0:0:0
456,280,54428,1,8,0:0:0
152,240,54728,1,0,0:0:0
80,200,54878,1,2,0:0:0
56,280,55028,1,8,0:0:0
88,112,55328,5,2,0:0:0
152,56,55478,1,0,0:0:0
192,136,55628,1,8,0:0:0
256,80,55778,1,0,3:0:0
320,136,55928,1,0,3:0:0
360,56,56078,1,2,0:0:0
424,112,56228,1,8,0:0:0
305,235,56528,2,0,B|201:235,2,95,0|0|8,0:0|0:0|0:0,0:0:0
184,352,57128,5,10,0:0:0
200,352,57203,1,10,0:0:0
216,352,57278,1,10,0:0:0
232,352,57353,1,10,0:0:0
248,352,57428,1,10,0:0:0
328,320,57578,1,2,0:0:0
408,352,57728,1,4,0:0:0
400,264,57878,5,0,0:0:0
448,192,58028,1,0,0:0:0
360,192,58178,1,0,0:0:0
398,115,58328,2,0,B|347:99|297:110|259:169|285:222,2,190,2|0|2,0:0|0:0|0:0,0:0:0
360,192,59078,5,0,0:0:0
312,288,59228,1,0,0:0:0
200,288,59378,1,0,0:0:0
152,192,59528,2,0,B|80:216|72:304|112:352,2,190,2|0|2,0:0|0:0|0:0,0:0:0
256,216,60278,5,0,0:0:0
208,144,60428,1,0,0:0:0
304,144,60578,1,0,0:0:0
152,96,60728,1,2,0:0:0
360,96,61028,1,0,0:0:0
256,328,61328,1,2,0:0:0
256,168,61478,1,0,0:0:0
168,248,61628,1,2,0:0:0
344,248,61778,1,0,0:0:0
160,88,61928,2,0,B|360:88,1,190,2|2,0:0|0:0,0:0:0
112,184,62678,5,0,0:0:0
48,240,62828,1,0,0:0:0
80,320,62978,1,0,0:0:0
160,352,63128,2,0,B|360:352,1,190,2|2,0:0|0:0,0:0:0
256,112,63878,5,2,0:0:0
344,120,64028,1,0,0:0:0
424,88,64178,1,0,0:0:0
352,32,64328,2,0,B|152:32,1,190,2|2,0:0|0:0,0:0:0
176,336,65078,5,2,0:0:0
256,304,65228,1,0,0:0:0
336,336,65378,1,0,0:0:0
184,240,65528,2,0,B|192:192|256:172|320:192|328:240,1,190,2|2,0:0|0:0,0:0:0
256,80,66128,1,2,0:0:0
384,144,66278,1,2,0:0:0
360,16,66428,1,0,0:0:0
280,184,66578,1,0,0:0:0
176,288,66728,5,2,0:0:0
160,288,66803,1,2,0:0:0
144,288,66878,1,2,0:0:0
128,288,66953,1,2,0:0:0
112,288,67028,1,2,0:0:0
40,240,67178,1,2,0:0:0
40,240,67328,1,4,0:0:0
48,72,67628,5,8,0:0:0
128,48,67778,1,0,0:0:0
104,128,67928,2,0,B|152:144|192:96,1,95,0|0,0:0|3:0,0:0:0
216,24,68228,2,0,B|296:80|400:32,1,190,8|0,0:0|0:0,0:0:0
464,80,68678,1,0,0:0:0
432,160,68828,1,8,0:0:0
352,136,68978,1,0,3:0:0
368,216,69128,2,0,B|400:312|312:368|256:336,1,190,0|8,0:0|0:0,0:0:0
80,352,69728,5,0,3:0:0
24,288,69878,1,0,0:0:0
112,272,70028,2,0,B|104:216|48:200,1,95,8|0,0:0|0:0,0:0:0
32,120,70328,2,0,B|104:48|216:64,1,190,0|8,0:0|0:0,0:0:0
192,232,70928,5,0,3:0:0
256,352,71078,1,0,0:0:0
320,232,71228,1,8,0:0:0
176,312,71378,1,0,3:0:0
336,312,71528,1,0,0:0:0
256,80,71828,1,8,0:0:0
88,88,72128,6,0,B|32:192|120:256,2,190,0|8|0,3:0|0:0|0:0,0:0:0
160,136,72878,1,0,0:0:0
232,88,73028,1,8,0:0:0
424,88,73328,6,0,B|480:192|392:256,1,190,0|8,3:0|0:0,0:0:0
336,192,73778,1,0,3:0:0
312,272,73928,1,0,0:0:0
256,208,74078,1,0,3:0:0
200,272,74228,2,0,B|120:328|48:280|48:216,1,190,8|0,0:0|0:0,0:0:0
256,192,74828,12,8,76028,0:0:0
256,168,76328,5,8,0:0:0
256,160,76403,1,8,0:0:0
256,152,76478,1,8,0:0:0
256,144,76553,1,8,0:0:0
256,136,76628,1,8,0:0:0
328,72,76778,1,8,0:0:0
256,24,76928,5,0,0:0:0
184,72,77078,1,0,0:0:0
112,24,77228,2,0,B|72:65|105:121,1,95,10|0,0:0|0:0,0:0:0
168,160,77528,1,0,0:0:0
88,184,77678,1,0,0:0:0
152,240,77828,2,0,B|112:280|64:264,1,95,10|0,0:0|0:0,0:0:0
360,240,78128,6,0,B|400:280|446:265,1,95,0|0,0:0|0:0,0:0:0
424,184,78428,1,10,0:0:0
344,160,78578,1,0,0:0:0
411,112,78728,2,0,B|439:65|400:24,1,95
328,72,79028,1,10,0:0:0
256,120,79178,1,0,0:0:0
256,208,79328,5,0,0:0:0
256,208,79478,1,0,0:0:0
176,208,79628,2,0,B|120:208|96:160,1,95,10|0,0:0|0:0,0:0:0
336,208,79928,2,0,B|392:208|416:160,1,95
336,128,80228,2,0,B|292:101|315:43,1,95,10|0,0:0|0:0,0:0:0
176,128,80528,6,0,B|220:101|197:43,1,95
112,72,80828,1,10,0:0:0
48,128,80978,1,2,0:0:0
112,184,81128,1,0,0:0:0
48,240,81278,1,0,0:0:0
112,296,81428,1,10,0:0:0
176,240,81578,1,2,0:0:0
256,336,81728,5,0,0:0:0
344,336,81878,1,0,0:0:0
408,264,82028,2,0,B|304:264,1,95,8|0,0:0|0:0,0:0:0
264,192,82328,1,0,0:0:0
352,192,82478,1,2,0:0:0
408,120,82628,2,0,B|304:120,1,95,8|0,0:0|0:0,0:0:0
256,56,82928,5,0,0:0:0
192,112,83078,1,0,0:0:0
120,72,83228,1,8,0:0:0
56,304,83528,1,0,0:0:0
112,240,83678,1,2,0:0:0
192,272,83828,1,8,0:0:0
352,336,84128,5,0,0:0:0
408,272,84278,1,0,0:0:0
440,352,84428,2,0,B|488:328|488:272,1,95,8|0,0:0|0:0,0:0:0
448,200,84728,1,0,0:0:0
448,200,84803,1,0,0:0:0
448,200,84878,1,2,0:0:0
360,200,85028,1,8,0:0:0
176,104,85328,5,0,0:0:0
256,64,85478,1,0,0:0:0
336,104,85628,1,8,0:0:0
176,232,85928,1,0,0:0:0
256,264,86078,1,0,0:0:0
336,232,86228,1,8,0:0:0
256,168,86378,1,0,0:0:0
256,168,86528,1,4,0:0:0
168,312,86828,6,0,B|94:305|62:230|100:171,1,190,8|0,0:0|0:0,0:0:0
100,171,87203,1,0,0:0:0
100,171,87278,2,0,B|131:127|188:134,1,95,2|8,0:0|0:0,0:0:0
312,248,87728,1,0,3:0:0
208,248,87878,1,0,0:0:0
256,176,88028,1,8,0:0:0
208,341,88328,2,0,B|304:341,2,95,0|2|8,0:0|0:0|0:0,0:0:0
256,88,88928,1,2,0:0:0
339,134,89228,6,0,B|413:141|445:216|407:275,1,190,8|0,0:0|0:0,0:0:0
407,275,89603,1,0,0:0:0
407,275,89678,2,0,B|376:319|318:313,1,95,2|8,0:0|0:0,0:0:0
200,192,90128,1,0,3:0:0
312,240,90278,1,2,0:0:0
200,192,90428,1,8,0:0:0
344,40,90728,2,0,B|400:40|424:96,2,95,0|2|8,0:0|0:0|0:0,0:0:0
256,224,91328,1,0,3:0:0
424,312,91628,5,10,0:0:0
472,152,91928,1,0,0:0:0
472,152,92003,1,0,0:0:0
472,152,92078,2,0,B|368:152,1,95,2|8,0:0|0:0,0:0:0
144,144,92528,2,0,B|136:88|192:56,2,95,0|0|8,0:0|0:0|0:0,0:0:0
256,192,92978,1,0,0:0:0
368,240,93128,2,0,B|376:296|320:328,2,95,0|2|8,0:0|0:0|0:0,0:0:0
256,64,93728,5,0,3:0:0
256,320,94028,2,0,B|208:264|120:280|88:344,1,190,8|0,0:0|0:0,0:0:0
93,335,94403,1,0,0:0:0
93,335,94478,1,2,0:0:0
32,272,94628,1,8,0:0:0
64,104,94928,5,0,3:0:0
144,72,95078,1,0,0:0:0
208,16,95228,1,8,0:0:0
448,104,95528,1,0,3:0:0
424,72,95603,1,0,0:0:0
384,48,95678,1,2,0:0:0
344,40,95753,1,0,0:0:0
304,48,95828,1,8,0:0:0
264,72,95903,1,0,0:0:0
240,104,95978,1,0,0:0:0
240,104,96053,1,0,0:0:0
240,104,96128,1,4,2:0:0
112,120,96278,5,0,0:0:0
64,192,96428,1,8,0:0:0
152,192,96578,1,0,0:0:0
114,269,96728,2,0,B|165:285|215:274|253:215|227:162,2,190,0|8|0,0:0|0:0|0:0,0:0:0
152,192,97478,5,0,0:0:0
200,96,97628,1,8,0:0:0
312,96,97778,1,0,0:0:0
360,192,97928,2,0,B|432:168|440:80|400:32,2,190,0|8|0,0:0|0:0|0:0,0:0:0
256,168,98678,5,0,0:0:0
304,240,98828,1,8,0:0:0
208,240,98978,1,0,0:0:0
360,288,99128,1,0,0:0:0
152,288,99428,1,8,0:0:0
256,56,99728,1,0,0:0:0
256,216,99878,1,0,0:0:0
344,136,100028,1,8,0:0:0
168,136,100178,1,0,0:0:0
352,296,100328,2,0,B|152:296,1,190,0|8,0:0|0:0,0:0:0
400,200,101078,5,0,0:0:0
464,144,101228,1,8,0:0:0
432,64,101378,1,0,0:0:0
352,32,101528,2,0,B|152:32,1,190,0|8,0:0|0:0,0:0:0
216,280,102278,5,0,0:0:0
136,240,102428,1,8,0:0:0
80,312,102578,1,0,0:0:0
160,352,102728,2,0,B|360:352,1,190,0|8,0:0|0:0,0:0:0
336,48,103478,5,0,0:0:0
256,80,103628,1,8,0:0:0
176,48,103778,1,0,0:0:0
328,144,103928,2,0,B|320:192|256:212|192:192|184:144,1,190,0|8,0:0|0:0,0:0:0
256,304,104528,1,0,0:0:0
128,240,104678,1,0,0:0:0
152,368,104828,1,8,0:0:0
232,200,104978,1,0,0:0:0
336,96,105128,5,10,0:0:0
352,96,105203,1,8,0:0:0
368,96,105278,1,8,0:0:0
384,96,105353,1,8,0:0:0
400,96,105428,1,10,0:0:0
472,144,105578,1,2,0:0:0
472,144,105728,1,4,0:0:0
464,312,106028,5,8,0:0:0
384,336,106178,1,0,0:0:0
408,256,106328,2,0,B|360:240|320:288,1,95
296,360,106628,2,0,B|216:304|112:352,1,190,8|0,0:0|0:0,0:0:0
48,304,107078,1,0,0:0:0
80,224,107228,1,8,0:0:0
160,248,107378,1,0,0:0:0
144,168,107528,2,0,B|112:72|200:16|256:48,1,190,0|8,0:0|0:0,0:0:0
432,32,108128,5,0,0:0:0
488,96,108278,1,0,0:0:0
400,112,108428,2,0,B|408:168|464:184,1,95,8|0,0:0|0:0,0:0:0
480,264,108728,2,0,B|408:336|296:320,1,190,0|8,0:0|0:0,0:0:0
320,152,109328,1,0,0:0:0
256,72,109478,1,0,0:0:0
192,152,109628,1,8,0:0:0
336,72,109778,1,0,0:0:0
176,72,109928,1,0,0:0:0
256,304,110228,1,8,0:0:0
424,296,110528,6,0,B|480:192|392:128,2,190,0|8|0,0:0|0:0|0:0,0:0:0
352,248,111278,1,0,0:0:0
280,296,111428,1,8,0:0:0
88,296,111728,6,0,B|32:192|120:128,1,190,0|8,0:0|0:0,0:0:0
176,192,112178,1,2,0:0:0
200,112,112328,1,0,0:0:0
256,176,112478,1,2,0:0:0
312,112,112628,2,0,B|392:56|464:104|464:168,1,190,8|0,0:0|0:0,0:0:0
328,320,113228,5,8,0:0:0
256,272,113378,1,0,0:0:0
176,320,113528,2,0,B|72:312|40:200,1,190,0|8,0:0|0:0,0:0:0
96,40,114128,1,0,0:0:0
176,128,114278,1,0,0:0:0
248,40,114428,1,8,0:0:0
320,128,114578,1,0,0:0:0
248,216,114728,1,0,0:0:0
248,216,114803,1,0,0:0:0
248,216,114878,1,0,0:0:0
248,216,114953,1,0,0:0:0
248,216,115028,1,0,0:0:0
248,216,115103,1,0,0:0:0
248,216,115178,1,0,0:0:0
248,216,115253,1,0,0:0:0
248,216,115328,1,4,0:0:0
