osu file format v10

[General]
AudioFilename: Take off and Gala - Rabiesx86.mp3
AudioLeadIn: 0
PreviewTime: 57718
Countdown: 1
SampleSet: Soft
StackLeniency: 0.7
Mode: 0
LetterboxInBreaks: 1

[Editor]
Bookmarks: 4918,19393,25093,38518,43693,76918
DistanceSpacing: 0.9
BeatDivisor: 2
GridSize: 8

[Metadata]
Title:Take off and Gala (PonyDub)
TitleUnicode:Take off and Gala (PonyDub)
Artist:Rabies Bun
ArtistUnicode:Rabies Bun
Creator:ztrot
Version:Easy
Source:
Tags:Kitsune^2 Shiro Odaril
BeatmapID:186064
BeatmapSetID:62320

[Difficulty]
HPDrainRate:2
CircleSize:3
OverallDifficulty:3
ApproachRate:4
SliderMultiplier:1
SliderTickRate:2

[Events]
//Background and Video events
0,0,"Fluttershy-at-the-gala-1-.jpg"
//Break Periods
2,57928,66008
//Storyboard Layer 0 (Background)
//Storyboard Layer 1 (Fail)
//Storyboard Layer 2 (Pass)
//Storyboard Layer 3 (Foreground)
//Storyboard Sound Samples
//Background Colour Transformations
3,100,163,162,255

[TimingPoints]
128,300,4,2,0,100,1,0
9718,-100,4,2,1,100,0,0
96128,-100,4,2,1,100,0,1
115328,-100,4,2,1,100,0,0

[Colours]
Combo1 : 255,255,128
Combo2 : 121,121,255
Combo3 : 0,176,176
Combo4 : 255,191,223

[HitObjects]
192,64,4928,2,0,P|136:128|176:232,1,200,2|0,0:0|0:0,0:0:0
320,64,6128,2,0,P|376:128|336:232,1,200,2|0,0:0|0:0,0:0:0
168,312,7328,6,0,P|256:352|344:304,2,200,2|0|2,0:0|0:0|0:0,0:0:0
256,152,9128,1,0,0:0:0
257,314,9728,6,0,P|432:314|432:128,1,400,2|2,0:0|0:0,0:0:0
371,176,11228,2,0,P|368:266|292:226,1,200,2|8,0:0|0:0,0:0:0
255,314,12128,6,0,P|80:314|80:128,1,400,2|2,0:0|0:0,0:0:0
141,176,13628,2,0,P|144:266|220:226,1,200,2|8,0:0|0:0,0:0:0
280,168,14528,6,0,P|360:136|296:72,2,200,2|0|2,0:0|0:0|0:0,0:0:0
128,72,16328,1,0,0:0:0
168,248,16928,5,2,0:0:0
352,248,17528,2,0,P|440:224|432:128,1,200,0|2,0:0|0:0,0:0:0
256,112,18728,1,0,0:0:0
96,192,19328,6,0,P|136:320|280:304,1,300,4|10,0:0|0:0,0:0:0
208,248,20528,2,0,P|336:232|338:373,1,300,0|10,0:0|0:0,0:0:0
280,304,21728,6,0,P|160:328|136:184,1,300,0|10,0:0|0:0,0:0:0
80,112,22928,2,0,P|128:48|208:32,2,150,0|0|2,0:0|0:0|0:0,0:0:0
32,192,24128,6,0,P|168:232|304:160,1,300,0|10,0:0|0:0,0:0:0
327,249,25328,2,0,P|218:302|41:289,1,300,0|10,0:0|0:0,0:0:0
48,200,26528,5,0,0:0:0
48,200,26828,1,8,0:0:0
184,80,27428,1,8,0:0:0
256,136,27728,1,0,0:0:0
328,80,28028,2,0,P|400:152|424:248,1,200,8|8,0:0|0:0,0:0:0
336,240,28928,6,0,P|280:312|192:264,1,200,0|0,0:0|3:0,0:0:0
136,208,29828,1,8,0:0:0
200,144,30128,2,0,P|112:120|48:208,1,200,0|0,3:0|0:0,0:0:0
48,288,31028,1,8,0:0:0
128,328,31328,6,0,P|232:344|304:288,2,200,0|0|0,3:0|0:0|3:0,0:0:0
192,208,32978,1,0,3:0:0
320,160,33428,1,0,0:0:0
376,232,33728,6,0,P|480:232,2,100,0|8|0,0:0|0:0|0:0,0:0:0
408,144,34628,1,8,0:0:0
320,144,34928,2,0,P|264:184|184:152,2,150,0|0|0,3:0|0:0|3:0,0:0:0
256,192,36128,12,4,37928,0:0:0
256,352,38528,5,0,0:0:0
256,352,38828,2,0,P|208:360|152:336,1,100
64,192,39728,2,0,P|64:304,1,100,0|8,0:0|0:0,0:0:0
152,288,40328,2,0,P|152:176,1,100,0|8,0:0|0:0,0:0:0
256,32,41228,6,0,P|304:24|360:48,1,100
448,192,42128,2,0,P|448:80,1,100,0|8,0:0|0:0,0:0:0
360,96,42728,2,0,P|360:208,1,100,0|8,0:0|0:0,0:0:0
96,192,43628,6,0,P|88:240|112:296,1,100
280,336,44528,2,0,P|168:336,1,100,0|8,0:0|0:0,0:0:0
216,256,45128,2,0,P|328:256,1,100,0|8,0:0|0:0,0:0:0
464,160,46028,6,0,P|472:112|448:56,1,100
280,120,46928,2,0,P|392:120,1,100,0|8,0:0|0:0,0:0:0
344,40,47528,2,0,P|232:40,1,100,0|8,0:0|0:0,0:0:0
72,96,48428,5,2,0:0:0
72,184,48728,1,0,0:0:0
72,272,49028,1,10,0:0:0
256,328,49628,5,2,0:0:0
208,248,49928,1,0,0:0:0
304,248,50228,1,10,0:0:0
440,96,50828,5,2,0:0:0
440,184,51128,1,0,0:0:0
440,272,51428,1,10,0:0:0
304,152,52028,6,0,P|192:152,2,100,2|0|10,0:0|0:0|0:0,0:0:0
256,328,53228,5,2,0:0:0
256,328,53528,1,0,0:0:0
256,328,53828,1,10,0:0:0
72,272,54428,5,2,0:0:0
72,184,54728,1,0,0:0:0
72,96,55028,1,10,0:0:0
256,192,55628,12,4,57728,0:0:0
150,344,67328,6,0,P|24:264|32:125,1,300,0|8,0:0|0:0,0:0:0
88,192,68528,2,0,P|134:263|173:135,1,300,0|8,0:0|0:0,0:0:0
336,136,69728,2,0,P|377:263|424:192,1,300,0|8,0:0|0:0,0:0:0
481,127,70928,2,0,P|488:264|362:344,1,300,0|8,0:0|0:0,0:0:0
312,272,72128,6,0,P|194:259|307:201,1,300,0|8,0:0|0:0,0:0:0
256,96,73328,2,0,P|148:147|131:311,1,300,0|8,0:0|0:0,0:0:0
48,344,74528,1,0,0:0:0
40,176,75128,5,0,0:0:0
136,24,75728,1,0,0:0:0
224,184,76328,1,0,0:0:0
320,320,76928,6,0,P|376:256|336:152,1,200,4|0,0:0|0:0,0:0:0
192,320,78128,2,0,P|136:256|176:152,1,200
344,72,79328,6,0,P|256:32|168:80,2,200
256,232,81128,1,0,0:0:0
96,304,81728,6,0,P|128:200|80:112,1,200
256,48,82928,2,0,P|328:72|384:176,1,200
256,304,84128,5,0,0:0:0
432,328,84728,1,0,0:0:0
456,152,85328,1,0,0:0:0
456,152,85928,1,0,0:0:0
255,70,86528,6,0,P|80:70|80:256,1,400,4|0,0:0|0:0,0:0:0
141,208,88028,2,0,P|144:118|220:158,1,200,10|2,0:0|0:0,0:0:0
257,70,88928,6,0,P|432:70|432:256,1,400
371,208,90428,2,0,P|368:118|292:158,1,200,2|10,0:0|0:0,0:0:0
232,216,91328,6,0,P|152:248|216:312,2,200
384,312,93128,1,0,0:0:0
344,136,93728,5,0,0:0:0
160,136,94328,2,0,P|72:160|80:256,1,200
256,272,95528,1,0,0:0:0
160,120,96128,1,4,0:0:0
64,80,96428,6,0,P|32:184,2,100,2|0|10,0:0|0:0|0:0,0:0:0
256,64,97628,2,0,P|256:168,2,100,2|0|10,0:0|0:0|0:0,0:0:0
448,80,98828,2,0,P|480:184,2,100,2|0|10,0:0|0:0|0:0,0:0:0
312,200,100028,5,2,0:0:0
256,272,100328,1,0,0:0:0
200,200,100628,1,10,0:0:0
96,56,101228,5,2,0:0:0
96,144,101528,1,0,0:0:0
96,232,101828,1,8,0:0:0
256,152,102428,5,2,0:0:0
256,152,102728,1,0,0:0:0
256,152,103028,1,10,0:0:0
416,232,103628,5,2,0:0:0
416,144,103928,1,0,0:0:0
416,56,104228,1,10,0:0:0
256,136,104828,5,8,0:0:0
192,192,105128,1,0,0:0:0
128,136,105428,1,10,0:0:0
150,40,105728,6,0,P|24:120|32:259,1,300,0|8,0:0|0:0,0:0:0
88,192,106928,2,0,P|134:120|173:248,1,300,0|8,0:0|0:0,0:0:0
336,247,108128,2,0,P|377:120|424:192,1,300,0|8,0:0|0:0,0:0:0
481,256,109328,2,0,P|488:120|362:40,1,300,0|8,0:0|0:0,0:0:0
312,112,110528,6,0,P|194:125|307:183,1,300,0|10,0:0|0:0,0:0:0
253,286,111728,2,0,P|149:236|138:65,1,300,0|10,0:0|0:0,0:0:0
39,58,112928,1,0,0:0:0
256,192,113228,12,4,115328,0:0:0
