osu file format v14

[General]
AudioFilename: Pony Vibes [PonyDub Collab].mp3
AudioLeadIn: 0
PreviewTime: 15327
Countdown: 0
SampleSet: Normal
StackLeniency: 0.7
Mode: 0
LetterboxInBreaks: 0
WidescreenStoryboard: 1

[Editor]
DistanceSpacing: 1.2
BeatDivisor: 6
GridSize: 4
TimelineZoom: 1

[Metadata]
Title:Pony Vibes [PonyDub Collab]
TitleUnicode:Pony Vibes [PonyDub Collab]
Artist:Rabies Bun
ArtistUnicode:Rabies Bun
Creator:Fluttershy552
Version:Easy
Source:
Tags:mlp fim Niko-nyan koopa712
BeatmapID:570410
BeatmapSetID:247857

[Difficulty]
HPDrainRate:3
CircleSize:4
OverallDifficulty:4
ApproachRate:4
SliderMultiplier:0.9
SliderTickRate:2

[Events]
//Background and Video events
0,0,"BG.jpg",0,0
//Break Periods
2,45756,52094
//Storyboard Layer 0 (Background)
//Storyboard Layer 1 (Fail)
//Storyboard Layer 2 (Pass)
//Storyboard Layer 3 (Foreground)
//Storyboard Sound Samples

[TimingPoints]
90,476.190476190476,4,2,0,100,1,0
7708,-100,4,1,0,100,0,0
8660,-100,4,2,0,100,0,0
15327,-100,4,1,0,100,0,0
45803,-100,4,1,0,100,0,0
53413,-100,4,1,0,100,0,1
61041,-100,4,1,0,100,0,0

[Colours]
Combo1 : 0,255,0
Combo2 : 255,255,0
Combo3 : 255,0,128
Combo4 : 128,0,255

[HitObjects]
356,260,79,5,0,0:0:0:0:
140,256,1032,1,0,0:0:0:0:
128,40,1985,2,2,B|152:-16|328:48|384:32,1,255
392,128,3810,2,2,B|396:276|244:-40|196:296|136:152,1,315
104,140,5635,2,2,B|80:72|80:72|80:72,2,60,2|0|2,0:0|0:0|0:0,0:0:0:0:
168,112,6587,2,0,B|232:220|208:-28|328:236|340:100,1,210,8|4,0:0|0:0,0:0:0:0:
380,304,8572,5,2,0:0:0:0:
332,280,8810,1,2,0:0:0:0:
280,292,9048,2,0,P|200:296|196:284,1,105,8|0,0:0|0:0,0:0:0:0:
184,236,9851,2,0,P|176:196|164:184,1,45
100,124,10476,5,8,0:0:0:0:
120,72,10714,2,0,P|204:60|276:88,1,150,8|4,0:0|0:0,0:0:0:0:
256,192,11985,12,4,15319,0:0:0:0:
224,200,16111,5,8,0:0:0:0:
136,196,16587,2,0,P|132:136|180:88,1,120
212,60,17461,1,0,0:0:0:0:
252,96,17700,2,0,B|256:268|72:268|84:316,1,270,8|0,0:0|0:0,0:0:0:0:
60,260,19366,1,0,0:0:0:0:
64,208,19604,2,0,L|112:152,1,60,8|0,0:0|0:0,0:0:0:0:
148,64,20397,2,0,P|192:56|224:72,1,75
364,236,21033,6,0,P|268:228|232:296,1,180,8|0,0:0|0:0,0:0:0:0:
180,308,22223,1,0,0:0:0:0:
128,300,22460,2,0,P|112:256|116:208,1,90
168,212,23176,1,0,0:0:0:0:
212,180,23414,2,0,B|216:84|168:44|72:52,1,225,8|0,0:0|0:0,0:0:0:0:
60,88,24842,5,0,0:0:0:0:
64,140,25080,2,8,B|52:168|72:228|108:216,1,105,8|0,0:0|0:0,0:0:0:0:
148,184,25795,2,2,P|196:72|264:60,1,180,2|6,0:0|0:0,0:0:0:0:
296,80,26994,2,0,P|320:112|312:152,1,75
284,228,27778,5,0,0:0:0:0:
244,264,28016,2,0,P|224:308|152:316,1,120
116,284,28890,2,0,P|124:236|164:196,1,105
220,140,29762,2,0,P|176:120|184:24,1,150,0|4,0:0|0:0,0:0:0:0:
228,52,30795,5,0,0:0:0:0:
280,64,31033,1,8,0:0:0:0:
328,120,31359,2,0,P|392:140|424:216,1,150
424,300,32461,5,0,0:0:0:0:
372,296,32700,2,0,P|312:272|304:216,1,120,0|2,0:0|0:0,0:0:0:0:
272,140,33572,1,2,0:0:0:0:
268,84,33820,2,0,P|228:64|172:68,1,90
112,208,35000,1,2,0:0:0:0:
164,212,35238,1,2,0:0:0:0:
216,212,35476,2,0,P|304:164|316:96,1,135,2|0,0:0|0:0,0:0:0:0:
328,256,36746,1,0,0:0:0:0:
300,360,37222,1,0,0:0:0:0:
192,352,37699,5,2,0:0:0:0:
140,340,37938,1,8,0:0:0:0:
128,284,38185,6,0,B|172:240|172:240|232:220|232:220|240:156|240:156|296:120|296:120|292:56|292:56|292:56,1,315
388,108,40319,1,8,0:0:0:0:
404,160,40557,1,2,0:0:0:0:
344,252,41042,2,0,P|296:272|172:240,1,180
196,196,42223,1,0,0:0:0:0:
284,152,42461,1,0,0:0:0:0:
104,96,43890,5,0,0:0:0:0:
104,160,44128,1,8,0:0:0:0:
104,224,44366,1,8,0:0:0:0:
156,224,44683,2,2,P|248:176|304:208,1,165,0|6,0:0|0:0,0:0:0:0:
252,200,53414,5,4,0:0:0:0:
256,144,53661,2,0,P|224:108|148:144,1,135
116,196,54693,2,0,P|272:312|416:120,1,480
372,100,57461,1,0,0:0:0:0:
320,84,57709,2,0,B|260:76|260:76|188:108|188:108|116:80|116:80|64:104,1,270
84,152,59375,2,0,P|148:212|324:116,1,315
