osu file format v5

[General]
AudioFilename: RYTHEM - Houki Gumo.mp3
AudioLeadIn: 1000
PreviewTime: 57348
Countdown: 1
SampleSet: Soft
StackLeniency: 0.7
Mode: 0
LetterboxInBreaks: 1

[Editor]
DistanceSpacing: 0.899999976158142
BeatDivisor: 4
GridSize: 8

[Metadata]
Title:Houki Gumo
Artist:RYTHEM
Creator:kioukiou
Version:Normal
Source:Yakitate!! Japan
Tags:Yakitate Japan Anime J-Pop RYTHEM ccbp

[Difficulty]
HPDrainRate:3
CircleSize:4
OverallDifficulty:4
SliderMultiplier:1.4
SliderTickRate:1

[Events]
//Background and Video events
0,0,"Yakitate_Japan.jpg"
//Break Periods
2,105375,112216
//Storyboard Layer 0 (Background)
//Storyboard Layer 1 (Fail)
//Storyboard Layer 2 (Pass)
//Storyboard Layer 3 (Foreground)
//Storyboard Sound Samples
//Background Colour Transformations
3,100,163,162,255

[TimingPoints]
422,491.803278688525,4,2,1,70,1,0

[Colours]
Combo1 : 255,255,255
Combo2 : 250,172,202
Combo3 : 143,143,250
Combo4 : 240,5,5

[HitObjects]
168,72,1405,1,4
256,160,1897,1,2
344,72,2389,2,0,B|440:72,2,70,0|0|2
344,200,3372,5,0
256,288,3864,1,2
168,200,4356,2,0,B|96:200,2,70,0|0|2
224,88,5340,6,0,B|296:56|376:96,2,140,0|2|0
304,200,6815,2,0,B|232:232|152:192,2,140,2|0|2
432,200,8290,5,4
432,200,8782,1,4
432,200,9274,1,4
352,104,9766,5,2
352,104,10012,2,0,B|288:64|208:104,1,140
216,160,10749,1,2
216,160,10995,2,0,B|152:200|72:160,1,140
80,104,11733,2,0,B|80:16,2,70,2|0|0
80,232,12717,5,2
160,328,13208,1,0
240,232,13700,1,2
160,136,14192,2,0,B|232:104|304:136,1,140,0|2
296,72,14930,1,0
296,72,15176,2,0,B|296:224,2,140,0|2|0
360,72,16405,1,0
360,72,16651,1,2
440,168,17143,1,4
360,264,17635,5,2
360,264,17881,2,0,B|360:344,2,70
304,232,18618,1,2
304,232,18864,2,0,B|304:72,1,140
240,72,19602,2,0,B|240:224,1,140,2|0
184,232,20340,5,0
184,232,20585,2,0,B|184:312,2,70,2|0|0
96,144,21569,1,2
8,232,22061,1,0
96,320,22553,1,2
224,320,23044,2,0,B|280:248|208:168,1,140,0|2
160,192,23782,1,0
160,192,24028,2,0,B|320:192,2,140,0|2|4
104,80,25503,5,2
104,80,25749,2,0,B|24:80,2,70
168,80,26487,2,0,B|241:38|312:88,2,140,2|0|2
168,144,27717,1,0
168,208,27962,2,0,B|95:250|24:200,2,140,0|2|0
296,208,29438,5,2
352,240,29684,1,0
408,208,29930,1,0
352,96,30422,1,2
296,64,30667,1,0
240,96,30913,2,0,B|168:80|96:96,2,140,0|2|2
240,160,32143,1,2
240,160,32389,2,0,B|176:224,2,70,2|2|4
368,160,33372,5,2
432,48,33864,2,0,B|368:-8|296:56,2,140,0|2|0
368,160,35340,1,2
312,272,35831,2,0,B|376:328|448:264,2,140,0|2|0
184,272,37307,5,2
120,160,37799,2,0,B|64:104,2,70,0|0|2
184,160,38536,1,0
248,160,38782,2,0,B|304:104,2,70,0|0|2
184,160,39520,1,0
184,160,39766,2,0,B|184:16,1,140,4|4
288,88,40749,5,0
288,216,41241,1,2
288,216,41487,2,0,B|288:264|240:304|184:320|120:296|96:264|88:200,1,280
88,152,42717,5,0
216,152,43208,1,2
216,152,43454,2,0,B|222:104|246:72|310:48|369:72|414:104|417:168,1,280
416,216,44684,5,0
328,304,45176,1,2
232,216,45667,1,0
328,136,46159,1,0
232,48,46651,1,0
136,136,47143,1,2
136,136,47635,2,0,B|56:136,2,70,0|2|2
192,240,48618,6,0,B|264:280|336:232,2,140,4|2|0
192,176,49848,1,0
192,112,50094,2,0,B|120:72|48:120,2,140,0|0|2
256,112,51323,1,0
320,288,52061,6,0,B|400:288,2,70,0|0|2
192,288,53044,6,0,B|112:288,2,70,0|0|2
208,160,54028,6,0,B|120:152|104:56,2,140,0|2|2
256,192,55258,1,0
304,160,55503,2,0,B|392:152|408:56,2,140,2|2|4
304,288,57471,5,0
304,288,57717,2,0,B|384:288,2,70,2|2|2
256,328,58454,2,0,B|184:360|96:320,1,140,4|2
72,288,59192,1,0
120,248,59438,2,0,B|192:216|280:256,2,140,0|2|0
112,120,60913,6,0,B|40:120|0:32,2,140,2|0|2
240,128,62389,2,0,B|312:128|352:216,2,140,0|2|0
200,176,63618,1,0
200,176,63864,2,0,B|200:256,2,70,2|0|0
152,128,64602,1,0
152,128,64848,2,0,B|72:128,2,70,2|0|2
280,128,65831,1,2
344,232,66323,5,4
216,232,66815,1,2
88,232,67307,2,0,B|24:296,2,70,0|2|2
152,120,68290,5,0
280,120,68782,1,2
408,120,69274,2,0,B|472:56,2,70,0|2|2
344,232,70258,6,0,B|344:328|256:352,2,140,0|2|0
216,224,71733,1,2
88,208,72225,1,0
104,144,72471,1,2
156,96,72717,1,2
280,96,73208,6,0,B|336:40,2,70,0|0|2
280,160,73946,1,2
280,160,74192,2,0,B|352:200|440:144,2,140,4|2|0
152,160,75667,1,2
152,160,75913,1,0
152,160,76159,1,0
152,288,76651,6,0,B|72:288,2,70,2|0|0
280,288,77635,1,2
408,280,78126,2,0,B|488:280|512:192,2,140,0|2|0
360,232,79356,1,0
312,184,79602,2,0,B|232:184|208:272,2,140,2|0|2
416,112,81077,1,0
416,112,81323,1,0
416,112,81569,1,2
296,80,82061,5,4
176,112,82553,1,2
88,208,83044,1,0
88,336,83536,1,2
192,272,84028,2,0,B|264:304|344:264,2,140,4|4|4
192,208,85258,1,2
192,208,85503,1,2
256,96,85995,5,0
336,192,86487,1,2
256,288,86979,1,0
176,192,87471,1,2
256,192,87717,12,4,89930
408,96,90421,5,2
408,96,90667,2,0,B|464:40,2,70
400,160,91405,2,0,B|400:256|320:280,1,140,2|0
272,280,92143,1,0
207,279,92389,2,0,B|143:261|143:165,1,140,2|0
272,160,93372,5,2
272,32,93864,1,0
168,104,94356,2,0,B|88:104|48:32,2,140,2|0|2
168,168,95585,1,0
168,232,95831,2,0,B|88:232|48:304,2,140,0|2|0
168,168,97061,1,0
168,168,97307,2,0,B|72:168,2,70,2|0|4
296,160,98290,5,2
232,56,98782,2,0,B|300:21|372:61,2,140,0|2|0
296,160,100258,1,2
360,272,100749,2,0,B|292:307|220:267,2,140,0|2|0
424,160,102225,5,2
296,160,102717,2,0,B|232:96,2,70,0|0|2
360,272,103700,1,0
360,272,104192,2,0,B|288:304|208:264,2,140,0|4|4
360,144,113536,5,4
232,144,114028,1,2
232,144,114274,2,0,B|168:160|112:256|168:336|232:360,1,280
288,360,115503,5,0
288,232,115995,1,2
288,232,116241,2,0,B|336:216|336:128|280:120,1,140
256,176,116979,6,0,B|160:176,2,70,0|0|2
384,176,117962,6,0,B|464:176,2,70,0|0|2
264,224,118946,6,0,B|320:296|248:368,1,140,0|2
152,288,119930,1,2
40,352,120421,2,0,B|-16:280|56:208,1,140,2|2
152,288,121405,1,4
400,288,122389,5,0
400,288,122635,2,0,B|456:344,2,70,2|2|2
336,288,123372,2,0,B|264:320|192:288,2,140,4|2|0
336,224,124602,1,0
336,224,124848,2,0,B|336:136,2,70,2|0|0
208,224,125831,6,0,L|120:224|80:184,2,140,2|0|2
248,176,127061,1,0
288,128,127307,2,0,L|376:128|416:168,2,140,0|2|0
160,128,128782,5,2
64,208,129274,1,0
160,288,129766,1,2
256,208,130258,2,0,L|336:208,2,70,2|2|2
144,256,131241,6,0,B|96:192|152:120,2,140,4|2|0
208,256,132471,1,2
272,256,132717,1,2
336,128,133208,6,0,B|384:192|328:264,2,140,0|2|0
272,128,134438,1,2
208,128,134684,1,2
183,247,135176,5,0
274,337,135667,1,2
364,247,136159,1,0
274,156,136651,1,2
274,156,137143,2,0,B|274:67,2,70,0|0|2
160,96,138126,5,0
160,96,138618,2,0,B|104:168|176:240,2,140,2|4|2
287,96,140094,1,0
287,96,140585,2,0,B|345:152|289:224,2,140,2|0|2
160,96,142061,6,0,B|160:16,2,70,0|0|2
64,184,143044,1,0
160,264,143536,2,0,B|160:344,2,70,2|0|0
208,224,144274,1,0
256,184,144520,2,0,B|256:88,2,70,2|0|0
304,224,145258,1,0
352,264,145503,2,2,B|352:344,2,70,0|0|2
352,136,146487,1,2
224,128,146979,6,0,B|152:96|72:136,2,140,4|2|0
152,232,148454,1,2
88,344,148946,2,0,B|160:376|240:336,2,140,4|4|4
88,280,150176,1,2
88,280,150422,1,2
88,152,150913,5,0
168,56,151405,1,2
248,152,151897,2,0,B|248:240,2,70,0|0|2
256,192,152635,12,4,154848
