osu file format v14

[General]
AudioFilename: Song.mp3
AudioLeadIn: 0
PreviewTime: 42490
Countdown: 0
SampleSet: Normal
StackLeniency: 0.6
Mode: 1
LetterboxInBreaks: 0
WidescreenStoryboard: 0

[Editor]
Bookmarks: 2621,12726,22831,32936,37436,42488,52593,62699,72804,82909,94278,104383,111962,112911,115753
DistanceSpacing: 0.5
BeatDivisor: 6
GridSize: 32
TimelineZoom: 2

[Metadata]
Title:Shuffle Heaven
TitleUnicode:Shuffle Heaven
Artist:RYO
ArtistUnicode:RYO
Creator:Nwolf
Version:Oni
Source:O2Jam
Tags:bms Ludwig van Beethoven Moonlight Sonata
BeatmapID:461061
BeatmapSetID:194109

[Difficulty]
HPDrainRate:5.5
CircleSize:4
OverallDifficulty:5
ApproachRate:8
SliderMultiplier:1.4
SliderTickRate:1

[Events]
//Background and Video events
0,0,"Heaven.jpg",0,0
//Break Periods
//Storyboard Layer 0 (Background)
//Storyboard Layer 1 (Fail)
//Storyboard Layer 2 (Pass)
//Storyboard Layer 3 (Foreground)
//Storyboard Sound Samples

[TimingPoints]
2634,315.789473684211,4,1,0,45,1,0
12739,-100,4,1,0,55,0,0
23318,-117.647058823529,4,1,0,30,0,0
32949,-111.111111111111,4,1,0,45,0,0
35476,-111.111111111111,7,1,0,55,0,0
37438,315.789473684211,4,1,0,65,1,0
42490,-100,4,1,0,85,0,1
62701,-100,4,1,0,85,0,0
72806,-100,4,1,0,55,0,0
82911,-100,4,1,0,65,0,0
94280,-100,4,1,0,85,0,1
111964,-100,4,1,0,75,0,0

[Colours]
Combo1 : 48,176,192
Combo2 : 248,72,40

[HitObjects]
288,160,2634,5,8,0:0:0:0:
224,160,2949,1,0,0:0:0:0:
288,160,3107,1,8,0:0:0:0:
224,160,3423,1,0,0:0:0:0:
288,160,3581,1,8,0:0:0:0:
288,160,3897,1,8,0:0:0:0:
224,160,4212,1,0,0:0:0:0:
288,160,4370,1,8,0:0:0:0:
224,160,4686,1,0,0:0:0:0:
288,160,4844,1,8,0:0:0:0:
288,160,5160,1,8,0:0:0:0:
224,160,5476,1,0,0:0:0:0:
288,160,5634,1,8,0:0:0:0:
224,160,5949,1,0,0:0:0:0:
288,160,6107,1,8,0:0:0:0:
288,160,6423,1,8,0:0:0:0:
224,160,6739,1,0,0:0:0:0:
288,160,6897,1,8,0:0:0:0:
224,160,7212,1,0,0:0:0:0:
288,160,7370,1,8,0:0:0:0:
288,160,7686,1,8,0:0:0:0:
224,160,8002,1,0,0:0:0:0:
288,160,8160,1,8,0:0:0:0:
224,160,8476,1,0,0:0:0:0:
288,160,8634,1,8,0:0:0:0:
288,160,8949,1,8,0:0:0:0:
224,160,9265,1,0,0:0:0:0:
288,160,9423,1,8,0:0:0:0:
224,160,9739,1,0,0:0:0:0:
288,160,9897,1,8,0:0:0:0:
288,160,10212,1,8,0:0:0:0:
224,160,10528,1,0,0:0:0:0:
288,160,10686,1,8,0:0:0:0:
224,160,11002,1,0,0:0:0:0:
288,160,11160,1,8,0:0:0:0:
288,160,11476,1,8,0:0:0:0:
224,160,11634,1,0,0:0:0:0:
224,160,11791,1,0,0:0:0:0:
288,160,11949,1,8,0:0:0:0:
224,160,12265,1,0,0:0:0:0:
288,160,12423,1,8,0:0:0:0:
288,224,12739,1,12,0:0:0:0:
224,160,12897,1,0,0:0:0:0:
224,160,12976,1,0,0:0:0:0:
288,160,13055,1,8,0:0:0:0:
224,160,13370,1,0,0:0:0:0:
224,160,13528,1,0,0:0:0:0:
224,160,13607,1,0,0:0:0:0:
288,160,13686,1,8,0:0:0:0:
224,160,14002,1,0,0:0:0:0:
224,160,14160,1,0,0:0:0:0:
224,160,14239,1,0,0:0:0:0:
288,160,14318,1,8,0:0:0:0:
288,160,14634,1,8,0:0:0:0:
224,160,14791,1,0,0:0:0:0:
288,224,14949,1,12,0:0:0:0:
288,224,15107,1,12,0:0:0:0:
224,160,15423,1,0,0:0:0:0:
224,160,15502,1,0,0:0:0:0:
288,160,15581,1,8,0:0:0:0:
224,160,15897,1,0,0:0:0:0:
224,160,16055,1,0,0:0:0:0:
224,160,16134,1,0,0:0:0:0:
288,160,16212,1,8,0:0:0:0:
224,160,16528,1,0,0:0:0:0:
224,160,16686,1,0,0:0:0:0:
224,160,16765,1,0,0:0:0:0:
288,160,16844,1,8,0:0:0:0:
288,160,17160,1,8,0:0:0:0:
224,160,17318,1,0,0:0:0:0:
288,224,17476,1,12,0:0:0:0:
288,224,17634,1,12,0:0:0:0:
224,160,17949,1,0,0:0:0:0:
224,160,18028,1,0,0:0:0:0:
288,160,18107,1,8,0:0:0:0:
224,160,18423,1,0,0:0:0:0:
224,160,18581,1,0,0:0:0:0:
224,160,18660,1,0,0:0:0:0:
288,160,18739,1,8,0:0:0:0:
224,160,19055,1,0,0:0:0:0:
224,160,19212,1,0,0:0:0:0:
224,160,19291,1,0,0:0:0:0:
288,160,19370,1,8,0:0:0:0:
288,160,19686,1,8,0:0:0:0:
224,160,19844,1,0,0:0:0:0:
288,224,20002,1,12,0:0:0:0:
288,224,20160,1,12,0:0:0:0:
224,160,20476,1,0,0:0:0:0:
224,160,20555,1,0,0:0:0:0:
288,160,20634,1,8,0:0:0:0:
288,160,20949,1,8,0:0:0:0:
224,160,21107,1,0,0:0:0:0:
288,224,21265,1,12,0:0:0:0:
288,224,21423,1,12,0:0:0:0:
224,160,21739,1,0,0:0:0:0:
224,160,21818,1,0,0:0:0:0:
288,160,21897,1,8,0:0:0:0:
288,160,22212,1,8,0:0:0:0:
224,160,22370,1,0,0:0:0:0:
288,224,22528,1,12,0:0:0:0:
224,224,22686,1,4,0:0:0:0:
288,224,23002,1,12,0:0:0:0:
288,160,23476,1,8,0:0:0:0:
288,160,23791,1,8,0:0:0:0:
288,160,24107,1,8,0:0:0:0:
288,160,24739,1,8,0:0:0:0:
288,160,25055,1,8,0:0:0:0:
288,160,25370,1,8,0:0:0:0:
224,160,25528,1,0,0:0:0:0:
224,160,25844,1,0,0:0:0:0:
288,160,26002,1,8,0:0:0:0:
288,160,26318,1,8,0:0:0:0:
288,160,26634,1,8,0:0:0:0:
288,160,27265,1,8,0:0:0:0:
288,160,27581,1,8,0:0:0:0:
288,160,27897,1,8,0:0:0:0:
224,224,28055,1,4,0:0:0:0:
288,160,28528,1,8,0:0:0:0:
288,160,28844,1,8,0:0:0:0:
288,160,29160,1,8,0:0:0:0:
288,160,29791,1,8,0:0:0:0:
288,160,30107,1,8,0:0:0:0:
288,160,30423,1,8,0:0:0:0:
224,160,30581,1,0,0:0:0:0:
224,160,30897,1,0,0:0:0:0:
288,160,31055,1,8,0:0:0:0:
288,160,31370,1,8,0:0:0:0:
288,160,31686,1,8,0:0:0:0:
288,160,32002,1,8,0:0:0:0:
288,160,32081,1,8,0:0:0:0:
288,160,32160,1,8,0:0:0:0:
288,160,32239,1,8,0:0:0:0:
288,160,32318,1,8,0:0:0:0:
288,160,32634,1,8,0:0:0:0:
288,160,32949,1,8,0:0:0:0:
224,160,33107,1,0,0:0:0:0:
288,160,33265,1,8,0:0:0:0:
288,160,33423,1,8,0:0:0:0:
288,160,33581,1,8,0:0:0:0:
224,160,33739,1,0,0:0:0:0:
288,160,33897,1,8,0:0:0:0:
224,160,34212,1,0,0:0:0:0:
224,160,34370,1,0,0:0:0:0:
224,160,34449,1,0,0:0:0:0:
288,160,34528,1,8,0:0:0:0:
224,160,34844,1,0,0:0:0:0:
224,160,35002,1,0,0:0:0:0:
224,160,35081,1,0,0:0:0:0:
288,160,35160,1,8,0:0:0:0:
224,160,35318,1,0,0:0:0:0:
288,224,35476,1,12,0:0:0:0:
224,160,37438,1,0,0:0:0:0:
224,160,37595,1,0,0:0:0:0:
288,160,37753,1,8,0:0:0:0:
224,160,37911,1,0,0:0:0:0:
224,160,38069,1,0,0:0:0:0:
224,160,38227,1,0,0:0:0:0:
288,160,38385,1,8,0:0:0:0:
224,160,38701,1,0,0:0:0:0:
224,160,38859,1,0,0:0:0:0:
288,160,39016,1,8,0:0:0:0:
288,160,39174,1,8,0:0:0:0:
224,160,39332,1,0,0:0:0:0:
224,160,39490,1,0,0:0:0:0:
288,160,39648,1,8,0:0:0:0:
224,160,39964,1,0,0:0:0:0:
224,160,40122,1,0,0:0:0:0:
288,160,40280,1,8,0:0:0:0:
288,160,40359,1,8,0:0:0:0:
288,160,40438,1,8,0:0:0:0:
288,160,40595,1,8,0:0:0:0:
288,160,40674,1,8,0:0:0:0:
288,160,40753,1,8,0:0:0:0:
288,160,40911,1,8,0:0:0:0:
288,160,41227,1,8,0:0:0:0:
224,160,41306,1,0,0:0:0:0:
224,160,41385,1,0,0:0:0:0:
288,160,41543,1,8,0:0:0:0:
288,160,41622,1,8,0:0:0:0:
224,160,41701,1,0,0:0:0:0:
288,160,42174,1,8,0:0:0:0:
288,160,42253,1,8,0:0:0:0:
288,160,42332,1,8,0:0:0:0:
224,224,42490,5,4,0:0:0:0:
224,160,42648,1,0,0:0:0:0:
288,160,42806,1,8,0:0:0:0:
224,160,42885,1,0,0:0:0:0:
224,160,42964,1,0,0:0:0:0:
288,160,43122,1,8,0:0:0:0:
288,160,43438,1,8,0:0:0:0:
224,160,43516,1,0,0:0:0:0:
224,160,43595,1,0,0:0:0:0:
288,160,43753,1,8,0:0:0:0:
224,160,43911,1,0,0:0:0:0:
288,160,44069,1,8,0:0:0:0:
288,160,44148,1,8,0:0:0:0:
224,160,44227,1,0,0:0:0:0:
288,160,44385,1,8,0:0:0:0:
288,160,44701,1,8,0:0:0:0:
288,160,44780,1,8,0:0:0:0:
224,160,44859,1,0,0:0:0:0:
288,160,45016,1,8,0:0:0:0:
224,160,45174,1,0,0:0:0:0:
288,160,45332,1,8,0:0:0:0:
288,160,45411,1,8,0:0:0:0:
224,160,45490,1,0,0:0:0:0:
224,160,45569,1,0,0:0:0:0:
288,160,45648,1,8,0:0:0:0:
288,160,45964,1,8,0:0:0:0:
288,160,46043,1,8,0:0:0:0:
224,160,46122,1,0,0:0:0:0:
224,160,46201,1,0,0:0:0:0:
288,160,46280,1,8,0:0:0:0:
288,160,46595,1,8,0:0:0:0:
288,160,46674,1,8,0:0:0:0:
288,160,46753,1,8,0:0:0:0:
288,160,46832,1,8,0:0:0:0:
224,160,46911,1,0,0:0:0:0:
224,160,47227,1,0,0:0:0:0:
224,160,47385,1,0,0:0:0:0:
288,160,47543,1,8,0:0:0:0:
224,160,47859,1,0,0:0:0:0:
224,160,47938,1,0,0:0:0:0:
288,160,48016,1,8,0:0:0:0:
224,160,48174,1,0,0:0:0:0:
224,160,48490,1,0,0:0:0:0:
224,160,48569,1,0,0:0:0:0:
288,160,48648,1,8,0:0:0:0:
288,160,48806,1,8,0:0:0:0:
224,160,48964,1,0,0:0:0:0:
288,160,49122,1,8,0:0:0:0:
288,160,49201,1,8,0:0:0:0:
224,160,49280,1,0,0:0:0:0:
288,160,49438,1,8,0:0:0:0:
288,160,49753,1,8,0:0:0:0:
288,160,49832,1,8,0:0:0:0:
224,160,49911,1,0,0:0:0:0:
224,160,50069,1,0,0:0:0:0:
288,160,50385,1,8,0:0:0:0:
224,160,50464,1,0,0:0:0:0:
224,160,50543,1,0,0:0:0:0:
288,160,50701,1,8,0:0:0:0:
224,160,51016,1,0,0:0:0:0:
224,160,51095,1,0,0:0:0:0:
224,160,51174,1,0,0:0:0:0:
288,160,51332,1,8,0:0:0:0:
288,160,51648,1,8,0:0:0:0:
288,160,52280,1,8,0:0:0:0:
288,224,52595,1,12,0:0:0:0:
288,160,52911,1,8,0:0:0:0:
288,160,52990,1,8,0:0:0:0:
224,160,53069,1,0,0:0:0:0:
288,160,53227,1,8,0:0:0:0:
224,160,53385,1,0,0:0:0:0:
288,160,53543,1,8,0:0:0:0:
288,160,53859,1,8,0:0:0:0:
288,160,53938,1,8,0:0:0:0:
224,160,54016,1,0,0:0:0:0:
224,160,54095,1,0,0:0:0:0:
288,160,54174,1,8,0:0:0:0:
224,160,54332,1,0,0:0:0:0:
224,160,54411,1,0,0:0:0:0:
288,160,54490,1,8,0:0:0:0:
224,160,54648,1,0,0:0:0:0:
288,160,54806,1,8,0:0:0:0:
288,160,55122,1,8,0:0:0:0:
224,160,55201,1,0,0:0:0:0:
224,160,55280,1,0,0:0:0:0:
288,160,55438,1,8,0:0:0:0:
288,160,55753,1,8,0:0:0:0:
288,160,55832,1,8,0:0:0:0:
224,160,55911,1,0,0:0:0:0:
288,160,56069,1,8,0:0:0:0:
288,160,56385,1,8,0:0:0:0:
288,160,56464,1,8,0:0:0:0:
224,160,56543,1,0,0:0:0:0:
224,160,56622,1,0,0:0:0:0:
288,160,56701,1,8,0:0:0:0:
224,160,56859,1,0,0:0:0:0:
288,160,57016,1,8,0:0:0:0:
224,160,57095,1,0,0:0:0:0:
224,160,57174,1,0,0:0:0:0:
224,160,57253,1,0,0:0:0:0:
288,160,57332,1,8,0:0:0:0:
288,160,57648,1,8,0:0:0:0:
224,160,57727,1,0,0:0:0:0:
224,160,57806,1,0,0:0:0:0:
288,160,57964,1,8,0:0:0:0:
224,160,58280,1,0,0:0:0:0:
288,160,58359,1,8,0:0:0:0:
224,160,58438,1,0,0:0:0:0:
288,160,58595,1,8,0:0:0:0:
224,160,58753,1,0,0:0:0:0:
288,160,58911,1,8,0:0:0:0:
288,160,59227,1,8,0:0:0:0:
224,160,59385,1,0,0:0:0:0:
224,160,59464,1,0,0:0:0:0:
288,160,59543,1,8,0:0:0:0:
288,160,59859,1,8,0:0:0:0:
288,160,60174,1,8,0:0:0:0:
224,160,60253,1,0,0:0:0:0:
224,160,60332,1,0,0:0:0:0:
224,160,60411,1,0,0:0:0:0:
288,160,60490,1,8,0:0:0:0:
224,160,60648,1,0,0:0:0:0:
288,160,60806,1,8,0:0:0:0:
288,160,60885,1,8,0:0:0:0:
224,160,60964,1,0,0:0:0:0:
224,160,61043,1,0,0:0:0:0:
288,160,61122,1,8,0:0:0:0:
288,160,61438,1,8,0:0:0:0:
288,160,61516,1,8,0:0:0:0:
224,160,61595,1,0,0:0:0:0:
288,160,61753,1,8,0:0:0:0:
224,160,61911,1,0,0:0:0:0:
288,160,62069,1,8,0:0:0:0:
224,160,62148,1,0,0:0:0:0:
224,160,62227,1,0,0:0:0:0:
288,160,62385,1,8,0:0:0:0:
288,224,62701,5,12,0:0:0:0:
224,160,62859,1,0,0:0:0:0:
224,160,62938,1,0,0:0:0:0:
288,160,63016,1,8,0:0:0:0:
224,160,63332,1,0,0:0:0:0:
224,160,63490,1,0,0:0:0:0:
224,160,63569,1,0,0:0:0:0:
288,160,63648,1,8,0:0:0:0:
224,160,63964,1,0,0:0:0:0:
224,160,64122,1,0,0:0:0:0:
224,160,64201,1,0,0:0:0:0:
288,160,64280,1,8,0:0:0:0:
288,160,64595,1,8,0:0:0:0:
224,160,64753,1,0,0:0:0:0:
288,224,64911,1,12,0:0:0:0:
288,224,65069,1,12,0:0:0:0:
224,160,65385,1,0,0:0:0:0:
224,160,65464,1,0,0:0:0:0:
288,160,65543,1,8,0:0:0:0:
224,160,65859,1,0,0:0:0:0:
224,160,66016,1,0,0:0:0:0:
224,160,66095,1,0,0:0:0:0:
288,160,66174,1,8,0:0:0:0:
224,160,66490,1,0,0:0:0:0:
224,160,66648,1,0,0:0:0:0:
224,160,66727,1,0,0:0:0:0:
288,160,66806,1,8,0:0:0:0:
288,160,67122,1,8,0:0:0:0:
224,160,67280,1,0,0:0:0:0:
288,224,67438,1,12,0:0:0:0:
288,224,67595,1,12,0:0:0:0:
224,160,67911,1,0,0:0:0:0:
224,160,67990,1,0,0:0:0:0:
288,160,68069,1,8,0:0:0:0:
224,160,68385,1,0,0:0:0:0:
224,160,68543,1,0,0:0:0:0:
224,160,68622,1,0,0:0:0:0:
288,160,68701,1,8,0:0:0:0:
224,160,69016,1,0,0:0:0:0:
224,160,69174,1,0,0:0:0:0:
224,160,69253,1,0,0:0:0:0:
288,160,69332,1,8,0:0:0:0:
224,160,69490,1,0,0:0:0:0:
288,160,69648,1,8,0:0:0:0:
224,160,69806,1,0,0:0:0:0:
288,224,69964,1,12,0:0:0:0:
288,224,70122,1,12,0:0:0:0:
224,160,70438,1,0,0:0:0:0:
224,160,70516,1,0,0:0:0:0:
288,160,70595,1,8,0:0:0:0:
224,160,70753,1,0,0:0:0:0:
288,160,70911,1,8,0:0:0:0:
224,160,71069,1,0,0:0:0:0:
288,224,71227,1,12,0:0:0:0:
288,224,71385,1,12,0:0:0:0:
224,160,71701,1,0,0:0:0:0:
224,160,71780,1,0,0:0:0:0:
288,160,71859,1,8,0:0:0:0:
224,160,72016,1,0,0:0:0:0:
288,160,72174,1,8,0:0:0:0:
224,160,72332,1,0,0:0:0:0:
288,224,72490,1,12,0:0:0:0:
224,224,72648,1,4,0:0:0:0:
288,224,72964,1,12,0:0:0:0:
288,160,73438,1,8,0:0:0:0:
288,160,73753,1,8,0:0:0:0:
288,160,74069,1,8,0:0:0:0:
288,160,74701,1,8,0:0:0:0:
288,160,75016,1,8,0:0:0:0:
288,160,75332,1,8,0:0:0:0:
224,160,75490,1,0,0:0:0:0:
224,160,75806,1,0,0:0:0:0:
288,160,75964,1,8,0:0:0:0:
288,160,76280,1,8,0:0:0:0:
288,160,76595,1,8,0:0:0:0:
288,160,77227,1,8,0:0:0:0:
288,160,77543,1,8,0:0:0:0:
288,160,77859,1,8,0:0:0:0:
224,224,78016,1,4,0:0:0:0:
288,160,78490,1,8,0:0:0:0:
288,160,78806,1,8,0:0:0:0:
288,160,79122,1,8,0:0:0:0:
288,160,79753,1,8,0:0:0:0:
288,160,80069,1,8,0:0:0:0:
288,160,80385,1,8,0:0:0:0:
224,160,80543,1,0,0:0:0:0:
224,160,80859,1,0,0:0:0:0:
288,160,81016,1,8,0:0:0:0:
288,160,81332,1,8,0:0:0:0:
288,160,81648,1,8,0:0:0:0:
288,160,81964,1,8,0:0:0:0:
288,160,82043,1,8,0:0:0:0:
288,160,82122,1,8,0:0:0:0:
288,160,82201,1,8,0:0:0:0:
288,160,82280,1,8,0:0:0:0:
288,160,82595,1,8,0:0:0:0:
224,160,82911,1,0,0:0:0:0:
224,160,83069,1,0,0:0:0:0:
224,160,83227,1,0,0:0:0:0:
224,160,83385,1,0,0:0:0:0:
288,160,83543,1,8,0:0:0:0:
288,160,83701,1,8,0:0:0:0:
288,160,83859,1,8,0:0:0:0:
224,160,84174,1,0,0:0:0:0:
288,160,84332,1,8,0:0:0:0:
224,160,84490,1,0,0:0:0:0:
224,160,84569,1,0,0:0:0:0:
224,160,84648,1,0,0:0:0:0:
288,160,84806,1,8,0:0:0:0:
224,160,84964,1,0,0:0:0:0:
288,160,85122,1,8,0:0:0:0:
224,160,85438,1,0,0:0:0:0:
224,160,85595,1,0,0:0:0:0:
288,160,85753,1,8,0:0:0:0:
224,160,85911,1,0,0:0:0:0:
288,160,86069,1,8,0:0:0:0:
288,160,86227,1,8,0:0:0:0:
288,160,86385,1,8,0:0:0:0:
224,160,86701,1,0,0:0:0:0:
288,160,86859,1,8,0:0:0:0:
224,160,87016,1,0,0:0:0:0:
224,160,87095,1,0,0:0:0:0:
224,160,87174,1,0,0:0:0:0:
288,160,87332,1,8,0:0:0:0:
224,160,87490,1,0,0:0:0:0:
288,160,87648,1,8,0:0:0:0:
224,160,87964,1,0,0:0:0:0:
224,160,88043,1,0,0:0:0:0:
224,160,88122,1,0,0:0:0:0:
288,160,88280,1,8,0:0:0:0:
224,160,88438,1,0,0:0:0:0:
224,160,88516,1,0,0:0:0:0:
224,160,88595,1,0,0:0:0:0:
288,160,88753,1,8,0:0:0:0:
288,160,88911,1,8,0:0:0:0:
224,160,89227,1,0,0:0:0:0:
224,160,89306,1,0,0:0:0:0:
224,160,89385,1,0,0:0:0:0:
288,160,89543,1,8,0:0:0:0:
224,160,89701,1,0,0:0:0:0:
224,160,89780,1,0,0:0:0:0:
224,160,89859,1,0,0:0:0:0:
288,160,90016,1,8,0:0:0:0:
288,160,90174,1,8,0:0:0:0:
224,160,90490,1,0,0:0:0:0:
224,160,90569,1,0,0:0:0:0:
224,160,90648,1,0,0:0:0:0:
224,160,90806,1,0,0:0:0:0:
224,160,90885,1,0,0:0:0:0:
224,160,90964,1,0,0:0:0:0:
224,160,91122,1,0,0:0:0:0:
224,160,91280,1,0,0:0:0:0:
224,160,91438,1,0,0:0:0:0:
224,160,91753,1,0,0:0:0:0:
224,160,91832,1,0,0:0:0:0:
224,160,91911,1,0,0:0:0:0:
288,160,92069,1,8,0:0:0:0:
288,160,92148,1,8,0:0:0:0:
224,160,92227,1,0,0:0:0:0:
288,160,92385,1,8,0:0:0:0:
224,160,92543,1,0,0:0:0:0:
288,160,92701,1,8,0:0:0:0:
288,160,92780,1,8,0:0:0:0:
288,160,92859,1,8,0:0:0:0:
288,160,93016,1,8,0:0:0:0:
288,160,93332,1,8,0:0:0:0:
288,160,93490,1,8,0:0:0:0:
288,160,93648,1,8,0:0:0:0:
288,160,93964,1,8,0:0:0:0:
288,160,94122,1,8,0:0:0:0:
224,224,94280,5,4,0:0:0:0:
288,160,94595,1,8,0:0:0:0:
224,160,94674,1,0,0:0:0:0:
224,160,94753,1,0,0:0:0:0:
288,160,94911,1,8,0:0:0:0:
288,160,95227,1,8,0:0:0:0:
288,160,95306,1,8,0:0:0:0:
224,160,95385,1,0,0:0:0:0:
288,160,95543,1,8,0:0:0:0:
288,160,95859,1,8,0:0:0:0:
288,160,95938,1,8,0:0:0:0:
224,160,96016,1,0,0:0:0:0:
224,160,96095,1,0,0:0:0:0:
288,160,96174,1,8,0:0:0:0:
224,160,96332,1,0,0:0:0:0:
288,160,96490,1,8,0:0:0:0:
224,160,96569,1,0,0:0:0:0:
224,160,96648,1,0,0:0:0:0:
288,160,96806,1,8,0:0:0:0:
288,160,97122,1,8,0:0:0:0:
224,160,97201,1,0,0:0:0:0:
224,160,97280,1,0,0:0:0:0:
288,160,97438,1,8,0:0:0:0:
288,160,97753,1,8,0:0:0:0:
288,160,97832,1,8,0:0:0:0:
224,160,97911,1,0,0:0:0:0:
288,160,98069,1,8,0:0:0:0:
288,160,98385,1,8,0:0:0:0:
224,160,98464,1,0,0:0:0:0:
224,160,98543,1,0,0:0:0:0:
224,160,98622,1,0,0:0:0:0:
288,160,98701,1,8,0:0:0:0:
224,160,99016,1,0,0:0:0:0:
288,160,99332,1,8,0:0:0:0:
224,160,99411,1,0,0:0:0:0:
224,160,99490,1,0,0:0:0:0:
288,160,99648,1,8,0:0:0:0:
288,160,99727,1,8,0:0:0:0:
224,160,99806,1,0,0:0:0:0:
288,160,99964,1,8,0:0:0:0:
224,160,100122,1,0,0:0:0:0:
288,160,100280,1,8,0:0:0:0:
288,160,100595,1,8,0:0:0:0:
288,160,100674,1,8,0:0:0:0:
224,160,100753,1,0,0:0:0:0:
288,160,100911,1,8,0:0:0:0:
224,160,100990,1,0,0:0:0:0:
224,160,101069,1,0,0:0:0:0:
288,160,101227,1,8,0:0:0:0:
224,160,101385,1,0,0:0:0:0:
288,160,101543,1,8,0:0:0:0:
288,160,101859,1,8,0:0:0:0:
224,160,101938,1,0,0:0:0:0:
224,160,102016,1,0,0:0:0:0:
224,160,102095,1,0,0:0:0:0:
288,160,102174,1,8,0:0:0:0:
224,160,102332,1,0,0:0:0:0:
288,160,102490,1,8,0:0:0:0:
288,160,102806,1,8,0:0:0:0:
288,160,103122,1,8,0:0:0:0:
224,160,103201,1,0,0:0:0:0:
224,160,103280,1,0,0:0:0:0:
288,160,103438,1,8,0:0:0:0:
224,160,103516,1,0,0:0:0:0:
224,160,103595,1,0,0:0:0:0:
288,160,103753,1,8,0:0:0:0:
288,224,104385,1,12,0:0:0:0:
288,160,104701,1,8,0:0:0:0:
288,160,104780,1,8,0:0:0:0:
224,160,104859,1,0,0:0:0:0:
288,160,105016,1,8,0:0:0:0:
224,160,105174,1,0,0:0:0:0:
288,160,105332,1,8,0:0:0:0:
288,160,105648,1,8,0:0:0:0:
224,160,105727,1,0,0:0:0:0:
224,160,105806,1,0,0:0:0:0:
288,160,105964,1,8,0:0:0:0:
288,160,106043,1,8,0:0:0:0:
224,160,106122,1,0,0:0:0:0:
224,160,106201,1,0,0:0:0:0:
288,160,106280,1,8,0:0:0:0:
224,160,106438,1,0,0:0:0:0:
288,160,106595,1,8,0:0:0:0:
288,160,106911,1,8,0:0:0:0:
224,160,106990,1,0,0:0:0:0:
224,160,107069,1,0,0:0:0:0:
288,160,107227,1,8,0:0:0:0:
288,160,107543,1,8,0:0:0:0:
224,160,107701,1,0,0:0:0:0:
224,160,107780,1,0,0:0:0:0:
288,160,107859,1,8,0:0:0:0:
288,160,108174,1,8,0:0:0:0:
288,160,108253,1,8,0:0:0:0:
224,160,108332,1,0,0:0:0:0:
288,160,108490,1,8,0:0:0:0:
224,160,108648,1,0,0:0:0:0:
288,160,108806,1,8,0:0:0:0:
224,160,108964,1,0,0:0:0:0:
288,160,109043,1,8,0:0:0:0:
288,160,109122,1,8,0:0:0:0:
288,160,109438,1,8,0:0:0:0:
288,160,109516,1,8,0:0:0:0:
224,160,109595,1,0,0:0:0:0:
224,160,109674,1,0,0:0:0:0:
288,160,109753,1,8,0:0:0:0:
224,160,110069,1,0,0:0:0:0:
288,160,110148,1,8,0:0:0:0:
224,160,110227,1,0,0:0:0:0:
288,160,110385,1,8,0:0:0:0:
224,160,110543,1,0,0:0:0:0:
224,160,110622,1,0,0:0:0:0:
288,160,110701,1,8,0:0:0:0:
288,160,111016,1,8,0:0:0:0:
224,160,111174,1,0,0:0:0:0:
224,160,111253,1,0,0:0:0:0:
288,160,111332,1,8,0:0:0:0:
224,160,111490,1,0,0:0:0:0:
288,160,111648,1,8,0:0:0:0:
256,224,111964,1,12,0:0:0:0:
256,192,112911,12,0,115753,0:0:0:0:
