osu file format v14

[General]
AudioFilename: Song.mp3
AudioLeadIn: 0
PreviewTime: 42490
Countdown: 0
SampleSet: Normal
StackLeniency: 0.6
Mode: 1
LetterboxInBreaks: 0
WidescreenStoryboard: 0

[Editor]
Bookmarks: 2621,12726,22831,32936,37436,42488,52593,62699,72804,82909,94278,104383,111962,112911,115753
DistanceSpacing: 0.5
BeatDivisor: 4
GridSize: 32
TimelineZoom: 1.9

[Metadata]
Title:Shuffle Heaven
TitleUnicode:Shuffle Heaven
Artist:RYO
ArtistUnicode:RYO
Creator:Nwolf
Version:Futsuu
Source:O2Jam
Tags:bms Ludwig van Beethoven Moonlight Sonata
BeatmapID:461057
BeatmapSetID:194109

[Difficulty]
HPDrainRate:4.3
CircleSize:4
OverallDifficulty:3.8
ApproachRate:8
SliderMultiplier:1.2
SliderTickRate:1

[Events]
//Background and Video events
0,0,"Heaven.jpg",0,0
//Break Periods
//Storyboard Layer 0 (Background)
//Storyboard Layer 1 (Fail)
//Storyboard Layer 2 (Pass)
//Storyboard Layer 3 (Foreground)
//Storyboard Sound Samples

[TimingPoints]
2634,315.789473684211,4,1,0,45,1,0
12739,-100,4,1,0,55,0,0
23318,-100,4,1,0,30,0,0
32949,-100,4,1,0,45,0,0
35476,-100,7,1,0,55,0,0
37438,315.789473684211,4,1,0,65,1,0
42490,-100,4,1,0,85,0,1
62701,-100,4,1,0,85,0,0
72806,-100,4,1,0,55,0,0
82911,-100,4,1,0,65,0,0
94280,-100,4,1,0,85,0,1
111964,-100,4,1,0,75,0,0

[Colours]
Combo1 : 48,176,192
Combo2 : 248,72,40

[HitObjects]
288,160,2634,5,8,0:0:0:0:
288,160,3107,1,8,0:0:0:0:
288,160,3581,1,8,0:0:0:0:
288,160,3897,1,8,0:0:0:0:
288,160,4370,1,8,0:0:0:0:
288,160,5160,1,8,0:0:0:0:
288,160,5634,1,8,0:0:0:0:
288,160,6107,1,8,0:0:0:0:
288,160,6423,1,8,0:0:0:0:
288,160,6897,1,8,0:0:0:0:
288,160,7686,1,8,0:0:0:0:
288,160,8160,1,8,0:0:0:0:
288,160,8634,1,8,0:0:0:0:
288,160,8949,1,8,0:0:0:0:
288,160,9423,1,8,0:0:0:0:
288,160,9897,1,8,0:0:0:0:
288,160,10212,1,8,0:0:0:0:
288,160,10686,1,8,0:0:0:0:
288,160,11160,1,8,0:0:0:0:
288,160,11476,1,8,0:0:0:0:
288,160,12423,1,8,0:0:0:0:
288,224,12739,1,12,0:0:0:0:
288,160,13370,1,8,0:0:0:0:
224,160,13686,1,0,0:0:0:0:
288,160,14002,1,8,0:0:0:0:
288,160,14634,1,8,0:0:0:0:
288,160,14949,1,8,0:0:0:0:
288,160,15107,1,8,0:0:0:0:
224,160,15581,1,0,0:0:0:0:
288,160,15897,1,8,0:0:0:0:
288,160,16528,1,8,0:0:0:0:
224,160,16844,1,0,0:0:0:0:
288,160,17160,1,8,0:0:0:0:
288,160,17476,1,8,0:0:0:0:
288,160,17634,1,8,0:0:0:0:
288,160,18107,1,8,0:0:0:0:
288,160,18739,1,8,0:0:0:0:
224,160,19055,1,0,0:0:0:0:
288,160,19370,1,8,0:0:0:0:
224,160,19686,1,0,0:0:0:0:
288,160,20002,1,8,0:0:0:0:
288,160,20160,1,8,0:0:0:0:
288,160,20634,1,8,0:0:0:0:
224,160,20949,1,0,0:0:0:0:
288,160,21265,1,8,0:0:0:0:
288,160,21423,1,8,0:0:0:0:
288,160,21897,1,8,0:0:0:0:
224,160,22212,1,0,0:0:0:0:
288,160,22528,1,8,0:0:0:0:
224,160,22686,1,0,0:0:0:0:
288,224,23002,1,12,0:0:0:0:
288,160,24107,1,8,0:0:0:0:
288,160,24739,1,8,0:0:0:0:
288,160,25370,1,8,0:0:0:0:
288,160,26634,1,8,0:0:0:0:
288,160,27265,1,8,0:0:0:0:
224,160,27897,1,0,0:0:0:0:
288,160,28055,1,8,0:0:0:0:
288,160,29160,1,8,0:0:0:0:
288,160,29791,1,8,0:0:0:0:
288,160,30423,1,8,0:0:0:0:
224,160,30581,1,0,0:0:0:0:
288,160,31686,1,8,0:0:0:0:
288,160,32002,1,8,0:0:0:0:
288,160,32318,1,8,0:0:0:0:
288,160,32634,1,8,0:0:0:0:
224,160,32949,1,0,0:0:0:0:
288,160,33265,1,8,0:0:0:0:
288,160,33897,1,8,0:0:0:0:
224,160,34212,1,0,0:0:0:0:
224,160,34370,1,0,0:0:0:0:
288,160,34528,1,8,0:0:0:0:
224,160,34844,1,0,0:0:0:0:
288,160,35160,1,8,0:0:0:0:
288,224,35476,1,12,0:0:0:0:
224,160,37438,1,0,0:0:0:0:
288,160,37753,1,8,0:0:0:0:
224,160,38069,1,0,0:0:0:0:
224,160,38227,1,0,0:0:0:0:
288,160,38385,1,8,0:0:0:0:
224,160,38701,1,0,0:0:0:0:
288,160,39016,1,8,0:0:0:0:
224,160,39332,1,0,0:0:0:0:
224,160,39964,1,0,0:0:0:0:
288,160,40280,1,8,0:0:0:0:
224,160,40595,1,0,0:0:0:0:
288,160,40911,1,8,0:0:0:0:
288,160,41227,1,8,0:0:0:0:
288,224,42490,5,12,0:0:0:0:
288,160,42806,1,8,0:0:0:0:
288,160,43438,1,8,0:0:0:0:
224,160,43753,1,0,0:0:0:0:
224,160,43911,1,0,0:0:0:0:
288,160,44069,1,8,0:0:0:0:
224,160,44385,1,0,0:0:0:0:
288,160,44701,1,8,0:0:0:0:
224,160,45016,1,0,0:0:0:0:
288,160,45332,1,8,0:0:0:0:
288,160,45964,1,8,0:0:0:0:
224,160,46280,1,0,0:0:0:0:
224,160,46911,1,0,0:0:0:0:
224,160,47543,1,0,0:0:0:0:
288,160,47859,1,8,0:0:0:0:
288,160,48490,1,8,0:0:0:0:
224,160,48806,1,0,0:0:0:0:
288,160,49122,1,8,0:0:0:0:
224,160,49280,1,0,0:0:0:0:
224,160,49438,1,0,0:0:0:0:
288,160,49753,1,8,0:0:0:0:
224,160,50069,1,0,0:0:0:0:
224,160,50227,1,0,0:0:0:0:
288,160,50385,1,8,0:0:0:0:
224,160,50701,1,0,0:0:0:0:
288,160,51016,1,8,0:0:0:0:
224,160,51332,1,0,0:0:0:0:
224,224,52595,1,4,0:0:0:0:
288,160,52911,1,8,0:0:0:0:
224,160,53385,1,0,0:0:0:0:
288,160,53543,1,8,0:0:0:0:
224,160,53859,1,0,0:0:0:0:
288,160,54174,1,8,0:0:0:0:
224,160,54648,1,0,0:0:0:0:
288,160,54806,1,8,0:0:0:0:
224,160,55122,1,0,0:0:0:0:
224,160,55280,1,0,0:0:0:0:
288,160,55438,1,8,0:0:0:0:
288,160,56069,1,8,0:0:0:0:
224,160,56385,1,0,0:0:0:0:
224,160,56543,1,0,0:0:0:0:
288,160,56701,1,8,0:0:0:0:
288,160,57332,1,8,0:0:0:0:
224,160,57648,1,0,0:0:0:0:
288,160,58280,1,0,0:0:0:0:
288,160,58595,1,8,0:0:0:0:
224,160,58753,1,0,0:0:0:0:
224,160,58911,1,0,0:0:0:0:
288,160,59227,1,8,0:0:0:0:
224,160,59543,1,0,0:0:0:0:
224,160,60174,1,0,0:0:0:0:
288,160,60490,1,8,0:0:0:0:
224,160,60806,1,0,0:0:0:0:
288,160,61122,1,8,0:0:0:0:
288,160,61438,1,8,0:0:0:0:
224,224,62701,5,4,0:0:0:0:
288,160,63016,1,8,0:0:0:0:
288,160,63648,1,8,0:0:0:0:
224,160,63964,1,0,0:0:0:0:
288,160,64280,1,8,0:0:0:0:
224,160,64595,1,0,0:0:0:0:
288,160,64911,1,8,0:0:0:0:
288,160,65069,1,8,0:0:0:0:
288,160,65543,1,8,0:0:0:0:
288,160,66174,1,8,0:0:0:0:
224,160,66490,1,0,0:0:0:0:
288,160,66806,1,8,0:0:0:0:
224,160,67122,1,0,0:0:0:0:
288,160,67438,1,8,0:0:0:0:
288,160,67595,1,8,0:0:0:0:
288,160,68069,1,8,0:0:0:0:
288,160,68701,1,8,0:0:0:0:
224,160,69016,1,0,0:0:0:0:
288,160,69332,1,8,0:0:0:0:
224,160,69648,1,0,0:0:0:0:
288,160,69964,1,8,0:0:0:0:
288,160,70122,1,8,0:0:0:0:
288,160,70595,1,8,0:0:0:0:
224,160,70911,1,0,0:0:0:0:
288,160,71227,1,8,0:0:0:0:
288,160,71385,1,8,0:0:0:0:
288,160,71859,1,8,0:0:0:0:
224,160,72174,1,0,0:0:0:0:
288,160,72490,1,8,0:0:0:0:
224,160,72648,1,0,0:0:0:0:
288,224,72964,1,12,0:0:0:0:
288,160,74069,1,8,0:0:0:0:
288,160,74701,1,8,0:0:0:0:
288,160,75332,1,8,0:0:0:0:
288,160,76595,1,8,0:0:0:0:
288,160,77227,1,8,0:0:0:0:
288,160,77543,1,8,0:0:0:0:
288,160,77859,1,8,0:0:0:0:
224,224,78016,1,4,0:0:0:0:
288,160,79122,1,8,0:0:0:0:
288,160,79753,1,8,0:0:0:0:
288,160,80385,1,8,0:0:0:0:
224,160,80543,1,0,0:0:0:0:
288,160,81648,1,8,0:0:0:0:
288,160,81964,1,8,0:0:0:0:
288,160,82280,1,8,0:0:0:0:
288,160,82595,1,8,0:0:0:0:
224,160,82911,1,0,0:0:0:0:
224,160,83227,1,0,0:0:0:0:
288,160,83543,1,8,0:0:0:0:
288,160,83859,1,8,0:0:0:0:
224,160,84174,1,0,0:0:0:0:
224,160,84490,1,0,0:0:0:0:
288,160,84806,1,8,0:0:0:0:
224,160,85438,1,0,0:0:0:0:
224,160,85753,1,0,0:0:0:0:
288,160,86069,1,8,0:0:0:0:
224,160,86385,1,0,0:0:0:0:
224,160,86701,1,0,0:0:0:0:
224,160,86859,1,0,0:0:0:0:
288,160,87016,1,8,0:0:0:0:
288,160,87332,1,8,0:0:0:0:
224,160,87964,1,0,0:0:0:0:
224,160,88122,1,0,0:0:0:0:
288,160,88280,1,8,0:0:0:0:
224,160,88595,1,0,0:0:0:0:
288,160,88911,1,8,0:0:0:0:
288,160,89227,1,8,0:0:0:0:
288,160,89385,1,8,0:0:0:0:
224,160,89543,1,0,0:0:0:0:
288,160,89859,1,8,0:0:0:0:
288,160,90490,1,8,0:0:0:0:
288,160,90806,1,8,0:0:0:0:
288,160,91122,1,8,0:0:0:0:
288,160,91753,1,8,0:0:0:0:
288,160,91911,1,8,0:0:0:0:
288,160,92069,1,8,0:0:0:0:
288,160,92385,1,8,0:0:0:0:
288,160,92701,1,8,0:0:0:0:
288,160,93016,1,8,0:0:0:0:
224,224,94280,5,4,0:0:0:0:
288,160,94595,1,8,0:0:0:0:
288,160,94911,1,8,0:0:0:0:
224,160,95069,1,0,0:0:0:0:
288,160,95227,1,8,0:0:0:0:
224,160,95543,1,0,0:0:0:0:
224,160,96174,1,0,0:0:0:0:
224,160,96806,1,0,0:0:0:0:
288,160,97122,1,8,0:0:0:0:
288,160,97438,1,8,0:0:0:0:
224,160,97595,1,0,0:0:0:0:
288,160,97753,1,8,0:0:0:0:
224,160,98069,1,0,0:0:0:0:
224,160,98701,1,0,0:0:0:0:
288,160,99332,1,8,0:0:0:0:
288,160,99648,1,8,0:0:0:0:
224,160,99964,1,0,0:0:0:0:
224,160,100122,1,0,0:0:0:0:
224,160,100280,1,0,0:0:0:0:
288,160,100595,1,8,0:0:0:0:
288,160,100911,1,8,0:0:0:0:
288,160,101227,1,8,0:0:0:0:
224,160,101859,1,0,0:0:0:0:
224,160,102174,1,0,0:0:0:0:
288,160,102490,1,8,0:0:0:0:
288,160,102648,1,8,0:0:0:0:
288,160,102806,1,8,0:0:0:0:
224,160,103122,1,0,0:0:0:0:
288,224,104385,1,12,0:0:0:0:
288,160,104701,1,8,0:0:0:0:
224,160,105174,1,0,0:0:0:0:
288,160,105332,1,8,0:0:0:0:
288,160,105648,1,8,0:0:0:0:
288,160,105964,1,8,0:0:0:0:
224,160,106438,1,0,0:0:0:0:
288,160,106595,1,8,0:0:0:0:
224,160,106911,1,0,0:0:0:0:
224,160,107069,1,0,0:0:0:0:
288,160,107227,1,8,0:0:0:0:
288,160,107859,1,8,0:0:0:0:
224,160,108174,1,0,0:0:0:0:
224,160,108332,1,0,0:0:0:0:
288,160,108490,1,8,0:0:0:0:
288,160,109122,1,8,0:0:0:0:
224,160,109438,1,0,0:0:0:0:
224,160,110069,1,0,0:0:0:0:
288,160,110385,1,8,0:0:0:0:
224,160,110543,1,0,0:0:0:0:
288,160,110701,1,8,0:0:0:0:
288,160,111016,1,8,0:0:0:0:
224,160,111332,1,0,0:0:0:0:
224,160,111648,1,0,0:0:0:0:
288,224,111964,1,12,0:0:0:0:
256,192,112911,12,0,115753,0:0:0:0:
