osu file format v12

[General]
AudioFilename: RYO - Shuffle Heaven.mp3
AudioLeadIn: 0
PreviewTime: 52517
Countdown: 0
SampleSet: Soft
StackLeniency: 0.7
Mode: 0
LetterboxInBreaks: 0
WidescreenStoryboard: 0

[Editor]
Bookmarks: 2623,12728,22833,32938,35465,37438,42490,52595,62701,72806,82911,94280,104385,111885
DistanceSpacing: 1.2
BeatDivisor: 4
GridSize: 4

[Metadata]
Title:Shuffle Heaven
TitleUnicode:Shuffle Heaven
Artist:RYO
ArtistUnicode:RYO
Creator:Nemis
Version:Standard
Source:O2Jam
Tags:BMS Maddy Mr Color ExPew ishimaru94
BeatmapID:235483
BeatmapSetID:85802

[Difficulty]
HPDrainRate:4
CircleSize:3
OverallDifficulty:4
ApproachRate:5
SliderMultiplier:0.8
SliderTickRate:1

[Events]
//Background and Video events
0,0,"Shuffle Heaven.png",0,0
//Break Periods
//Storyboard Layer 0 (Background)
//Storyboard Layer 1 (Fail)
//Storyboard Layer 2 (Pass)
//Storyboard Layer 3 (Foreground)
//Storyboard Sound Samples
//Background Colour Transformations
3,100,0,0,0

[TimingPoints]
2642,315.789473684211,4,2,1,20,1,0
2642,-133.333333333333,4,2,1,20,0,0
5149,-133.333333333333,4,2,1,30,0,0
7675,-133.333333333333,4,2,1,35,0,0
10201,-133.333333333333,4,2,1,40,0,0
12728,315.789473684211,4,2,1,70,1,0
13991,-100,4,2,1,76,0,0
15254,-100,4,2,1,73,0,0
16517,-100,4,2,1,79,0,0
17780,-100,4,2,1,76,0,0
19044,-100,4,2,1,82,0,0
20307,-100,4,2,1,79,0,0
20938,-100,4,2,1,85,0,0
21570,-100,4,2,1,82,0,0
22201,-100,4,2,1,88,0,0
22833,-100,4,2,1,50,0,0
32938,-100,4,2,1,53,0,0
33570,-100,4,2,1,56,0,0
34201,-100,4,2,1,59,0,0
34833,-100,4,2,1,62,0,0
35465,-100,4,2,1,80,0,0
37438,315.789473684211,4,2,1,53,1,0
38069,-100,4,2,1,56,0,0
38701,-100,4,2,1,59,0,0
39332,-100,4,2,1,62,0,0
39964,-100,4,2,1,65,0,0
40595,-100,4,2,1,68,0,0
41227,-100,4,2,1,71,0,0
41859,-100,4,2,1,74,0,0
42490,-100,4,2,1,80,0,0
50069,-100,4,2,1,82,0,0
50701,-100,4,2,1,84,0,0
51332,-100,4,2,1,86,0,0
51964,-100,4,2,1,90,0,0
52595,-100,4,2,1,90,0,1
62701,-100,4,2,1,70,0,0
63964,-100,4,2,1,76,0,0
65227,-100,4,2,1,73,0,0
66490,-100,4,2,1,79,0,0
67753,-100,4,2,1,76,0,0
69016,-100,4,2,1,82,0,0
70280,-100,4,2,1,79,0,0
70911,-100,4,2,1,85,0,0
71543,-100,4,2,1,82,0,0
72174,-100,4,2,1,88,0,0
72806,-100,4,2,1,50,0,0
82911,-100,4,2,1,53,0,0
83543,-100,4,2,1,56,0,0
84174,-100,4,2,1,59,0,0
84806,-100,4,2,1,62,0,0
85438,-100,4,2,1,53,0,0
86069,-100,4,2,1,56,0,0
86701,-100,4,2,1,59,0,0
87332,-100,4,2,1,62,0,0
87964,-100,4,2,1,59,0,0
88595,-100,4,2,1,62,0,0
89227,-100,4,2,1,65,0,0
89859,-100,4,2,1,68,0,0
90490,-100,4,2,1,71,0,0
91122,-100,4,2,1,74,0,0
91753,-100,4,2,1,71,0,0
92385,-100,4,2,1,74,0,0
93016,-100,4,2,1,77,0,0
93648,-100,4,2,1,80,0,0
94280,-100,4,2,1,90,0,1
104306,-100,4,2,1,90,0,0
104385,-100,4,2,1,90,0,1
111885,-100,4,2,1,90,0,0
115595,-100,4,2,1,10,0,0

[Colours]
Combo1 : 255,164,62
Combo2 : 140,90,207
Combo3 : 243,175,114
Combo4 : 203,67,189
Combo5 : 251,155,237
Combo6 : 95,235,157
Combo7 : 155,244,57
Combo8 : 255,64,64

[HitObjects]
188,108,2642,2,0,L|92:100,2,90.0000034332277,2|2|2,0:0|0:0|0:0,0:0:0:0:
264,56,3905,2,0,P|284:120|260:168,1,120.000004577637,2|0,0:0|0:0,0:0:0:0:
132,220,5168,6,0,P|120:268|136:316,2,90.0000034332277,2|2|2,0:0|0:0|0:0,0:0:0:0:
208,264,6431,1,2,0:0:0:0:
332,340,7063,1,0,0:0:0:0:
424,228,7694,6,0,B|444:192|444:192|440:132,2,90.0000034332277,2|2|2,0:0|0:0|0:0,0:0:0:0:
344,188,8957,2,0,P|300:176|224:176,1,120.000004577637,2|0,0:0|0:0,0:0:0:0:
256,192,10220,12,4,12728,1:0:0:0:
88,160,13359,5,0,0:0:0:0:
136,244,13675,2,0,P|88:260|56:252,2,80,0|2|0,0:0|0:0|0:0,0:0:0:0:
184,160,14623,1,0,0:0:0:0:
364,88,15254,70,0,P|400:148|368:232,1,160,0|0,1:0|0:0,0:0:0:0:
280,256,16201,1,0,0:0:0:0:
348,324,16517,2,0,P|304:348|204:316,1,160,2|0,0:0|0:0,0:0:0:0:
32,236,17780,6,0,L|24:156,1,80,4|0,1:0|0:0,0:0:0:0:
72,72,18412,2,0,P|112:60|152:56,1,80
224,116,19044,2,0,P|296:156|376:124,1,160,2|0,0:0|0:0,0:0:0:0:
452,304,20307,6,0,B|412:296|412:296|332:312|332:312|296:304,1,160,0|0,1:0|0:0,0:0:0:0:
220,244,21254,1,2,0:0:0:0:
156,316,21570,2,0,L|64:324,2,80,0|0|0,1:0|0:0|0:0,0:0:0:0:
220,244,22517,1,2,0:0:0:0:
124,228,22833,6,0,P|88:152|112:84,1,160,4|0,1:0|0:0,0:0:0:0:
296,56,24096,1,2,0:0:0:0:
384,100,24412,1,0,0:0:0:0:
444,176,24728,2,0,L|448:272,1,80
380,324,25359,70,0,P|300:288|224:292,1,160,0|0,1:0|0:0,0:0:0:0:
136,272,26307,1,0,0:0:0:0:
80,352,26623,2,0,P|40:292|64:208,1,160,2|0,0:0|0:0,0:0:0:0:
164,48,27886,6,0,B|216:72|216:72|316:48,1,160,4|0,1:0|0:0,0:0:0:0:
408,28,28833,1,0,0:0:0:0:
468,104,29149,2,0,P|480:144|464:196,1,80,2|0,0:0|0:0,0:0:0:0:
432,268,29780,2,0,L|352:260,1,80
260,292,30412,5,0,1:0:0:0:
68,320,31044,2,0,L|76:240,1,80
56,148,31675,2,0,P|140:112|212:112,1,160,2|0,0:0|0:0,0:0:0:0:
300,80,32623,1,0,0:0:0:0:
392,112,32938,6,0,L|396:208,1,80,0|0,1:0|0:0,0:0:0:0:
364,284,33570,1,2,0:0:0:0:
180,336,34201,2,0,P|164:288|168:248,1,80,0|0,1:0|0:0,0:0:0:0:
236,192,34833,1,2,0:0:0:0:
100,56,35465,69,4,1:0:0:0:
100,56,37438,6,0,P|168:88|244:60,1,160,0|2,1:0|0:0,0:0:0:0:
320,0,38385,1,0,0:0:0:0:
396,60,38701,2,0,P|424:104|404:208,1,160,0|2,1:0|0:0,0:0:0:0:
436,296,39648,1,0,0:0:0:0:
340,280,39964,6,0,L|252:272,1,80,0|0,1:0|0:0,0:0:0:0:
204,192,40595,2,0,L|116:184,1,80,2|0,0:0|0:0,0:0:0:0:
68,264,41227,2,0,P|32:216|56:112,1,160,0|2,1:0|0:0,0:0:0:0:
228,60,42490,86,0,B|296:52|296:52|388:96,1,160,4|0,1:0|0:0,0:0:0:0:
428,176,43438,1,0,0:0:0:0:
420,272,43753,2,0,L|336:264,1,80,2|0,0:0|0:0,0:0:0:0:
264,320,44385,2,0,P|216:328|184:316,1,80
96,292,45016,6,0,B|84:220|84:220|108:156|108:156|96:56,1,240,0|0,1:0|0:0,0:0:0:0:
188,24,46280,1,2,0:0:0:0:
372,84,46911,1,0,0:0:0:0:
432,268,47543,6,0,P|360:304|288:276,1,160,0|0,1:0|0:0,0:0:0:0:
216,216,48490,1,0,0:0:0:0:
144,280,48806,2,0,L|56:288,2,80,2|0|0,0:0|0:0|0:0,0:0:0:0:
112,92,50069,6,0,P|160:84|208:84,1,80,0|2,1:0|0:0,0:0:0:0:
268,140,50701,1,4,1:0:0:0:
432,40,51332,2,0,P|420:76|428:120,1,80,0|2,1:0|0:0,0:0:0:0:
480,196,51964,1,4,1:0:0:0:
340,328,52595,6,0,P|264:296|176:300,1,160,4|0,1:0|0:0,0:0:0:0:
96,332,53543,1,0,0:0:0:0:
108,236,53859,2,0,L|100:140,1,80,2|0,0:0|0:0,0:0:0:0:
92,60,54490,1,0,0:0:0:0:
280,96,55122,6,0,P|324:68|428:80,1,160,0|0,1:0|0:0,0:0:0:0:
464,268,56385,2,0,P|428:280|384:272,1,80,2|0,0:0|0:0,0:0:0:0:
300,232,57016,1,0,0:0:0:0:
228,296,57332,1,0,0:0:0:0:
132,300,57648,102,0,P|72:256|56:176,1,160,0|0,1:0|0:0,0:0:0:0:
200,48,58911,2,0,L|284:40,2,80,2|0|0,0:0|0:0|0:0,0:0:0:0:
384,100,60174,6,0,B|396:200|396:200|368:264,1,160,0|0,1:0|0:0,0:0:0:0:
280,232,61122,1,0,0:0:0:0:
224,312,61438,2,0,P|184:300|140:300,1,80,2|0,0:0|0:0,0:0:0:0:
56,332,62069,2,0,L|44:240,1,80
88,168,62701,37,4,1:0:0:0:
136,84,63017,2,0,P|88:68|56:76,2,80
184,168,63965,1,2,0:0:0:0:
336,52,64595,1,0,0:0:0:0:
460,200,65227,6,0,P|440:280|360:288,1,160,0|0,1:0|0:0,0:0:0:0:
308,224,66174,1,0,0:0:0:0:
272,312,66490,2,0,P|224:328|184:328,1,80,2|0,0:0|0:0,0:0:0:0:
112,280,67122,2,0,L|104:200,1,80
52,120,67754,6,0,P|88:104|128:108,1,80,0|0,1:0|0:0,0:0:0:0:
220,136,68385,2,0,P|292:96|372:128,1,160,0|2,0:0|0:0,0:0:0:0:
452,296,69648,2,0,P|412:288|372:288,1,80
288,336,70280,5,0,1:0:0:0:
208,280,70596,1,0,0:0:0:0:
132,336,70911,2,0,L|40:344,2,80,0|2|0,0:0|0:0|1:0,0:0:0:0:
208,280,71859,2,0,P|216:224|208:184,1,80
152,128,72490,1,2,0:0:0:0:
56,140,72806,69,4,1:0:0:0:
248,112,73438,1,0,0:0:0:0:
440,136,74069,2,0,P|456:208|400:288,1,160,2|0,0:0|0:0,0:0:0:0:
324,252,75016,1,0,0:0:0:0:
252,316,75332,6,0,L|88:312,1,160,0|0,1:0|0:0,0:0:0:0:
44,128,76595,2,0,P|36:176|44:212,1,80,2|0,0:0|0:0,0:0:0:0:
128,164,77227,2,0,P|133:133|125:85,1,80
220,104,77859,6,0,B|260:100|260:100|328:140|328:140|368:136,2,160,0|0|2,1:0|0:0|0:0,0:0:0:0:
328,264,79753,2,0,L|412:256,2,80,0|0|0,0:0|0:0|1:0,0:0:0:0:
140,228,81016,5,0,0:0:0:0:
200,304,81332,1,0,0:0:0:0:
104,320,81648,2,0,P|56:280|60:172,1,160,2|0,0:0|0:0,0:0:0:0:
188,48,82911,70,0,B|232:40|232:40|292:80|292:80|336:72,1,160,0|2,1:0|0:0,0:0:0:0:
428,44,83859,1,0,0:0:0:0:
468,132,84174,2,0,P|480:172|472:212,1,80,0|0,1:0|0:0,0:0:0:0:
444,300,84806,2,0,L|352:288,1,80,2|0,0:0|0:0,0:0:0:0:
280,336,85438,6,0,P|244:324|200:324,1,80,0|0,1:0|0:0,0:0:0:0:
112,352,86069,2,0,L|100:272,1,80,2|0,0:0|0:0,0:0:0:0:
48,192,86701,2,0,P|36:144|44:108,1,80,0|0,1:0|0:0,0:0:0:0:
124,68,87332,2,0,P|136:116|128:152,2,80,2|0|0,0:0|0:0|1:0,0:0:0:0:
244,220,88595,6,0,P|320:212|368:132,1,160,2|0,0:0|1:0,0:0:0:0:
272,128,89543,1,0,0:0:0:0:
244,220,89859,2,0,L|248:316,1,80,2|0,0:0|0:0,0:0:0:0:
156,332,90490,6,0,P|76:268|80:200,1,160,0|2,1:0|0:0,0:0:0:0:
176,52,91753,2,0,B|220:44|220:44|336:72,1,160,0|2,1:0|0:0,0:0:0:0:
436,232,93016,2,0,L|440:316,2,80,0|0|2,1:0|0:0|0:0,0:0:0:0:
280,344,94280,6,0,B|212:352|212:352|120:308,1,160,4|0,1:0|0:0,0:0:0:0:
56,248,95228,1,0,0:0:0:0:
104,168,95543,2,0,L|188:160,1,80,2|0,0:0|0:0,0:0:0:0:
240,84,96175,2,0,P|276:92|324:80,1,80
408,48,96806,6,0,B|420:120|420:120|396:184|396:184|408:284,1,240,0|0,1:0|0:0,0:0:0:0:
340,352,98070,1,2,0:0:0:0:
148,348,98701,1,0,0:0:0:0:
56,180,99333,102,0,P|128:144|200:172,1,160,0|0,1:0|0:0,0:0:0:0:
280,216,100280,1,0,0:0:0:0:
284,120,100596,2,0,L|372:112,2,80,2|0|0,0:0|0:0|0:0,0:0:0:0:
460,200,101859,6,0,P|416:204|364:208,1,80,0|0,1:0|0:0,0:0:0:0:
344,296,102491,1,0,0:0:0:0:
272,356,102806,2,0,P|236:368|192:360,1,80,0|2,0:0|0:0,0:0:0:0:
64,220,103754,1,0,0:0:0:0:
136,68,104385,6,0,B|176:84|176:84|292:60,1,160,4|0,1:0|0:0,0:0:0:0:
380,24,105332,1,0,0:0:0:0:
444,96,105648,2,0,L|452:191,1,80,2|0,0:0|0:0,0:0:0:0:
424,268,106280,1,0,0:0:0:0:
240,316,106911,6,0,P|172:288|88:300,1,160,0|0,1:0|0:0,0:0:0:0:
16,124,108174,2,0,L|100:120,1,80,2|0,0:0|0:0,0:0:0:0:
184,156,108806,1,0,0:0:0:0:
264,104,109122,1,0,0:0:0:0:
352,64,109438,102,0,P|340:164|288:196,2,160,0|0|2,1:0|0:0|0:0,0:0:0:0:
188,164,111332,2,0,P|200:260|244:296,1,140,0|4,0:0|0:0,0:0:0:0:
256,192,112911,12,0,115595,0:0:0:0:
