osu file format v12

[General]
AudioFilename: Song.mp3
AudioLeadIn: 0
PreviewTime: 52593
Countdown: 0
SampleSet: Normal
StackLeniency: 0.6
Mode: 1
LetterboxInBreaks: 0
WidescreenStoryboard: 0

[Editor]
Bookmarks: 2621,12726,22831,32936,37436,42488,52593,62699,72804,82909,94278,104383,111962
DistanceSpacing: 0.5
BeatDivisor: 4
GridSize: 8

[Metadata]
Title:Shuffle Heaven
TitleUnicode:Shuffle Heaven
Artist:RYO
ArtistUnicode:RYO
Creator:AngelHoney
Version:lepidon! - Taiko Oni
Source:O2jam
Tags:lepidopodus Sprosive spro Firce777 Verdisphena Naryuga DJPop
BeatmapID:118972
BeatmapSetID:30682

[Difficulty]
HPDrainRate:5
CircleSize:5
OverallDifficulty:6
ApproachRate:5
SliderMultiplier:1.4
SliderTickRate:1

[Events]
//Background and Video events
0,0,"Heaven.jpg",0,0
//Break Periods
//Storyboard Layer 0 (Background)
//Storyboard Layer 1 (Fail)
//Storyboard Layer 2 (Pass)
//Storyboard Layer 3 (Foreground)
//Storyboard Sound Samples
//Background Colour Transformations
3,100,0,0,0

[TimingPoints]
2623,315.789473684211,4,1,1,50,1,0
35465,315.789473684211,7,1,1,50,1,0
37438,315.789473684211,4,1,1,55,1,0
42490,-100,4,1,1,60,0,1
52595,-100,4,1,1,65,0,1
62701,-100,4,1,1,60,0,0
72806,-100,4,1,1,50,0,0
87964,-100,4,1,1,55,0,0
90490,-100,4,1,1,60,0,0
94280,-100,4,1,1,70,0,1
111964,-100,4,1,1,50,0,0
112595,-100,4,1,1,50,0,0

[Colours]
Combo1 : 255,255,128
Combo2 : 255,0,0
Combo3 : 128,255,128
Combo4 : 255,128,64

[HitObjects]
160,268,2623,1,0,0:0:0:0:
264,272,3096,1,0,0:0:0:0:
364,301,3570,1,0,0:0:0:0:
329,261,3886,1,0,0:0:0:0:
252,189,4359,1,0,0:0:0:0:
254,294,4833,1,0,0:0:0:0:
322,306,5149,1,0,0:0:0:0:
406,244,5623,1,0,0:0:0:0:
321,306,6096,1,0,0:0:0:0:
381,341,6412,1,0,0:0:0:0:
290,287,6886,1,0,0:0:0:0:
380,340,7359,1,0,0:0:0:0:
323,298,7675,5,0,0:0:0:0:
229,249,8149,1,0,0:0:0:0:
229,249,8623,1,0,0:0:0:0:
297,238,8938,1,0,0:0:0:0:
193,254,9412,1,0,0:0:0:0:
296,238,9886,1,0,0:0:0:0:
317,171,10201,1,0,0:0:0:0:
346,189,10359,1,0,0:0:0:0:
338,223,10517,1,0,0:0:0:0:
331,239,10596,1,0,0:0:0:0:
322,254,10675,1,0,0:0:0:0:
301,281,10833,1,0,0:0:0:0:
273,259,10991,1,0,0:0:0:0:
238,254,11149,1,0,0:0:0:0:
220,252,11228,1,0,0:0:0:0:
202,249,11307,1,0,0:0:0:0:
236,246,11465,1,0,0:0:0:0:
253,245,11544,1,0,0:0:0:0:
270,244,11623,1,0,0:0:0:0:
304,249,11780,1,0,0:0:0:0:
321,252,11859,1,0,0:0:0:0:
338,255,11938,1,0,0:0:0:0:
367,274,12096,1,0,0:0:0:0:
381,283,12175,1,0,0:0:0:0:
395,292,12254,1,0,0:0:0:0:
395,292,12333,1,0,0:0:0:0:
384,278,12412,1,8,0:0:0:0:
366,210,12728,5,4,0:0:0:0:
341,185,12886,1,0,0:0:0:0:
327,174,12965,1,0,0:0:0:0:
344,174,13044,1,8,0:0:0:0:
376,187,13201,1,0,0:0:0:0:
391,195,13280,1,0,0:0:0:0:
405,204,13359,1,0,0:0:0:0:
417,236,13517,1,0,0:0:0:0:
430,224,13596,1,0,0:0:0:0:
436,207,13675,1,8,0:0:0:0:
400,216,13833,1,0,0:0:0:0:
384,216,13912,1,0,0:0:0:0:
368,224,13991,1,0,0:0:0:0:
336,240,14149,1,0,0:0:0:0:
320,248,14228,1,0,0:0:0:0:
312,232,14307,1,8,0:0:0:0:
304,200,14465,1,0,0:0:0:0:
304,184,14544,1,0,0:0:0:0:
320,176,14623,1,8,0:0:0:0:
344,192,14780,1,0,0:0:0:0:
352,168,14938,1,12,0:0:0:0:
384,184,15096,1,12,0:0:0:0:
348,184,15254,1,0,0:0:0:0:
313,189,15412,1,0,0:0:0:0:
295,191,15491,1,0,0:0:0:0:
311,186,15570,1,8,0:0:0:0:
346,186,15728,1,0,0:0:0:0:
363,186,15807,1,0,0:0:0:0:
380,186,15886,1,0,0:0:0:0:
385,220,16044,1,0,0:0:0:0:
387,237,16123,1,0,0:0:0:0:
395,222,16201,1,8,0:0:0:0:
386,256,16359,1,0,0:0:0:0:
378,271,16438,1,0,0:0:0:0:
367,284,16517,1,0,0:0:0:0:
333,295,16675,1,0,0:0:0:0:
316,300,16754,1,0,0:0:0:0:
307,284,16833,1,8,0:0:0:0:
331,259,16991,1,0,0:0:0:0:
343,246,17070,1,0,0:0:0:0:
354,232,17149,1,8,0:0:0:0:
369,200,17307,1,0,0:0:0:0:
396,178,17465,1,12,0:0:0:0:
385,220,17623,1,12,0:0:0:0:
350,213,17780,5,0,0:0:0:0:
315,205,17938,1,0,0:0:0:0:
328,193,18017,1,8,0:0:0:0:
341,181,18096,1,8,0:0:0:0:
369,200,18254,1,0,0:0:0:0:
369,200,18333,1,0,0:0:0:0:
369,200,18412,1,0,0:0:0:0:
360,234,18570,1,0,0:0:0:0:
371,221,18649,1,8,0:0:0:0:
383,208,18728,1,8,0:0:0:0:
359,234,18886,1,0,0:0:0:0:
346,246,18965,1,0,0:0:0:0:
333,257,19044,1,0,0:0:0:0:
299,267,19201,1,0,0:0:0:0:
346,246,19280,1,8,0:0:0:0:
346,246,19359,1,8,0:0:0:0:
375,226,19517,1,0,0:0:0:0:
386,212,19596,1,8,0:0:0:0:
383,208,19675,1,8,0:0:0:0:
417,199,19833,1,0,0:0:0:0:
439,172,19991,1,12,0:0:0:0:
431,206,20149,1,12,0:0:0:0:
398,192,20307,1,0,0:0:0:0:
363,188,20465,1,0,0:0:0:0:
345,187,20544,1,0,0:0:0:0:
347,169,20623,1,8,0:0:0:0:
366,139,20780,1,0,0:0:0:0:
383,141,20859,1,8,0:0:0:0:
400,144,20938,1,8,0:0:0:0:
417,199,21096,1,0,0:0:0:0:
399,229,21254,1,12,0:0:0:0:
383,260,21412,1,12,0:0:0:0:
398,192,21570,1,0,0:0:0:0:
363,188,21728,1,0,0:0:0:0:
345,187,21807,1,0,0:0:0:0:
347,169,21886,1,8,0:0:0:0:
366,139,22043,1,0,0:0:0:0:
383,141,22122,1,8,0:0:0:0:
400,144,22201,1,8,0:0:0:0:
417,199,22359,1,0,0:0:0:0:
399,229,22517,1,12,0:0:0:0:
383,260,22675,1,12,0:0:0:0:
348,268,22833,5,8,0:0:0:0:
313,262,22991,1,4,0:0:0:0:
252,232,23307,1,8,0:0:0:0:
286,227,23465,1,8,0:0:0:0:
320,221,23623,1,0,0:0:0:0:
351,206,23781,1,8,0:0:0:0:
383,193,23939,1,0,0:0:0:0:
402,222,24097,1,8,0:0:0:0:
423,194,24254,1,0,0:0:0:0:
391,178,24412,1,8,0:0:0:0:
402,222,24570,1,8,0:0:0:0:
433,237,24728,1,0,0:0:0:0:
442,203,24886,1,8,0:0:0:0:
430,169,25044,1,8,0:0:0:0:
411,198,25202,1,0,0:0:0:0:
151,225,25359,1,0,0:0:0:0:
183,237,25517,1,0,0:0:0:0:
217,234,25675,1,0,0:0:0:0:
252,232,25833,1,8,0:0:0:0:
286,227,25991,1,8,0:0:0:0:
320,221,26149,1,0,0:0:0:0:
351,206,26307,1,8,0:0:0:0:
383,193,26465,1,0,0:0:0:0:
402,222,26623,1,8,0:0:0:0:
423,194,26780,1,0,0:0:0:0:
391,178,26938,1,8,0:0:0:0:
402,222,27096,1,8,0:0:0:0:
433,237,27254,1,0,0:0:0:0:
442,203,27412,1,8,0:0:0:0:
430,169,27570,1,8,0:0:0:0:
411,198,27728,1,0,0:0:0:0:
376,191,27886,5,8,0:0:0:0:
341,197,28044,1,4,0:0:0:0:
252,232,28359,1,8,0:0:0:0:
286,227,28517,1,8,0:0:0:0:
320,221,28675,1,0,0:0:0:0:
351,206,28833,1,8,0:0:0:0:
383,193,28991,1,0,0:0:0:0:
402,222,29149,1,8,0:0:0:0:
423,194,29306,1,0,0:0:0:0:
391,178,29464,1,8,0:0:0:0:
402,222,29622,1,8,0:0:0:0:
433,237,29780,1,0,0:0:0:0:
442,203,29938,1,8,0:0:0:0:
430,169,30096,1,8,0:0:0:0:
411,198,30254,1,0,0:0:0:0:
151,225,30411,1,0,0:0:0:0:
183,237,30569,1,0,0:0:0:0:
217,234,30727,1,0,0:0:0:0:
252,232,30885,1,8,0:0:0:0:
286,227,31043,1,8,0:0:0:0:
320,221,31201,1,0,0:0:0:0:
351,206,31359,1,8,0:0:0:0:
383,193,31517,1,0,0:0:0:0:
402,222,31675,1,8,0:0:0:0:
423,194,31832,1,0,0:0:0:0:
391,178,31990,1,8,0:0:0:0:
402,222,32148,1,8,0:0:0:0:
433,237,32306,1,0,0:0:0:0:
442,203,32464,1,8,0:0:0:0:
430,169,32622,1,8,0:0:0:0:
411,198,32780,1,0,0:0:0:0:
376,202,32938,5,0,0:0:0:0:
430,169,33096,1,8,0:0:0:0:
458,189,33254,1,0,0:0:0:0:
458,189,33412,1,8,0:0:0:0:
447,155,33570,1,0,0:0:0:0:
442,203,33728,1,8,0:0:0:0:
442,203,33886,1,0,0:0:0:0:
408,191,34044,1,8,0:0:0:0:
373,188,34201,1,0,0:0:0:0:
401,208,34359,1,8,0:0:0:0:
412,220,34438,1,8,0:0:0:0:
408,191,34517,1,0,0:0:0:0:
440,205,34675,1,8,0:0:0:0:
456,212,34754,1,8,0:0:0:0:
458,189,34833,1,0,0:0:0:0:
458,189,34991,1,8,0:0:0:0:
441,184,35070,1,8,0:0:0:0:
442,203,35149,1,0,0:0:0:0:
424,204,35228,1,0,0:0:0:0:
442,203,35307,1,8,0:0:0:0:
432,217,35465,1,4,0:0:0:0:
24,117,37437,5,0,0:0:0:0:
58,121,37594,1,8,0:0:0:0:
92,125,37752,1,0,0:0:0:0:
126,129,37910,1,8,0:0:0:0:
160,133,38068,1,0,0:0:0:0:
194,136,38226,1,8,0:0:0:0:
228,140,38384,1,0,0:0:0:0:
262,146,38542,1,8,0:0:0:0:
262,181,38701,1,0,0:0:0:0:
295,192,38859,1,8,0:0:0:0:
311,197,38938,1,8,0:0:0:0:
326,205,39016,1,0,0:0:0:0:
360,200,39174,1,8,0:0:0:0:
377,198,39253,1,8,0:0:0:0:
388,211,39332,1,0,0:0:0:0:
412,186,39490,1,8,0:0:0:0:
423,172,39569,1,8,0:0:0:0:
407,163,39648,1,0,0:0:0:0:
433,185,39806,1,8,0:0:0:0:
445,197,39885,1,8,0:0:0:0:
445,214,39964,1,0,0:0:0:0:
445,231,40043,1,0,0:0:0:0:
431,241,40122,1,8,0:0:0:0:
326,205,40280,1,0,0:0:0:0:
319,221,40359,1,0,0:0:0:0:
304,210,40438,1,8,0:0:0:0:
287,179,40595,1,0,0:0:0:0:
278,163,40674,1,0,0:0:0:0:
295,159,40753,1,8,0:0:0:0:
329,157,40911,1,0,0:0:0:0:
346,156,40990,1,0,0:0:0:0:
445,197,41069,1,8,0:0:0:0:
429,228,41227,1,0,0:0:0:0:
418,241,41306,1,0,0:0:0:0:
405,253,41385,1,8,0:0:0:0:
391,263,41464,1,8,0:0:0:0:
374,269,41543,1,0,0:0:0:0:
357,275,41622,1,0,0:0:0:0:
339,273,41701,1,8,0:0:0:0:
304,278,41859,1,0,0:0:0:0:
287,283,41938,1,0,0:0:0:0:
271,276,42016,1,8,0:0:0:0:
254,271,42095,1,8,0:0:0:0:
244,256,42174,1,0,0:0:0:0:
234,241,42253,1,0,0:0:0:0:
229,223,42332,1,8,0:0:0:0:
258,203,42490,5,4,0:0:0:0:
292,197,42648,1,0,0:0:0:0:
309,194,42727,1,0,0:0:0:0:
326,190,42806,1,8,0:0:0:0:
359,200,42964,1,0,0:0:0:0:
390,185,43122,1,8,0:0:0:0:
407,183,43201,1,0,0:0:0:0:
424,182,43280,1,0,0:0:0:0:
441,181,43359,1,0,0:0:0:0:
457,175,43438,1,8,0:0:0:0:
254,271,43595,1,0,0:0:0:0:
287,259,43753,1,8,0:0:0:0:
304,256,43832,1,0,0:0:0:0:
321,254,43911,1,0,0:0:0:0:
338,254,43990,1,0,0:0:0:0:
354,249,44069,1,8,0:0:0:0:
388,253,44227,1,0,0:0:0:0:
396,218,44385,1,8,0:0:0:0:
413,215,44464,1,0,0:0:0:0:
430,214,44543,1,0,0:0:0:0:
447,214,44622,1,0,0:0:0:0:
442,197,44701,1,8,0:0:0:0:
424,182,44859,1,0,0:0:0:0:
431,148,45016,1,8,0:0:0:0:
424,182,45095,1,0,0:0:0:0:
424,182,45174,1,0,0:0:0:0:
455,167,45332,1,8,0:0:0:0:
458,184,45411,1,0,0:0:0:0:
458,184,45490,1,0,0:0:0:0:
455,167,45648,1,8,0:0:0:0:
463,182,45727,1,0,0:0:0:0:
460,199,45806,1,0,0:0:0:0:
457,216,45885,1,0,0:0:0:0:
442,197,45964,1,8,0:0:0:0:
412,215,46122,1,0,0:0:0:0:
395,183,46280,1,8,0:0:0:0:
382,170,46359,1,0,0:0:0:0:
382,170,46438,1,0,0:0:0:0:
416,172,46595,1,8,0:0:0:0:
405,186,46674,1,0,0:0:0:0:
394,200,46753,1,0,0:0:0:0:
370,174,46911,1,8,0:0:0:0:
365,190,46990,1,0,0:0:0:0:
360,206,47069,1,0,0:0:0:0:
355,222,47148,1,0,0:0:0:0:
368,232,47227,1,8,0:0:0:0:
298,225,47543,5,0,0:0:0:0:
280,223,47622,1,0,0:0:0:0:
269,208,47701,1,8,0:0:0:0:
299,190,47859,1,0,0:0:0:0:
314,181,47938,1,0,0:0:0:0:
382,170,48016,1,8,0:0:0:0:
413,186,48174,1,0,0:0:0:0:
426,196,48253,1,0,0:0:0:0:
442,190,48332,1,8,0:0:0:0:
458,185,48411,1,8,0:0:0:0:
466,200,48490,1,0,0:0:0:0:
450,231,48648,1,8,0:0:0:0:
415,222,48806,1,0,0:0:0:0:
397,218,48885,1,0,0:0:0:0:
401,201,48964,1,8,0:0:0:0:
403,183,49043,1,8,0:0:0:0:
442,190,49122,1,0,0:0:0:0:
439,155,49280,1,8,0:0:0:0:
426,196,49438,1,0,0:0:0:0:
428,213,49516,1,0,0:0:0:0:
413,186,49595,1,8,0:0:0:0:
413,186,49674,1,8,0:0:0:0:
458,185,49753,1,0,0:0:0:0:
415,222,49911,1,8,0:0:0:0:
388,198,50069,1,0,0:0:0:0:
372,190,50148,1,0,0:0:0:0:
439,155,50227,1,8,0:0:0:0:
439,155,50306,1,8,0:0:0:0:
455,161,50385,1,0,0:0:0:0:
471,167,50464,1,0,0:0:0:0:
462,182,50543,1,8,0:0:0:0:
453,197,50622,1,8,0:0:0:0:
415,222,50701,1,0,0:0:0:0:
415,222,50780,1,0,0:0:0:0:
426,196,50859,1,8,0:0:0:0:
426,196,50938,1,8,0:0:0:0:
409,200,51016,1,0,0:0:0:0:
392,204,51095,1,0,0:0:0:0:
372,190,51174,1,8,0:0:0:0:
337,195,51332,1,0,0:0:0:0:
319,198,51411,1,0,0:0:0:0:
326,213,51490,1,8,0:0:0:0:
332,229,51569,1,8,0:0:0:0:
337,245,51648,1,8,0:0:0:0:
364,184,51806,1,0,0:0:0:0:
358,218,51964,1,0,0:0:0:0:
368,251,52122,1,0,0:0:0:0:
373,267,52201,1,0,0:0:0:0:
372,190,52280,1,8,0:0:0:0:
405,180,52438,1,8,0:0:0:0:
405,180,52516,1,8,0:0:0:0:
258,203,52595,5,0,0:0:0:0:
292,197,52753,1,0,0:0:0:0:
309,194,52832,1,0,0:0:0:0:
326,190,52911,1,8,0:0:0:0:
359,200,53069,1,0,0:0:0:0:
390,185,53227,1,8,0:0:0:0:
407,183,53306,1,0,0:0:0:0:
424,182,53385,1,0,0:0:0:0:
441,181,53464,1,0,0:0:0:0:
457,175,53543,1,8,0:0:0:0:
254,271,53700,1,0,0:0:0:0:
287,259,53858,1,8,0:0:0:0:
304,256,53937,1,0,0:0:0:0:
321,254,54016,1,0,0:0:0:0:
338,254,54095,1,0,0:0:0:0:
354,249,54174,1,8,0:0:0:0:
388,253,54332,1,0,0:0:0:0:
396,218,54490,1,8,0:0:0:0:
413,215,54569,1,0,0:0:0:0:
430,214,54648,1,0,0:0:0:0:
447,214,54727,1,0,0:0:0:0:
442,197,54806,1,8,0:0:0:0:
424,182,54964,1,0,0:0:0:0:
431,148,55121,1,8,0:0:0:0:
424,182,55200,1,0,0:0:0:0:
424,182,55279,1,0,0:0:0:0:
455,167,55437,1,8,0:0:0:0:
458,184,55516,1,0,0:0:0:0:
458,184,55595,1,0,0:0:0:0:
455,167,55753,1,8,0:0:0:0:
463,182,55832,1,0,0:0:0:0:
460,199,55911,1,0,0:0:0:0:
457,216,55990,1,0,0:0:0:0:
442,197,56069,1,8,0:0:0:0:
412,215,56227,1,0,0:0:0:0:
395,183,56385,1,8,0:0:0:0:
382,170,56464,1,0,0:0:0:0:
382,170,56543,1,0,0:0:0:0:
416,172,56700,1,8,0:0:0:0:
405,186,56779,1,0,0:0:0:0:
394,200,56858,1,0,0:0:0:0:
370,174,57016,1,8,0:0:0:0:
365,190,57095,1,0,0:0:0:0:
360,206,57174,1,0,0:0:0:0:
355,222,57253,1,0,0:0:0:0:
368,232,57332,1,8,0:0:0:0:
298,225,57648,5,0,0:0:0:0:
280,223,57727,1,0,0:0:0:0:
269,208,57806,1,8,0:0:0:0:
299,190,57964,1,0,0:0:0:0:
314,181,58043,1,0,0:0:0:0:
382,170,58121,1,8,0:0:0:0:
413,186,58279,1,0,0:0:0:0:
426,196,58358,1,0,0:0:0:0:
442,190,58437,1,8,0:0:0:0:
458,185,58516,1,8,0:0:0:0:
466,200,58595,1,0,0:0:0:0:
450,231,58753,1,8,0:0:0:0:
416,224,58911,1,0,0:0:0:0:
400,216,58990,1,8,0:0:0:0:
384,208,59069,1,8,0:0:0:0:
382,170,59227,1,0,0:0:0:0:
400,168,59306,1,8,0:0:0:0:
400,168,59385,1,8,0:0:0:0:
413,186,59543,1,0,0:0:0:0:
442,190,59622,1,8,0:0:0:0:
442,190,59701,1,8,0:0:0:0:
426,196,59780,1,8,0:0:0:0:
413,186,59859,1,0,0:0:0:0:
400,216,60016,1,8,0:0:0:0:
388,198,60174,1,0,0:0:0:0:
372,190,60253,1,0,0:0:0:0:
439,155,60332,1,8,0:0:0:0:
439,155,60411,1,8,0:0:0:0:
455,161,60490,1,0,0:0:0:0:
471,167,60569,1,0,0:0:0:0:
462,182,60648,1,8,0:0:0:0:
453,197,60727,1,8,0:0:0:0:
415,222,60806,1,0,0:0:0:0:
415,222,60885,1,0,0:0:0:0:
426,196,60964,1,8,0:0:0:0:
426,196,61043,1,8,0:0:0:0:
409,200,61121,1,0,0:0:0:0:
392,204,61200,1,8,0:0:0:0:
372,190,61279,1,8,0:0:0:0:
360,224,61438,2,0,B|56:272|40:24,1,420
109,64,62701,5,4,0:0:0:0:
139,80,62859,1,0,0:0:0:0:
154,88,62938,1,0,0:0:0:0:
170,92,63016,1,8,0:0:0:0:
203,101,63174,1,0,0:0:0:0:
219,106,63253,1,0,0:0:0:0:
235,111,63332,1,0,0:0:0:0:
268,122,63490,1,0,0:0:0:0:
284,127,63569,1,0,0:0:0:0:
300,131,63648,1,8,0:0:0:0:
331,146,63806,1,0,0:0:0:0:
345,156,63885,1,0,0:0:0:0:
358,167,63964,1,0,0:0:0:0:
375,197,64122,1,0,0:0:0:0:
383,212,64201,1,0,0:0:0:0:
400,212,64280,1,8,0:0:0:0:
370,231,64438,1,0,0:0:0:0:
356,241,64516,1,0,0:0:0:0:
372,236,64595,1,8,0:0:0:0:
389,235,64674,1,0,0:0:0:0:
403,244,64753,1,0,0:0:0:0:
396,209,64911,1,12,0:0:0:0:
361,202,65069,1,12,0:0:0:0:
109,64,65227,1,0,0:0:0:0:
139,80,65385,1,0,0:0:0:0:
154,88,65464,1,0,0:0:0:0:
170,92,65542,1,8,0:0:0:0:
203,101,65700,1,0,0:0:0:0:
219,106,65779,1,0,0:0:0:0:
235,111,65858,1,0,0:0:0:0:
268,122,66016,1,0,0:0:0:0:
284,127,66095,1,0,0:0:0:0:
300,131,66174,1,8,0:0:0:0:
331,146,66332,1,0,0:0:0:0:
345,156,66411,1,0,0:0:0:0:
358,167,66490,1,0,0:0:0:0:
375,197,66648,1,0,0:0:0:0:
383,212,66727,1,0,0:0:0:0:
400,212,66806,1,8,0:0:0:0:
370,231,66964,1,0,0:0:0:0:
356,241,67042,1,0,0:0:0:0:
372,236,67121,1,8,0:0:0:0:
389,235,67200,1,0,0:0:0:0:
403,244,67279,1,0,0:0:0:0:
396,209,67437,1,12,0:0:0:0:
361,202,67595,1,12,0:0:0:0:
328,189,67753,5,0,0:0:0:0:
302,165,67911,1,0,0:0:0:0:
319,163,67990,1,8,0:0:0:0:
336,161,68069,1,8,0:0:0:0:
370,162,68227,1,0,0:0:0:0:
387,163,68306,1,0,0:0:0:0:
404,164,68385,1,0,0:0:0:0:
422,193,68543,1,0,0:0:0:0:
435,204,68622,1,8,0:0:0:0:
446,216,68701,1,8,0:0:0:0:
403,244,68859,1,0,0:0:0:0:
395,260,68938,1,0,0:0:0:0:
395,260,69016,1,0,0:0:0:0:
360,252,69174,1,0,0:0:0:0:
342,249,69253,1,8,0:0:0:0:
324,247,69332,1,8,0:0:0:0:
315,213,69490,1,0,0:0:0:0:
370,162,69569,1,8,0:0:0:0:
370,162,69648,1,8,0:0:0:0:
370,162,69727,1,8,0:0:0:0:
404,164,69806,1,0,0:0:0:0:
438,167,69964,1,12,0:0:0:0:
419,197,70122,1,12,0:0:0:0:
384,191,70280,1,0,0:0:0:0:
350,179,70438,1,0,0:0:0:0:
333,173,70516,1,0,0:0:0:0:
344,160,70595,1,8,0:0:0:0:
370,162,70753,1,0,0:0:0:0:
419,197,70832,1,8,0:0:0:0:
419,197,70911,1,8,0:0:0:0:
411,212,70990,1,8,0:0:0:0:
427,218,71069,1,0,0:0:0:0:
394,231,71227,1,12,0:0:0:0:
370,256,71385,1,12,0:0:0:0:
384,191,71543,1,0,0:0:0:0:
350,179,71701,1,0,0:0:0:0:
333,173,71779,1,0,0:0:0:0:
344,160,71858,1,8,0:0:0:0:
370,162,72016,1,0,0:0:0:0:
419,197,72095,1,8,0:0:0:0:
419,197,72174,1,8,0:0:0:0:
411,212,72253,1,8,0:0:0:0:
427,218,72332,1,0,0:0:0:0:
394,231,72490,1,12,0:0:0:0:
370,256,72648,1,12,0:0:0:0:
348,268,72806,5,8,0:0:0:0:
313,262,72964,1,4,0:0:0:0:
252,232,73280,1,8,0:0:0:0:
286,227,73438,1,8,0:0:0:0:
320,221,73596,1,0,0:0:0:0:
351,206,73754,1,8,0:0:0:0:
383,193,73912,1,0,0:0:0:0:
402,222,74070,1,8,0:0:0:0:
423,194,74227,1,0,0:0:0:0:
391,178,74385,1,8,0:0:0:0:
402,222,74543,1,8,0:0:0:0:
433,237,74701,1,0,0:0:0:0:
442,203,74859,1,8,0:0:0:0:
430,169,75017,1,8,0:0:0:0:
411,198,75175,1,0,0:0:0:0:
151,225,75332,1,0,0:0:0:0:
183,237,75490,1,0,0:0:0:0:
217,234,75648,1,0,0:0:0:0:
252,232,75806,1,8,0:0:0:0:
286,227,75964,1,8,0:0:0:0:
320,221,76122,1,0,0:0:0:0:
351,206,76280,1,8,0:0:0:0:
383,193,76438,1,0,0:0:0:0:
402,222,76596,1,8,0:0:0:0:
423,194,76753,1,0,0:0:0:0:
391,178,76911,1,8,0:0:0:0:
402,222,77069,1,8,0:0:0:0:
433,237,77227,1,0,0:0:0:0:
442,203,77385,1,8,0:0:0:0:
430,169,77543,1,8,0:0:0:0:
411,198,77701,1,0,0:0:0:0:
376,191,77859,5,8,0:0:0:0:
341,197,78017,1,4,0:0:0:0:
252,232,78332,1,8,0:0:0:0:
286,227,78490,1,8,0:0:0:0:
320,221,78648,1,0,0:0:0:0:
351,206,78806,1,8,0:0:0:0:
383,193,78964,1,0,0:0:0:0:
402,222,79122,1,8,0:0:0:0:
423,194,79279,1,0,0:0:0:0:
391,178,79437,1,8,0:0:0:0:
402,222,79595,1,8,0:0:0:0:
433,237,79753,1,0,0:0:0:0:
442,203,79911,1,8,0:0:0:0:
430,169,80069,1,8,0:0:0:0:
411,198,80227,1,0,0:0:0:0:
151,225,80384,1,0,0:0:0:0:
183,237,80542,1,0,0:0:0:0:
217,234,80700,1,0,0:0:0:0:
252,232,80858,1,8,0:0:0:0:
286,227,81016,1,8,0:0:0:0:
320,221,81174,1,0,0:0:0:0:
351,206,81332,1,8,0:0:0:0:
383,193,81490,1,0,0:0:0:0:
402,222,81648,1,8,0:0:0:0:
423,194,81805,1,0,0:0:0:0:
391,178,81963,1,8,0:0:0:0:
402,222,82121,1,8,0:0:0:0:
433,237,82279,1,0,0:0:0:0:
442,203,82437,1,8,0:0:0:0:
430,169,82595,1,8,0:0:0:0:
411,198,82753,1,0,0:0:0:0:
376,195,82911,5,0,0:0:0:0:
368,160,83069,1,8,0:0:0:0:
403,160,83227,1,0,0:0:0:0:
430,169,83385,1,8,0:0:0:0:
403,160,83543,1,0,0:0:0:0:
368,160,83701,1,8,0:0:0:0:
430,169,83859,1,0,0:0:0:0:
403,160,84016,1,8,0:0:0:0:
376,195,84174,1,0,0:0:0:0:
368,160,84332,1,8,0:0:0:0:
362,176,84411,1,8,0:0:0:0:
403,160,84490,1,0,0:0:0:0:
430,169,84648,1,8,0:0:0:0:
416,180,84727,1,8,0:0:0:0:
403,160,84806,1,0,0:0:0:0:
368,160,84964,1,8,0:0:0:0:
361,176,85043,1,8,0:0:0:0:
430,169,85122,1,0,0:0:0:0:
403,160,85279,1,8,0:0:0:0:
401,177,85359,1,8,0:0:0:0:
376,195,85438,1,0,0:0:0:0:
368,160,85596,1,8,0:0:0:0:
403,160,85754,1,0,0:0:0:0:
430,169,85912,1,8,0:0:0:0:
403,160,86070,1,0,0:0:0:0:
368,160,86228,1,8,0:0:0:0:
430,169,86386,1,0,0:0:0:0:
403,160,86543,1,8,0:0:0:0:
376,195,86701,1,0,0:0:0:0:
368,160,86859,1,8,0:0:0:0:
362,176,86938,1,8,0:0:0:0:
403,160,87017,1,0,0:0:0:0:
430,169,87175,1,8,0:0:0:0:
416,180,87254,1,8,0:0:0:0:
403,160,87333,1,0,0:0:0:0:
368,160,87491,1,8,0:0:0:0:
361,176,87570,1,8,0:0:0:0:
430,169,87649,1,0,0:0:0:0:
403,160,87806,1,8,0:0:0:0:
401,177,87886,1,8,0:0:0:0:
387,187,87964,5,0,0:0:0:0:
372,197,88043,1,0,0:0:0:0:
384,209,88122,1,8,0:0:0:0:
395,242,88280,1,0,0:0:0:0:
401,258,88359,1,0,0:0:0:0:
411,244,88438,1,8,0:0:0:0:
442,229,88595,1,0,0:0:0:0:
442,229,88674,1,0,0:0:0:0:
449,213,88753,1,8,0:0:0:0:
416,199,88911,1,0,0:0:0:0:
416,199,88990,1,0,0:0:0:0:
387,187,89069,1,8,0:0:0:0:
387,187,89227,1,0,0:0:0:0:
372,197,89306,1,0,0:0:0:0:
384,209,89385,1,8,0:0:0:0:
395,242,89543,1,0,0:0:0:0:
401,258,89622,1,0,0:0:0:0:
411,244,89701,1,8,0:0:0:0:
442,229,89858,1,0,0:0:0:0:
442,229,89937,1,0,0:0:0:0:
449,213,90016,1,8,0:0:0:0:
416,199,90174,1,0,0:0:0:0:
416,199,90253,1,0,0:0:0:0:
387,187,90332,1,8,0:0:0:0:
387,187,90490,1,0,0:0:0:0:
372,197,90569,1,0,0:0:0:0:
384,209,90648,1,8,0:0:0:0:
366,205,90727,1,0,0:0:0:0:
395,242,90806,1,0,0:0:0:0:
401,258,90885,1,0,0:0:0:0:
411,244,90964,1,8,0:0:0:0:
442,229,91121,1,0,0:0:0:0:
442,229,91200,1,0,0:0:0:0:
449,213,91279,1,8,0:0:0:0:
431,210,91359,1,0,0:0:0:0:
416,199,91437,1,0,0:0:0:0:
416,199,91516,1,0,0:0:0:0:
387,187,91595,1,8,0:0:0:0:
387,187,91753,1,0,0:0:0:0:
372,197,91832,1,0,0:0:0:0:
384,209,91911,1,8,0:0:0:0:
366,205,91990,1,8,0:0:0:0:
395,242,92069,1,0,0:0:0:0:
401,258,92148,1,0,0:0:0:0:
411,244,92227,1,8,0:0:0:0:
442,229,92384,1,0,0:0:0:0:
442,229,92463,1,0,0:0:0:0:
449,213,92542,1,8,0:0:0:0:
431,210,92622,1,8,0:0:0:0:
416,199,92700,1,0,0:0:0:0:
416,199,92779,1,0,0:0:0:0:
387,187,92858,1,8,0:0:0:0:
387,187,93016,1,0,0:0:0:0:
372,197,93095,1,0,0:0:0:0:
384,209,93174,1,8,0:0:0:0:
366,205,93253,1,0,0:0:0:0:
395,242,93332,1,0,0:0:0:0:
401,258,93411,1,0,0:0:0:0:
411,244,93490,1,8,0:0:0:0:
398,231,93569,1,0,0:0:0:0:
442,229,93647,1,0,0:0:0:0:
442,229,93726,1,0,0:0:0:0:
449,213,93805,1,8,0:0:0:0:
431,210,93885,1,8,0:0:0:0:
416,199,93963,1,0,0:0:0:0:
416,199,94042,1,0,0:0:0:0:
387,187,94121,1,8,0:0:0:0:
352,180,94280,5,0,0:0:0:0:
320,176,94438,1,0,0:0:0:0:
304,176,94516,1,0,0:0:0:0:
288,176,94595,1,8,0:0:0:0:
272,168,94674,1,8,0:0:0:0:
256,168,94753,1,0,0:0:0:0:
256,168,94911,1,8,0:0:0:0:
256,168,94990,1,8,0:0:0:0:
256,168,95069,1,0,0:0:0:0:
256,168,95148,1,0,0:0:0:0:
256,168,95227,1,8,0:0:0:0:
256,168,95306,1,8,0:0:0:0:
256,168,95385,1,0,0:0:0:0:
256,168,95543,1,8,0:0:0:0:
256,168,95622,1,8,0:0:0:0:
256,168,95701,1,0,0:0:0:0:
256,168,95859,1,8,0:0:0:0:
256,168,95938,1,8,0:0:0:0:
256,168,96016,1,0,0:0:0:0:
256,168,96174,1,8,0:0:0:0:
256,168,96253,1,8,0:0:0:0:
256,168,96332,1,0,0:0:0:0:
256,168,96411,1,0,0:0:0:0:
256,168,96490,1,8,0:0:0:0:
256,168,96569,1,8,0:0:0:0:
256,168,96648,1,0,0:0:0:0:
256,168,96806,1,8,0:0:0:0:
256,168,96885,1,0,0:0:0:0:
256,168,96964,1,0,0:0:0:0:
256,168,97122,1,8,0:0:0:0:
256,168,97201,1,0,0:0:0:0:
256,168,97279,1,0,0:0:0:0:
256,168,97437,1,8,0:0:0:0:
256,168,97516,1,0,0:0:0:0:
256,168,97595,1,0,0:0:0:0:
256,168,97674,1,0,0:0:0:0:
256,168,97753,1,8,0:0:0:0:
256,168,97832,1,0,0:0:0:0:
256,168,97911,1,0,0:0:0:0:
256,168,98069,1,8,0:0:0:0:
256,168,98148,1,0,0:0:0:0:
256,168,98227,1,0,0:0:0:0:
256,168,98385,1,8,0:0:0:0:
256,168,98464,1,0,0:0:0:0:
256,168,98542,1,0,0:0:0:0:
288,176,98701,1,0,0:0:0:0:
304,176,98780,1,0,0:0:0:0:
320,176,98859,1,8,0:0:0:0:
336,176,98938,1,8,0:0:0:0:
352,176,99016,1,0,0:0:0:0:
368,176,99095,1,0,0:0:0:0:
384,176,99174,1,8,0:0:0:0:
400,176,99253,1,8,0:0:0:0:
416,192,99332,5,0,0:0:0:0:
320,176,99490,1,0,0:0:0:0:
304,176,99568,1,0,0:0:0:0:
288,176,99647,1,8,0:0:0:0:
272,168,99726,1,8,0:0:0:0:
256,168,99805,1,0,0:0:0:0:
256,168,99963,1,8,0:0:0:0:
256,168,100042,1,8,0:0:0:0:
256,168,100121,1,0,0:0:0:0:
256,168,100200,1,0,0:0:0:0:
256,168,100279,1,8,0:0:0:0:
256,168,100358,1,8,0:0:0:0:
256,168,100437,1,0,0:0:0:0:
256,168,100595,1,8,0:0:0:0:
256,168,100674,1,8,0:0:0:0:
256,168,100753,1,0,0:0:0:0:
256,168,100911,1,8,0:0:0:0:
256,168,100990,1,8,0:0:0:0:
256,168,101068,1,0,0:0:0:0:
256,168,101226,1,8,0:0:0:0:
256,168,101305,1,8,0:0:0:0:
256,168,101384,1,0,0:0:0:0:
256,168,101463,1,0,0:0:0:0:
256,168,101542,1,8,0:0:0:0:
256,168,101621,1,8,0:0:0:0:
256,168,101700,1,0,0:0:0:0:
256,168,101858,1,8,0:0:0:0:
256,168,101937,1,0,0:0:0:0:
256,168,102016,1,0,0:0:0:0:
256,168,102174,1,8,0:0:0:0:
256,168,102253,1,0,0:0:0:0:
256,168,102331,1,0,0:0:0:0:
256,168,102489,1,8,0:0:0:0:
256,168,102568,1,0,0:0:0:0:
256,168,102647,1,0,0:0:0:0:
256,168,102726,1,0,0:0:0:0:
256,168,102805,1,8,0:0:0:0:
256,168,102884,1,0,0:0:0:0:
256,168,102963,1,0,0:0:0:0:
256,168,103121,1,8,0:0:0:0:
256,168,103200,1,0,0:0:0:0:
256,168,103279,1,0,0:0:0:0:
256,168,103437,1,8,0:0:0:0:
256,168,103516,1,0,0:0:0:0:
256,168,103594,1,0,0:0:0:0:
288,176,103753,1,0,0:0:0:0:
304,176,103832,1,0,0:0:0:0:
320,176,103911,1,8,0:0:0:0:
336,176,103990,1,8,0:0:0:0:
352,176,104068,1,0,0:0:0:0:
368,176,104147,1,0,0:0:0:0:
384,176,104226,1,8,0:0:0:0:
400,176,104305,1,8,0:0:0:0:
416,192,104384,5,0,0:0:0:0:
384,208,104543,1,0,0:0:0:0:
368,216,104622,1,0,0:0:0:0:
352,216,104701,1,8,0:0:0:0:
336,216,104780,1,8,0:0:0:0:
320,216,104859,1,0,0:0:0:0:
288,232,105016,1,8,0:0:0:0:
272,240,105095,1,0,0:0:0:0:
256,248,105174,1,0,0:0:0:0:
240,256,105253,1,0,0:0:0:0:
224,264,105332,1,8,0:0:0:0:
224,264,105490,1,8,0:0:0:0:
272,240,105648,1,8,0:0:0:0:
272,240,105727,1,8,0:0:0:0:
272,240,105806,1,0,0:0:0:0:
272,240,105885,1,0,0:0:0:0:
272,240,105964,1,8,0:0:0:0:
272,240,106043,1,8,0:0:0:0:
272,240,106122,1,0,0:0:0:0:
288,232,106280,1,8,0:0:0:0:
272,240,106359,1,0,0:0:0:0:
256,248,106438,1,0,0:0:0:0:
240,256,106517,1,0,0:0:0:0:
224,264,106596,1,8,0:0:0:0:
224,264,106754,1,8,0:0:0:0:
256,248,106911,1,8,0:0:0:0:
272,240,106990,1,0,0:0:0:0:
288,232,107069,1,0,0:0:0:0:
304,232,107148,1,0,0:0:0:0:
320,224,107227,1,8,0:0:0:0:
352,216,107385,1,0,0:0:0:0:
384,200,107543,1,8,0:0:0:0:
400,192,107622,1,0,0:0:0:0:
416,184,107701,1,0,0:0:0:0:
432,184,107780,1,0,0:0:0:0:
448,176,107859,1,8,0:0:0:0:
448,176,108016,1,0,0:0:0:0:
413,174,108174,1,8,0:0:0:0:
395,173,108253,1,0,0:0:0:0:
377,172,108332,1,0,0:0:0:0:
342,170,108490,1,8,0:0:0:0:
324,169,108569,1,0,0:0:0:0:
306,168,108648,1,0,0:0:0:0:
271,166,108806,1,8,0:0:0:0:
253,165,108885,1,0,0:0:0:0:
235,164,108964,1,0,0:0:0:0:
217,163,109043,1,0,0:0:0:0:
199,162,109122,1,8,0:0:0:0:
298,225,109438,5,0,0:0:0:0:
280,223,109517,1,0,0:0:0:0:
269,208,109596,1,8,0:0:0:0:
299,190,109754,1,0,0:0:0:0:
314,181,109833,1,0,0:0:0:0:
382,170,109911,1,8,0:0:0:0:
413,186,110069,1,0,0:0:0:0:
426,196,110148,1,0,0:0:0:0:
442,190,110227,1,8,0:0:0:0:
458,185,110306,1,8,0:0:0:0:
466,200,110385,1,0,0:0:0:0:
451,209,110464,1,0,0:0:0:0:
450,231,110543,1,8,0:0:0:0:
416,224,110701,1,0,0:0:0:0:
458,185,110780,1,8,0:0:0:0:
458,185,110859,1,8,0:0:0:0:
458,185,111016,1,0,0:0:0:0:
458,185,111095,1,8,0:0:0:0:
458,185,111174,1,8,0:0:0:0:
424,184,111332,1,0,0:0:0:0:
382,170,111411,1,8,0:0:0:0:
382,170,111490,1,8,0:0:0:0:
382,170,111569,1,8,0:0:0:0:
400,168,111648,1,0,0:0:0:0:
416,168,111727,1,8,0:0:0:0:
432,168,111806,1,8,0:0:0:0:
365,211,111964,1,4,0:0:0:0:
186,100,112911,6,0,B|100:314|100:314|491:87|491:87|407:345|407:345|126:198,1,1260
