osu file format v12

[General]
AudioFilename: Fantazindy.mp3
AudioLeadIn: 0
PreviewTime: 111081
Countdown: 0
SampleSet: Soft
StackLeniency: 0.7
Mode: 0
LetterboxInBreaks: 1
WidescreenStoryboard: 1

[Editor]
DistanceSpacing: 1.1
BeatDivisor: 6
GridSize: 4
TimelineZoom: 1

[Metadata]
Title:Fantazindy
TitleUnicode:Fantazindy
Artist:RYO
ArtistUnicode:RYO
Creator:hoshisorakiseki
Version:HD
Source:o2jam
Tags:重生共鸣曲 劲乐团 QQ音速 自制音速 r2beat r2noter sun_rainbow
BeatmapID:333512
BeatmapSetID:132579

[Difficulty]
HPDrainRate:5
CircleSize:4
OverallDifficulty:7
ApproachRate:7
SliderMultiplier:1.4
SliderTickRate:1

[Events]
//Background and Video events
0,0,"bkg.jpg",0,0
//Break Periods
2,79784,83184
//Storyboard Layer 0 (Background)
//Storyboard Layer 1 (Fail)
//Storyboard Layer 2 (Pass)
//Storyboard Layer 3 (Foreground)
//Storyboard Sound Samples
//Background Colour Transformations
3,100,163,162,255

[TimingPoints]
1111,487.80487804878,4,2,0,30,1,0
18834,487.80487804878,4,2,0,30,1,0
50236,243.90243902439,4,2,0,30,1,0
50236,-200,4,2,0,30,0,0
65845,223.880597014925,4,1,1,45,1,1
65845,-200,4,1,1,45,0,1
73009,205.479452054795,4,1,1,45,1,1
73009,-200,4,1,1,45,0,1
79584,3750,4,2,0,30,1,0
83334,1500,4,2,0,30,1,0
87084,375,4,2,0,30,1,0
99084,-100,4,1,1,40,0,0
111084,187.5,4,1,1,50,1,1
111084,-149.253731343284,4,1,1,50,0,1
135084,375,4,2,0,45,1,0
144084,-100,4,2,0,20,0,0

[HitObjects]
184,120,2818,5,0,0:0:0:0:
156,136,2899,1,0,0:0:0:0:
136,160,2980,1,0,0:0:0:0:
120,188,3062,1,4,0:0:0:0:
200,268,3550,2,0,L|244:304,1,46.6666666666667
264,196,3875,2,0,L|312:240,1,46.6666666666667,0|2,0:0|0:0,0:0:0:0:
192,88,4525,1,0,0:0:0:0:
391,89,5013,6,0,L|324:92,1,46.6666666666667,2|0,0:0|0:0,0:0:0:0:
384,176,5338,2,0,L|336:176,1,46.6666666666667
164,160,5989,1,2,0:0:0:0:
88,216,6151,1,0,0:0:0:0:
176,256,6314,1,0,0:0:0:0:
264,296,6476,1,0,0:0:0:0:
456,248,6964,6,0,P|445:179|397:130,1,140,4|0,0:0|0:0,0:0:0:0:
328,84,7615,1,0,0:0:0:0:
248,64,7777,1,0,0:0:0:0:
164,76,7940,2,0,P|124:112|108:204,1,140,2|0,0:0|0:0,0:0:0:0:
220,180,8915,5,2,0:0:0:0:
300,224,9078,1,0,0:0:0:0:
256,304,9241,1,0,0:0:0:0:
176,260,9403,1,0,0:0:0:0:
88,128,9891,2,0,P|92:88|104:64,2,46.6666666666667,2|0|0,0:0|0:0|0:0,0:0:0:0:
172,120,10379,1,0,0:0:0:0:
360,244,10867,5,4,0:0:0:0:
268,244,11354,2,0,P|272:200|280:188,1,46.6666666666667
448,244,11680,2,0,P|448:268|436:296,1,46.6666666666667,0|2,0:0|0:0,0:0:0:0:
360,120,12330,1,0,0:0:0:0:
152,132,12818,6,0,P|128:136|104:168,1,46.6666666666667,2|0,0:0|0:0,0:0:0:0:
60,252,13143,1,0,0:0:0:0:
24,344,13306,1,0,0:0:0:0:
204,320,13793,1,2,0:0:0:0:
288,252,13956,1,0,0:0:0:0:
376,192,14119,2,0,P|372:164|340:152,1,46.6666666666667
248,108,14769,6,0,P|176:72|116:84,1,140,4|0,0:0|0:0,0:0:0:0:
168,188,15419,2,0,P|168:224|176:240,2,46.6666666666667,0|0|2,0:0|0:0|0:0,0:0:0:0:
280,192,16232,1,0,0:0:0:0:
408,84,16720,6,0,L|408:144,1,46.6666666666667,2|0,0:0|0:0,0:0:0:0:
408,296,17045,2,0,L|408:232,1,46.6666666666667
256,192,17696,12,4,18834,0:0:0:0:
176,136,19077,5,0,0:0:0:0:
144,164,19199,1,0,0:0:0:0:
112,192,19321,1,0,0:0:0:0:
192,308,19809,2,0,L|240:328,2,46.6666666666667,2|0|0,0:0|0:0|0:0,0:0:0:0:
120,308,20297,1,0,0:0:0:0:
32,208,20785,5,2,0:0:0:0:
100,96,21110,1,0,0:0:0:0:
168,136,21273,2,0,L|200:152,3,23.3333333333333
320,96,21760,6,0,P|348:116|352:144,1,46.6666666666667,2|0,0:0|0:0,0:0:0:0:
352,196,22086,2,0,P|344:224|312:232,1,46.6666666666667
248,244,22492,2,0,P|216:264|208:312,1,70,0|2,0:0|0:0,0:0:0:0:
304,324,23224,1,0,0:0:0:0:
376,248,23712,5,2,0:0:0:0:
420,172,23874,1,0,0:0:0:0:
348,128,24037,1,0,0:0:0:0:
384,56,24199,1,0,0:0:0:0:
112,140,24687,1,2,0:0:0:0:
136,212,24850,1,0,0:0:0:0:
208,212,25012,1,0,0:0:0:0:
228,140,25175,2,0,L|240:108,3,23.3333333333333
336,196,25663,6,0,P|396:232|408:308,1,140,2|0,0:0|0:0,0:0:0:0:
320,288,26476,2,0,L|268:316,1,46.6666666666667,0|2,0:0|0:0,0:0:0:0:
156,196,27126,2,0,P|116:204|100:200,1,46.6666666666667
128,112,27451,1,0,0:0:0:0:
220,128,27614,2,0,P|272:124|352:180,1,140,2|0,0:0|0:0,0:0:0:0:
248,264,28590,2,0,P|268:320|352:352,1,140,2|0,0:0|0:0,0:0:0:0:
352,252,29565,1,2,0:0:0:0:
360,120,30053,5,0,0:0:0:0:
280,148,30297,1,0,0:0:0:0:
296,68,30541,1,2,0:0:0:0:
172,88,31029,2,0,P|152:132|156:140,1,46.6666666666667
144,212,31354,1,0,0:0:0:0:
176,300,31516,1,2,0:0:0:0:
360,136,32004,6,0,P|316:156|292:248,1,140,0|2,0:0|0:0,0:0:0:0:
376,228,32655,1,0,0:0:0:0:
452,192,32817,1,0,0:0:0:0:
440,108,32980,2,0,P|416:68|380:56,2,70,0|0|2,0:0|0:0|0:0,0:0:0:0:
176,104,33955,6,0,P|216:128|216:144,1,46.6666666666667
276,196,34281,1,0,0:0:0:0:
336,268,34443,1,4,0:0:0:0:
236,328,34687,1,0,0:0:0:0:
184,340,34809,1,0,0:0:0:0:
132,344,34931,1,0,0:0:0:0:
60,220,35256,2,0,P|44:196|48:180,1,46.6666666666667,0|2,0:0|0:0,0:0:0:0:
180,76,35907,2,0,P|236:72|252:88,2,70,0|0|2,0:0|0:0|0:0,0:0:0:0:
212,176,36882,5,0,0:0:0:0:
184,260,37045,1,0,0:0:0:0:
268,284,37207,1,0,0:0:0:0:
296,200,37370,2,0,P|336:180|384:96,1,140,2|0,0:0|0:0,0:0:0:0:
256,76,38346,1,2,0:0:0:0:
100,104,38833,2,0,P|128:88|156:88,1,46.6666666666667
204,168,39159,2,0,P|168:180|144:168,1,46.6666666666667,0|2,0:0|0:0,0:0:0:0:
92,264,39809,6,0,P|132:312|216:328,1,140,0|2,0:0|0:0,0:0:0:0:
192,220,40460,1,0,0:0:0:0:
292,208,40622,1,0,0:0:0:0:
376,160,40785,1,0,0:0:0:0:
156,88,41110,1,0,0:0:0:0:
260,88,41273,6,0,P|240:152|156:192,1,140,2|0,0:0|0:0,0:0:0:0:
128,264,42086,1,0,0:0:0:0:
112,292,42167,1,0,0:0:0:0:
116,324,42248,1,2,0:0:0:0:
212,328,42573,1,0,0:0:0:0:
240,340,42655,1,0,0:0:0:0:
268,352,42736,1,0,0:0:0:0:
168,96,43468,6,0,P|136:112|116:152,1,70
200,196,44199,1,2,0:0:0:0:
316,324,44525,2,0,L|280:288,1,46.6666666666667
372,244,45175,2,0,P|416:244|448:260,1,70,2|0,0:0|0:0,0:0:0:0:
416,344,45663,1,0,0:0:0:0:
488,272,45988,2,0,L|500:240,2,23.3333333333333,0|0|2,0:0|0:0|0:0,0:0:0:0:
464,160,46638,6,0,P|448:132|428:120,1,46.6666666666667
356,104,46964,2,0,P|324:120|312:148,1,46.6666666666667,0|2,0:0|0:0,0:0:0:0:
364,236,47614,1,0,0:0:0:0:
424,272,47777,1,0,0:0:0:0:
464,332,47939,1,0,0:0:0:0:
496,268,48102,1,2,0:0:0:0:
312,324,48590,6,0,L|264:352,1,46.6666666666667
236,264,48915,2,0,L|184:292,1,46.6666666666667,0|2,0:0|0:0,0:0:0:0:
344,184,49565,2,4,P|372:128|368:104,2,70,4|4|4,0:0|0:0|0:0,0:0:0:0:
256,124,50236,6,0,P|272:88|252:40,2,70,0|0|2,0:0|0:0|0:0,0:0:0:0:
172,72,50967,1,0,0:0:0:0:
172,72,51211,2,0,P|128:84|104:112,2,70,0|0|2,0:0|0:0|0:0,0:0:0:0:
256,124,51943,1,0,0:0:0:0:
172,184,52187,1,0,0:0:0:0:
104,256,52431,1,0,0:0:0:0:
200,276,52675,1,2,0:0:0:0:
272,328,52918,1,0,0:0:0:0:
360,324,53162,2,0,P|388:300|400:240,1,70
308,232,53650,1,2,0:0:0:0:
216,92,54138,6,0,P|176:104|104:200,1,140,0|2,0:0|0:0,0:0:0:0:
165,337,55114,2,0,P|214:287|228:220,1,140,0|2,0:0|0:0,0:0:0:0:
115,232,56089,2,0,P|143:168|203:136,1,140,0|2,0:0|0:0,0:0:0:0:
256,272,57065,2,0,P|320:312|408:300,1,140,0|2,0:0|0:0,0:0:0:0:
312,156,58040,5,0,0:0:0:0:
384,96,58284,2,0,P|344:68|292:60,1,70,0|2,0:0|0:0,0:0:0:0:
312,156,58772,1,0,0:0:0:0:
232,216,59016,2,0,L|156:268,2,70,0|0|2,0:0|0:0|0:0,0:0:0:0:
232,128,59748,1,0,0:0:0:0:
320,108,59992,2,0,L|320:32,2,70,0|0|2,0:0|0:0|0:0,0:0:0:0:
388,156,60723,1,0,0:0:0:0:
368,236,60967,2,0,L|420:296,2,70,0|0|2,0:0|0:0|0:0,0:0:0:0:
264,184,61699,1,0,0:0:0:0:
160,136,61943,6,0,P|136:176|160:288,1,140,0|2,0:0|0:0,0:0:0:0:
244,212,62918,1,0,0:0:0:0:
276,108,63406,1,2,0:0:0:0:
396,164,63894,5,2,0:0:0:0:
420,188,64016,1,0,0:0:0:0:
428,224,64138,1,0,0:0:0:0:
424,256,64260,1,0,0:0:0:0:
420,288,64382,1,2,0:0:0:0:
400,320,64504,1,0,0:0:0:0:
376,344,64626,1,0,0:0:0:0:
344,360,64748,1,0,0:0:0:0:
256,192,64870,12,4,65845,0:0:0:0:
176,88,66292,5,2,0:0:0:0:
140,96,66404,1,0,0:0:0:0:
104,112,66516,1,0,0:0:0:0:
80,144,66628,1,0,0:0:0:0:
72,180,66740,1,8,0:0:0:0:
80,216,66852,1,0,0:0:0:0:
104,244,66964,1,0,0:0:0:0:
132,272,67076,1,0,0:0:0:0:
164,292,67188,1,2,0:0:0:0:
264,316,67412,2,0,L|312:328,2,35,0|0|8,0:0|0:0|0:0,0:0:0:0:
360,200,68083,6,0,L|396:224,1,35,2|0,0:0|0:0,0:0:0:0:
440,156,68307,2,0,L|392:128,1,35
456,76,68531,2,0,L|424:56,1,35,8|0,0:0|0:0,0:0:0:0:
340,68,68755,2,0,L|308:88,1,35
248,136,68979,1,2,0:0:0:0:
156,256,69203,2,0,L|136:292,1,35
180,340,69427,5,8,0:0:0:0:
212,340,69539,1,0,0:0:0:0:
244,340,69650,1,0,0:0:0:0:
276,340,69762,1,0,0:0:0:0:
308,340,69874,2,0,P|368:340|384:328,1,70,2|0,0:0|0:0,0:0:0:0:
376,192,70322,2,0,L|336:172,1,35,8|0,0:0|0:0,0:0:0:0:
284,144,70546,1,0,0:0:0:0:
256,128,70658,1,0,0:0:0:0:
228,112,70770,1,2,0:0:0:0:
112,176,71218,6,0,L|80:212,1,35,8|0,0:0|0:0,0:0:0:0:
168,224,71442,1,0,0:0:0:0:
224,272,71553,2,0,L|256:240,1,35,0|2,0:0|0:0,0:0:0:0:
360,312,71889,2,0,L|384:276,1,35
416,220,72113,1,8,0:0:0:0:
424,184,72225,1,0,0:0:0:0:
416,148,72337,1,0,0:0:0:0:
408,112,72449,1,0,0:0:0:0:
312,56,72561,2,0,P|264:56|244:80,1,70,2|0,0:0|0:0,0:0:0:0:
136,160,73009,6,0,P|92:160|76:200,1,70,8|0,0:0|0:0,0:0:0:0:
204,224,73419,2,0,P|204:268|224:288,1,70,2|0,0:0|0:0,0:0:0:0:
268,160,73830,2,0,P|316:160|340:132,1,70,8|0,0:0|0:0,0:0:0:0:
204,104,74241,2,0,P|204:56|180:40,1,70,2|0,0:0|0:0,0:0:0:0:
348,88,74652,6,0,P|400:104|412:136,2,70,8|0|2,0:0|0:0|0:0,0:0:0:0:
340,188,75269,1,0,0:0:0:0:
304,272,75474,2,0,P|256:292|220:280,2,70,8|0|2,0:0|0:0|0:0,0:0:0:0:
248,204,76091,1,0,0:0:0:0:
128,164,76296,5,8,0:0:0:0:
184,100,76502,1,0,0:0:0:0:
252,52,76707,1,2,0:0:0:0:
320,104,76913,1,0,0:0:0:0:
380,160,77118,1,8,0:0:0:0:
256,256,77324,2,0,L|256:332,2,70,0|2|0,0:0|0:0|0:0,0:0:0:0:
252,116,77940,5,8,0:0:0:0:
220,132,78043,1,0,0:0:0:0:
188,148,78145,1,0,0:0:0:0:
156,168,78248,1,0,0:0:0:0:
124,184,78351,1,2,0:0:0:0:
96,204,78454,1,0,0:0:0:0:
64,220,78556,1,0,0:0:0:0:
256,192,78762,12,4,79584,0:0:0:0:
256,192,84084,12,4,87084,0:0:0:0:
176,124,87271,6,0,P|152:156|152:192,1,70
256,196,87834,1,2,0:0:0:0:
332,268,88021,2,0,P|300:296|244:304,1,70
380,144,88584,2,0,P|392:92|384:72,2,70,2|0|0,0:0|0:0|0:0,0:0:0:0:
284,104,89334,2,0,P|268:144|276:180,2,70,2|0|0,0:0|0:0|0:0,0:0:0:0:
144,252,90084,5,2,0:0:0:0:
216,308,90271,1,0,0:0:0:0:
228,220,90459,1,0,0:0:0:0:
400,92,90834,1,2,0:0:0:0:
340,172,91021,2,0,L|288:224,1,70
189,135,91584,6,0,P|164:111|132:100,2,70
200,240,92146,1,0,0:0:0:0:
180,264,92240,1,0,0:0:0:0:
160,292,92334,2,0,P|208:340|276:340,1,140,2|0,0:0|0:0,0:0:0:0:
380,188,93084,6,0,P|368:144|336:128,1,70,2|0,0:0|0:0,0:0:0:0:
284,208,93459,1,0,0:0:0:0:
272,128,93646,1,0,0:0:0:0:
212,180,93833,1,2,0:0:0:0:
108,156,94021,5,0,0:0:0:0:
80,172,94115,1,0,0:0:0:0:
64,200,94209,1,0,0:0:0:0:
60,232,94302,1,0,0:0:0:0:
68,264,94396,1,0,0:0:0:0:
76,296,94490,1,0,0:0:0:0:
92,332,94584,6,0,P|152:364|164:360,1,70,2|0,0:0|0:0,0:0:0:0:
228,316,94959,2,0,P|264:304|312:312,1,70
408,304,95334,1,2,0:0:0:0:
476,216,95521,1,0,0:0:0:0:
488,184,95615,1,0,0:0:0:0:
492,148,95709,1,0,0:0:0:0:
480,112,95802,1,0,0:0:0:0:
460,80,95896,1,0,0:0:0:0:
432,56,95990,1,0,0:0:0:0:
364,52,96084,5,2,0:0:0:0:
332,40,96177,1,0,0:0:0:0:
300,28,96271,1,0,0:0:0:0:
264,28,96365,1,0,0:0:0:0:
232,40,96459,1,0,0:0:0:0:
148,140,97021,6,0,P|100:160|88:184,2,70
168,224,97584,1,2,0:0:0:0:
224,288,97771,1,0,0:0:0:0:
300,328,97959,2,0,P|340:328|380:300,1,70
312,248,98334,1,2,0:0:0:0:
328,164,98521,1,0,0:0:0:0:
344,80,98709,1,4,0:0:0:0:
172,104,99084,6,0,P|140:140|136:172,2,70,8|0|0,0:0|0:0|0:0,0:0:0:0:
252,192,99646,1,0,0:0:0:0:
328,280,99834,2,0,P|360:244|364:212,2,70,2|0|0,0:0|0:0|0:0,0:0:0:0:
144,328,100584,1,8,0:0:0:0:
56,256,100771,1,0,0:0:0:0:
56,256,100865,1,0,0:0:0:0:
56,256,100959,1,0,0:0:0:0:
124,164,101334,2,0,P|156:140|168:80,2,70,2|0|0,0:0|0:0|0:0,0:0:0:0:
320,96,102084,6,0,P|352:124|368:164,2,70,8|0|0,0:0|0:0|0:0,0:0:0:0:
276,184,102834,2,0,P|244:232|244:260,2,70,2|0|0,0:0|0:0|0:0,0:0:0:0:
348,264,103584,1,8,0:0:0:0:
348,264,103677,1,0,0:0:0:0:
176,332,104146,2,0,P|128:304|100:272,1,70,0|2,0:0|0:0,0:0:0:0:
192,232,104709,1,0,0:0:0:0:
160,92,105084,6,0,P|132:132|116:228,1,140,8|0,0:0|0:0,0:0:0:0:
256,200,105834,1,2,0:0:0:0:
368,256,106209,1,0,0:0:0:0:
368,96,106584,1,8,0:0:0:0:
212,56,106959,2,0,P|148:104|132:192,1,140,0|2,0:0|0:0,0:0:0:0:
256,180,107709,1,0,0:0:0:0:
256,192,108084,12,4,109584,0:0:0:0:
152,192,110334,5,8,0:0:0:0:
356,192,110709,1,8,0:0:0:0:
208,324,111084,6,0,L|116:272,1,93.7999955630495,8|0,0:0|0:0,0:0:0:0:
48,208,111459,1,2,0:0:0:0:
96,120,111646,1,0,0:0:0:0:
220,96,111834,2,0,P|272:96|316:128,2,93.7999955630495,8|0|2,0:0|0:0|0:0,0:0:0:0:
240,200,112396,1,0,0:0:0:0:
416,152,112584,5,8,0:0:0:0:
352,224,112771,1,0,0:0:0:0:
428,284,112959,1,2,0:0:0:0:
364,352,113146,1,0,0:0:0:0:
288,296,113334,1,8,0:0:0:0:
228,364,113521,1,0,0:0:0:0:
160,308,113709,1,2,0:0:0:0:
220,244,113896,1,0,0:0:0:0:
100,184,114084,6,0,P|76:136|88:72,2,93.7999955630495,8|0|2,0:0|0:0|0:0,0:0:0:0:
184,112,114646,1,0,0:0:0:0:
288,68,114834,2,0,P|292:120|264:196,2,93.7999955630495,8|0|2,0:0|0:0|0:0,0:0:0:0:
184,112,115396,1,0,0:0:0:0:
240,224,115584,6,0,L|304:155,1,93.7999955630495,8|0,0:0|0:0,0:0:0:0:
372,88,115959,2,0,L|460:160,1,93.7999955630495,2|0,0:0|0:0,0:0:0:0:
512,216,116334,2,0,L|448:300,1,93.7999955630495,8|0,0:0|0:0,0:0:0:0:
376,344,116709,2,0,L|292:276,1,93.7999955630495,2|0,0:0|0:0,0:0:0:0:
184,244,117084,5,8,0:0:0:0:
120,168,117271,1,0,0:0:0:0:
184,92,117459,1,2,0:0:0:0:
256,160,117646,1,0,0:0:0:0:
328,92,117834,1,8,0:0:0:0:
396,164,118021,1,0,0:0:0:0:
336,244,118209,1,2,0:0:0:0:
256,304,118396,1,0,0:0:0:0:
80,292,118584,6,0,L|56:184,1,93.7999955630495,8|0,0:0|0:0,0:0:0:0:
156,184,118959,1,2,0:0:0:0:
120,88,119146,1,0,0:0:0:0:
224,64,119334,2,0,L|324:40,1,93.7999955630495,8|0,0:0|0:0,0:0:0:0:
340,144,119709,1,2,0:0:0:0:
388,244,119896,1,0,0:0:0:0:
284,296,120084,6,0,P|248:336|192:332,1,93.7999955630495,8|0,0:0|0:0,0:0:0:0:
120,292,120459,2,0,P|80:240|84:180,1,93.7999955630495,2|0,0:0|0:0,0:0:0:0:
184,208,120834,2,0,P|212:168|208:112,1,93.7999955630495,8|0,0:0|0:0,0:0:0:0:
144,48,121209,2,0,P|80:40|40:72,1,93.7999955630495,2|0,0:0|0:0,0:0:0:0:
104,148,121584,5,8,0:0:0:0:
104,148,121677,1,0,0:0:0:0:
104,148,121771,1,0,0:0:0:0:
228,168,121959,1,2,0:0:0:0:
228,168,122052,1,0,0:0:0:0:
228,168,122146,1,0,0:0:0:0:
200,292,122334,1,8,0:0:0:0:
200,292,122427,1,0,0:0:0:0:
200,292,122521,1,0,0:0:0:0:
76,272,122709,1,2,0:0:0:0:
76,272,122802,1,0,0:0:0:0:
76,272,122896,1,0,0:0:0:0:
184,216,123084,6,0,L|208:120,1,93.7999955630495,8|0,0:0|0:0,0:0:0:0:
288,64,123459,1,2,0:0:0:0:
376,96,123646,1,0,0:0:0:0:
440,184,123834,2,0,P|464:240|444:284,2,93.7999955630495,8|0|2,0:0|0:0|0:0,0:0:0:0:
356,240,124396,1,0,0:0:0:0:
232,304,124584,6,0,L|152:352,1,93.7999955630495,8|0,0:0|0:0,0:0:0:0:
96,268,124959,2,0,L|40:184,1,93.7999955630495,2|0,0:0|0:0,0:0:0:0:
144,140,125334,1,8,0:0:0:0:
244,88,125521,1,0,0:0:0:0:
296,176,125709,1,2,0:0:0:0:
348,264,125896,1,0,0:0:0:0:
352,124,126084,6,0,P|368:68|328:28,1,93.7999955630495,8|0,0:0|0:0,0:0:0:0:
416,164,126459,2,0,P|472:180|512:140,1,93.7999955630495,2|0,0:0|0:0,0:0:0:0:
372,224,126834,2,0,P|356:280|396:320,1,93.7999955630495,8|0,0:0|0:0,0:0:0:0:
308,184,127209,2,0,P|252:168|212:208,1,93.7999955630495,2|0,0:0|0:0,0:0:0:0:
64,188,127584,5,8,0:0:0:0:
56,220,127677,1,0,0:0:0:0:
52,252,127771,1,0,0:0:0:0:
144,320,127959,1,2,0:0:0:0:
176,336,128052,1,0,0:0:0:0:
212,344,128146,1,0,0:0:0:0:
328,324,128334,1,8,0:0:0:0:
356,300,128427,1,0,0:0:0:0:
384,276,128521,1,0,0:0:0:0:
392,160,128709,1,2,0:0:0:0:
372,132,128802,1,0,0:0:0:0:
352,104,128896,1,0,0:0:0:0:
176,88,129084,6,0,P|132:112|112:168,2,93.7999955630495,8|0|2,0:0|0:0|0:0,0:0:0:0:
200,184,129646,1,0,0:0:0:0:
136,260,129834,1,8,0:0:0:0:
92,348,130021,2,0,P|156:356|208:324,2,93.7999955630495,0|2|0,0:0|0:0|0:0,0:0:0:0:
276,336,130584,6,0,P|332:312|348:272,1,93.7999955630495,8|0,0:0|0:0,0:0:0:0:
260,232,130959,1,2,0:0:0:0:
292,136,131146,1,0,0:0:0:0:
328,40,131334,2,0,P|368:72|396:144,1,93.7999955630495,8|0,0:0|0:0,0:0:0:0:
440,196,131709,1,2,0:0:0:0:
412,296,131896,1,0,0:0:0:0:
312,276,132084,6,0,L|264:308,2,46.8999977815248,8|0|0,0:0|0:0|0:0,0:0:0:0:
280,200,132459,2,0,L|216:244,2,46.8999977815248,2|0|0,0:0|0:0|0:0,0:0:0:0:
240,128,132834,2,0,L|192:164,2,46.8999977815248,8|0|0,0:0|0:0|0:0,0:0:0:0:
200,56,133209,2,0,L|144:92,2,46.8999977815248,2|0|0,0:0|0:0|0:0,0:0:0:0:
256,192,133584,12,4,135084,0:0:0:0:
144,120,136209,5,2,0:0:0:0:
316,232,137521,2,2,L|268:292,1,70
160,144,139209,6,2,P|228:108|300:128,1,140
244,240,139959,1,2,0:0:0:0:
160,336,140334,2,2,P|228:372|300:352,1,140
328,160,141084,2,4,L|384:108,1,70
256,192,141459,12,0,144084,0:0:0:0:
