osu file format v12

[General]
AudioFilename: Fantazindy.mp3
AudioLeadIn: 0
PreviewTime: 111081
Countdown: 0
SampleSet: Soft
StackLeniency: 0.7
Mode: 0
LetterboxInBreaks: 1
WidescreenStoryboard: 1

[Editor]
DistanceSpacing: 1
BeatDivisor: 4
GridSize: 4
TimelineZoom: 1

[Metadata]
Title:Fantazindy
TitleUnicode:Fantazindy
Artist:RYO
ArtistUnicode:RYO
Creator:hoshisorakiseki
Version:Delete for Rainbow
Source:o2jam
Tags:重生共鸣曲 劲乐团 QQ音速 自制音速 r2beat r2noter
BeatmapID:386230
BeatmapSetID:132579

[Difficulty]
HPDrainRate:6
CircleSize:4
OverallDifficulty:9
ApproachRate:9
SliderMultiplier:1.8
SliderTickRate:1

[Events]
//Background and Video events
0,0,"bkg.jpg",0,0
//Break Periods
2,83534,86484
//Storyboard Layer 0 (Background)
//Storyboard Layer 1 (Fail)
//Storyboard Layer 2 (Pass)
//Storyboard Layer 3 (Foreground)
//Storyboard Sound Samples
//Background Colour Transformations
3,100,163,162,255

[TimingPoints]
1111,487.80487804878,4,2,0,30,1,0
18834,487.80487804878,4,2,0,30,1,0
50236,243.90243902439,4,2,0,30,1,0
54138,-100,4,1,0,30,0,0
54199,-100,4,2,0,30,0,0
64870,-100,4,2,0,100,0,0
65845,223.880597014925,4,1,1,45,1,1
65845,-66.6666666666667,4,1,1,45,0,1
73009,205.479452054795,4,1,1,45,1,1
79584,3750,4,2,0,30,1,0
83334,1500,4,2,0,30,1,0
87084,375,4,2,0,30,1,0
99084,-100,4,1,1,40,0,0
111084,187.5,4,1,1,50,1,1
117084,-90.9090909090909,4,1,1,50,0,1
123084,-76.9230769230769,4,1,1,50,0,1
135084,375,4,2,0,45,1,0
144084,-100,4,2,0,20,0,0

[HitObjects]
164,56,18834,6,0,L|100:56,1,60,4|0,0:0|0:0,0:0:0:0:
48,148,19159,2,0,L|120:148,1,60,2|0,0:0|0:0,0:0:0:0:
348,56,19809,6,0,L|408:56,1,60,2|0,0:0|0:0,0:0:0:0:
464,148,20134,2,0,L|392:148,1,60,2|0,0:0|0:0,0:0:0:0:
328,352,20622,1,0,0:0:0:0:
300,268,20785,6,0,L|292:200,1,60,2|0,0:0|0:0,0:0:0:0:
212,268,21110,2,0,L|219:208,1,60,2|0,0:0|0:0,0:0:0:0:
444,56,21760,1,0,0:0:0:0:
368,104,21923,6,0,L|296:64,1,60,2|0,0:0|0:0,0:0:0:0:
144,104,22248,2,0,L|196:74,1,60,2|0,0:0|0:0,0:0:0:0:
256,244,22736,2,0,L|256:304,1,60,2|0,0:0|0:0,0:0:0:0:
168,276,23041,2,0,L|168:176,1,90,2|0,0:0|0:0,0:0:0:0:
440,172,23712,6,0,L|436:236,1,60,2|0,0:0|0:0,0:0:0:0:
360,184,24037,2,0,L|364:112,1,60,2|0,0:0|0:0,0:0:0:0:
92,128,24687,6,0,L|156:128,1,60,2|0,0:0|0:0,0:0:0:0:
276,64,25012,2,0,L|216:64,1,60,2|0,0:0|0:0,0:0:0:0:
332,308,25663,6,0,P|400:308|448:256,1,120,2|0,0:0|0:0,0:0:0:0:
440,188,26151,2,0,L|440:124,3,60,2|0|2|4,0:0|0:0|0:0|0:0,0:0:0:0:
116,124,27614,5,2,0:0:0:0:
164,48,27777,2,0,P|228:48|256:96,1,120
347,47,28264,2,0,P|290:44|256:90,1,120,0|2,0:0|0:0,0:0:0:0:
256,272,28915,1,0,0:0:0:0:
316,336,29077,6,0,P|376:336|424:284,1,120
418,86,29565,2,0,P|374:47|316:48,1,120,2|0,0:0|0:0,0:0:0:0:
256,116,30053,2,0,L|256:244,1,120,2|0,0:0|0:0,0:0:0:0:
176,280,30541,2,0,L|176:152,1,120,6|0,0:0|0:0,0:0:0:0:
336,160,31029,2,0,L|336:280,1,120,2|0,0:0|0:0,0:0:0:0:
256,324,31516,6,0,P|208:360|132:364,1,120,2|0,0:0|0:0,0:0:0:0:
88,304,32004,2,0,L|36:184,1,120,2|0,0:0|0:0,0:0:0:0:
68,108,32492,2,0,L|88:40,3,60,2|0|2|0,0:0|0:0|0:0|0:0,0:0:0:0:
256,260,33468,6,0,P|316:260|368:304,1,120,2|0,0:0|0:0,0:0:0:0:
436,348,33955,2,0,L|484:212,1,120,2|0,0:0|0:0,0:0:0:0:
396,192,34443,1,4,0:0:0:0:
475,149,34606,2,0,L|436:36,1,120
256,240,35419,6,0,P|256:304|192:344,1,120,2|0,0:0|0:0,0:0:0:0:
176,260,35907,2,0,P|116:260|76:212,1,120,2|0,0:0|0:0,0:0:0:0:
156,172,36394,2,0,L|156:48,1,120,2|0,1:2|0:0,0:0:0:0:
244,32,36882,6,0,L|244:152,1,120,2|0,0:0|0:0,0:0:0:0:
332,172,37370,2,0,B|400:172|400:172|464:188,1,120,2|0,1:2|0:0,0:0:0:0:
476,272,37858,2,0,P|448:328|388:348,1,120,2|0,0:0|0:0,0:0:0:0:
328,288,38346,2,0,L|208:288,1,120,2|0,0:0|0:0,0:0:0:0:
256,192,38833,12,4,42248,0:0:0:0:
88,56,43224,6,0,L|120:160,1,90,0|2,0:0|0:0,0:0:0:0:
424,56,43712,2,0,L|392:160,1,90,2|0,0:0|0:0,0:0:0:0:
308,244,44199,6,0,L|348:340,2,90,0|2|0,0:0|0:0|0:0,0:0:0:0:
256,120,44931,1,0,0:0:0:0:
204,244,45175,2,0,L|164:340,2,90,0|2|0,0:0|0:0|0:0,0:0:0:0:
256,120,45907,1,0,0:0:0:0:
380,176,46151,6,0,P|412:136|408:32,1,135,2|0,0:0|0:0,0:0:0:0:
408,40,46638,2,0,L|308:56,1,90,0|2,0:0|0:0,0:0:0:0:
256,120,47004,1,2,0:0:0:0:
132,176,47126,6,0,P|94:121|94:54,1,135,2|0,0:0|0:0,0:0:0:0:
104,40,47614,2,0,L|192:54,1,90,0|2,0:0|0:0,0:0:0:0:
256,120,47980,1,2,0:0:0:0:
256,196,48102,6,0,B|256:248|232:280|232:280|148:324,1,180,2|2,0:0|0:0,0:0:0:0:
76,300,48712,1,2,0:0:0:0:
24,244,48833,1,2,0:0:0:0:
24,168,48955,1,2,0:0:0:0:
472,52,50236,6,0,P|424:52|376:96,1,90,4|0,1:0|0:0,0:0:0:0:
456,136,50479,1,0,0:0:0:0:
388,196,50601,2,0,B|360:236|360:236|360:300|400:336|460:312,1,180
468,232,50967,1,0,0:0:0:0:
300,344,51089,6,0,L|204:344,1,90
68,200,51333,1,0,0:0:0:0:
256,72,51455,2,0,L|256:184,1,90
128,84,51699,1,0,0:0:0:0:
384,84,51821,1,0,0:0:0:0:
256,256,51943,6,0,P|208:256|160:296,1,90
26,309,52187,2,0,P|60:337|104:336,1,90,0|0,1:0|0:0,0:0:0:0:
128,83,52431,2,0,P|60:136|60:224,1,180
136,176,52796,1,0,0:0:0:0:
172,256,52918,6,0,P|184:308|216:332,1,90
340,256,53162,2,0,P|333:299|300:329,1,90
256,252,53406,2,0,L|256:152,1,90
328,104,53650,1,0,0:0:0:0:
432,240,53772,1,0,0:0:0:0:
80,240,53894,1,0,0:0:0:0:
184,104,54016,1,0,0:0:0:0:
256,48,54138,6,0,L|256:148,1,90
256,318,54382,2,0,L|256:228,1,90
172,192,54626,5,0,0:0:0:0:
340,192,54748,1,0,0:0:0:0:
172,192,54870,5,0,0:0:0:0:
340,192,54992,1,0,0:0:0:0:
256,224,55114,5,0,1:0:0:0:
256,136,55235,1,0,0:0:0:0:
332,280,55357,2,0,L|384:360,1,90
130,355,55601,2,0,L|180:280,1,90
172,96,55845,5,0,0:0:0:0:
340,96,55967,1,0,0:0:0:0:
256,224,56089,6,0,L|172:192,1,90,0|0,1:0|0:0,0:0:0:0:
256,224,56333,2,0,L|340:192,1,90
416,140,56577,5,0,0:0:0:0:
380,116,56638,1,0,0:0:0:0:
340,96,56699,1,0,0:0:0:0:
96,140,56821,5,0,0:0:0:0:
132,116,56882,1,0,0:0:0:0:
172,96,56943,1,0,0:0:0:0:
256,128,57065,6,0,B|256:220|256:220|192:288,1,180,0|0,1:0|0:0,0:0:0:0:
132,348,57431,1,0,0:0:0:0:
60,292,57553,2,0,P|36:252|56:192,1,90
104,144,57796,2,0,P|128:184|108:244,1,90
132,348,58040,6,0,P|184:348|256:236,1,180,4|0,1:0|0:0,0:0:0:0:
168,264,58406,1,0,0:0:0:0:
380,36,58528,6,0,P|328:36|256:148,1,180,0|0,1:0|0:0,0:0:0:0:
344,120,58894,1,0,0:0:0:0:
392,196,59016,6,0,L|432:304,1,90,4|0,1:0|0:0,0:0:0:0:
120,188,59260,2,0,L|80:80,1,90
460,120,59504,2,0,L|496:216,1,90,0|0,1:0|0:0,0:0:0:0:
52,264,59748,2,0,L|16:168,1,90
320,256,59992,6,0,L|348:348,1,90,4|0,1:0|0:0,0:0:0:0:
192,128,60235,2,0,L|164:36,1,90
120,196,60479,6,0,L|80:304,1,90,0|0,1:0|0:0,0:0:0:0:
392,188,60723,2,0,L|432:80,1,90
52,120,60967,6,0,L|16:216,1,90,4|0,1:0|0:0,0:0:0:0:
460,264,61211,2,0,L|496:168,1,90
192,256,61455,2,0,L|164:348,1,90,0|0,1:0|0:0,0:0:0:0:
320,128,61699,2,0,L|348:36,1,90
296,228,61943,6,0,P|368:288|464:268,1,180,4|0,1:0|0:0,0:0:0:0:
256,80,62309,1,0,0:0:0:0:
63,105,62431,2,0,P|150:97|216:156,1,180,0|0,1:0|0:0,0:0:0:0:
256,304,62796,1,0,0:0:0:0:
216,228,62918,6,0,P|144:288|48:268,1,180,4|0,1:0|0:0,0:0:0:0:
256,80,63284,1,0,0:0:0:0:
448,105,63406,2,0,P|361:97|296:156,1,180,0|0,1:0|0:0,0:0:0:0:
256,304,63772,1,0,0:0:0:0:
340,340,63894,6,0,L|436:348,1,90,4|0,1:0|0:0,0:0:0:0:
492,284,64138,1,0,1:0:0:0:
492,284,64260,1,0,0:0:0:0:
448,104,64382,2,0,L|432:200,1,90,4|0,1:0|0:0,0:0:0:0:
492,284,64626,1,0,1:0:0:0:
492,284,64748,1,0,0:0:0:0:
404,260,64870,5,0,0:0:0:0:
376,248,64931,1,0,0:0:0:0:
344,244,64992,1,0,0:0:0:0:
312,252,65053,1,0,0:0:0:0:
284,264,65114,1,0,0:0:0:0:
260,284,65175,1,0,0:0:0:0:
232,300,65235,1,0,0:0:0:0:
200,304,65296,1,0,0:0:0:0:
168,296,65357,1,0,0:0:0:0:
140,280,65418,1,0,0:0:0:0:
120,256,65479,1,0,0:0:0:0:
120,224,65540,1,0,0:0:0:0:
132,196,65601,2,0,L|152:148,3,45
172,84,65845,6,0,B|224:52|276:132|276:132|352:132|384:80|352:32,1,270.000010299683
452,148,66180,1,0,0:0:0:0:
376,248,66292,2,0,B|344:316|344:316|396:364|440:344|460:288|440:252|384:304,1,270.000010299683
256,348,66628,1,0,0:0:0:0:
120,356,66740,6,0,P|152:296|124:216,1,135.000005149842
392,28,66964,2,0,P|360:88|388:168,1,135.000005149842
208,208,67188,1,0,0:0:0:0:
344,332,67300,1,0,0:0:0:0:
452,96,67412,1,0,0:0:0:0:
244,308,67524,1,0,0:0:0:0:
212,88,67636,6,0,P|140:88|80:144,1,135.000005149842
91,259,67859,2,0,P|145:297|212:296,1,135.000005149842
420,124,68083,2,0,P|366:86|299:88,1,135.000005149842
299,295,68307,2,0,P|366:297|420:259,1,135.000005149842
300,192,68531,5,0,0:0:0:0:
212,192,68643,1,0,0:0:0:0:
380,192,68755,1,0,0:0:0:0:
132,192,68867,1,0,0:0:0:0:
212,280,68979,5,0,0:0:0:0:
460,280,69091,1,0,0:0:0:0:
380,280,69203,1,0,0:0:0:0:
292,280,69315,1,0,0:0:0:0:
180,356,69427,6,0,P|136:316|140:240,1,135.000005149842
180,116,69650,1,0,0:0:0:0:
212,280,69762,1,0,0:0:0:0:
376,177,69874,2,0,P|340:122|276:120,1,135.000005149842
292,280,70098,2,0,P|327:334|392:337,1,135.000005149842
464,220,70322,6,0,L|480:84,1,135.000005149842
364,12,70546,1,0,0:0:0:0:
304,132,70658,1,0,0:0:0:0:
148,12,70770,1,0,0:0:0:0:
208,132,70882,1,0,0:0:0:0:
256,260,70994,6,0,L|256:332,3,67.5000025749208
320,352,71218,6,0,P|392:352|440:308,1,135.000005149842
437,71,71442,2,0,P|386:29|320:32,1,135.000005149842
256,152,71665,2,0,L|256:296,2,135.000005149842
132,96,72001,1,0,0:0:0:0:
84,224,72113,6,0,L|136:272,3,67.5000025749208
124,340,72337,2,0,P|164:332|196:304,3,67.5000025749208
216,256,72561,2,0,P|248:236|284:232,3,67.5000025749208
340,256,72785,2,0,L|400:336,4,67.5000025749208,0|0|0|0|4,0:0|0:0|0:0|0:0|0:0,0:0:0:0:
404,192,73111,5,0,0:0:0:0:
452,116,73214,5,0,0:0:0:0:
404,40,73317,5,0,0:0:0:0:
320,68,73419,6,0,L|304:176,1,90
205,157,73625,2,0,L|192:68,1,90
320,244,73830,6,0,L|306:333,1,90
205,333,74036,2,0,L|192:244,1,90
108,40,74241,5,0,0:0:0:0:
60,116,74344,5,0,0:0:0:0:
112,192,74447,5,0,0:0:0:0:
188,240,74550,5,0,0:0:0:0:
124,304,74652,6,0,L|52:360,2,90,4|0|0,0:0|0:0|0:0,0:0:0:0:
188,240,74961,2,0,P|216:288|200:336,1,90
301,319,75166,6,0,P|298:275|324:240,1,90
459,359,75372,2,0,L|388:304,2,90,0|4|0,0:0|0:0|0:0,0:0:0:0:
488,272,75680,2,0,L|408:208,1,90
348,160,75885,1,0,0:0:0:0:
308,80,75988,6,0,L|352:48,5,45
344,53,76296,5,4,0:0:0:0:
428,92,76399,1,0,0:0:0:0:
504,40,76502,1,0,0:0:0:0:
504,40,76604,1,0,0:0:0:0:
512,132,76707,1,0,0:0:0:0:
512,132,76810,1,0,0:0:0:0:
448,196,76913,1,0,0:0:0:0:
448,196,77015,1,0,0:0:0:0:
368,240,77118,2,0,P|328:272|304:336,1,90,4|0,0:0|0:0,0:0:0:0:
202,305,77324,2,0,P|179:266|144:240,1,90
64,196,77529,6,0,L|80:136,3,45
116,128,77735,2,0,L|132:72,3,45
168,60,77940,2,0,L|212:32,3,45
248,52,78145,2,0,L|304:80,3,45
332,56,78351,2,0,L|380:40,3,45
420,48,78556,2,0,L|456:96,3,45
432,128,78762,2,0,L|428:164,31,22.5,4|4|4|4|4|4|4|4|4|4|4|4|4|4|4|4|4|4|4|4|4|4|4|4|4|4|4|4|4|4|4|4,3:0|3:0|3:0|3:0|3:0|3:0|3:0|3:0|3:0|3:0|3:0|3:0|3:0|3:0|3:0|3:0|3:0|3:0|3:0|3:0|3:0|3:0|3:0|3:0|3:0|3:0|3:0|3:0|3:0|3:0|3:0|3:0,3:0:0:0:
432,128,79584,6,0,P|368:128|280:216,1,180
156,64,87084,6,0,P|120:96|56:100,1,90,4|0,1:0|0:0,0:0:0:0:
356,64,87459,2,0,P|392:96|456:100,1,90
456,192,87834,2,0,P|456:284|384:356,1,180
356,64,88584,6,0,P|392:96|456:100,1,90
156,64,88959,2,0,P|120:96|56:100,1,90
56,192,89334,2,0,P|56:284|128:356,1,180
188,184,90084,6,0,P|188:136|208:92,1,90,4|0,1:0|0:0,0:0:0:0:
308,97,90459,2,0,P|324:139|324:184,1,90
256,240,90834,2,0,P|220:272|104:216,1,180
188,184,91396,1,0,0:0:0:0:
256,240,91584,2,0,P|292:272|408:216,1,180
324,184,92146,1,0,0:0:0:0:
256,124,92334,6,0,L|256:28,2,90
256,240,92896,1,0,0:0:0:0:
204,316,93084,6,0,P|156:316|52:232,1,180,4|0,1:0|0:0,0:0:0:0:
204,68,93646,2,0,P|156:68|52:152,1,180
132,192,94209,1,0,0:0:0:0:
220,192,94396,5,0,0:0:0:0:
264,192,94490,1,0,0:0:0:0:
308,192,94584,2,0,P|400:192|468:256,1,180,0|0,1:0|0:0,0:0:0:0:
308,192,95146,2,0,P|400:192|468:128,1,180
388,84,95709,2,0,L|288:84,1,90
208,84,96084,5,4,1:0:0:0:
136,136,96271,1,0,0:0:0:0:
56,180,96459,1,0,0:0:0:0:
56,180,96646,1,0,0:0:0:0:
136,224,96834,5,0,0:0:0:0:
136,136,97021,1,0,0:0:0:0:
136,44,97209,1,0,0:0:0:0:
136,44,97396,1,0,0:0:0:0:
208,84,97584,5,0,0:0:0:0:
252,96,97677,1,0,0:0:0:0:
296,96,97771,1,0,0:0:0:0:
336,76,97865,1,0,0:0:0:0:
372,52,97959,1,0,0:0:0:0:
416,56,98052,1,0,0:0:0:0:
448,88,98146,1,0,0:0:0:0:
452,132,98240,1,0,0:0:0:0:
420,164,98334,1,0,0:0:0:0:
376,172,98427,1,0,0:0:0:0:
332,176,98521,1,0,0:0:0:0:
292,192,98615,1,0,0:0:0:0:
260,224,98709,1,0,0:0:0:0:
244,264,98802,1,0,0:0:0:0:
240,308,98896,5,0,0:0:0:0:
272,336,98990,1,0,0:0:0:0:
316,352,99084,5,0,0:0:0:0:
392,304,99271,1,0,0:0:0:0:
316,260,99459,2,0,L|248:140,1,135
249,142,99834,2,0,P|200:136|152:160,1,90
108,220,100209,2,0,P|136:168|80:68,1,180
160,20,100771,5,0,0:0:0:0:
216,92,100959,2,0,L|192:272,1,180
256,336,101521,1,0,0:0:0:0:
319,270,101709,2,0,L|296:92,1,180
380,124,102271,2,0,L|392:224,1,90
396,260,102552,1,0,0:0:0:0:
404,304,102646,1,0,0:0:0:0:
256,212,102834,6,0,P|196:212|112:308,1,180
52,360,103396,1,0,0:0:0:0:
36,272,103584,2,0,L|56:72,1,180
132,52,104146,2,0,L|124:152,1,90
200,192,104521,1,0,0:0:0:0:
256,120,104709,6,0,P|316:120|368:140,1,90
256,264,105084,2,0,P|316:264|368:244,1,90
408,192,105459,2,0,P|492:192|500:236,2,135
364,192,106115,1,0,0:0:0:0:
320,192,106209,6,0,P|272:192|264:276,1,135
284,300,106584,2,0,L|384:300,1,90
464,300,106959,1,0,0:0:0:0:
416,224,107146,5,0,0:0:0:0:
416,224,107240,1,0,0:0:0:0:
416,224,107334,1,0,0:0:0:0:
468,152,107521,1,0,0:0:0:0:
376,148,107709,1,0,0:0:0:0:
208,84,108084,5,0,0:0:0:0:
164,84,108177,1,0,0:0:0:0:
128,108,108271,1,0,0:0:0:0:
108,148,108365,1,0,0:0:0:0:
124,192,108459,1,0,0:0:0:0:
160,220,108552,1,0,0:0:0:0:
184,256,108646,1,0,0:0:0:0:
184,300,108740,1,0,0:0:0:0:
148,328,108834,5,0,0:0:0:0:
96,328,108927,1,0,0:0:0:0:
56,292,109021,1,0,0:0:0:0:
32,244,109115,1,0,0:0:0:0:
40,192,109209,1,0,0:0:0:0:
60,140,109302,1,0,0:0:0:0:
108,148,109396,1,0,0:0:0:0:
160,156,109490,1,0,0:0:0:0:
204,128,109584,5,0,0:0:0:0:
240,76,109677,1,0,0:0:0:0:
300,56,109771,1,0,0:0:0:0:
364,56,109865,1,0,0:0:0:0:
420,84,109959,1,0,0:0:0:0:
460,132,110052,1,0,0:0:0:0:
468,196,110146,1,0,0:0:0:0:
448,256,110240,1,0,0:0:0:0:
396,288,110334,2,0,L|344:328,7,45
256,216,111084,5,0,0:0:0:0:
160,324,111177,2,0,P|112:320|172:260,1,180
160,60,111459,2,0,P|112:64|172:124,1,180
256,96,111740,1,0,0:0:0:0:
352,60,111834,6,0,P|400:64|340:124,1,180
352,324,112116,2,0,P|400:320|340:260,1,180
256,288,112397,1,0,0:0:0:0:
228,192,112490,1,0,0:0:0:0:
135,180,112584,6,0,P|170:102|256:96,1,180
376,180,112865,2,0,P|341:102|256:96,1,180
256,286,113146,2,0,L|256:196,1,90
176,252,113334,6,0,P|120:264|48:172,1,180
464,179,113709,6,0,P|421:253|336:252,1,180,8|0,0:0|0:0,0:0:0:0:
256,72,114084,6,0,B|208:72|208:72|156:104,1,90,4|0,0:0|0:0,0:0:0:0:
92,156,114271,2,0,B|92:204|92:204|120:252,1,90
168,324,114459,2,0,B|208:288|208:288|256:288,1,90
344,288,114646,2,0,B|388:288|388:288|432:256,1,90
464,180,114834,6,0,L|464:72,1,90
380,36,115021,2,0,L|380:128,1,90
300,184,115209,1,0,0:0:0:0:
300,184,115302,1,0,0:0:0:0:
212,184,115396,5,0,0:0:0:0:
212,184,115489,1,0,0:0:0:0:
132,126,115584,2,0,L|132:36,1,90
48,90,115771,2,0,L|48:180,1,90
128,240,115959,6,0,P|124:292|140:236,1,180
256,256,116240,1,0,0:0:0:0:
384,240,116334,2,0,P|388:292|372:236,1,180
256,256,116615,1,0,0:0:0:0:
256,112,116709,6,0,P|304:100|368:140,1,90,8|0,0:0|0:0,0:0:0:0:
256,112,116896,2,0,P|208:100|144:140,1,90
80,172,117084,6,0,P|48:224|56:276,1,99.0000030212403,4|0,0:0|0:0,0:0:0:0:
226,345,117271,2,0,P|258:293|250:241,1,99.0000030212403
148,276,117459,1,0,0:0:0:0:
148,276,117552,1,0,0:0:0:0:
328,308,117646,5,0,0:0:0:0:
184,172,117740,1,0,0:0:0:0:
380,120,117834,2,0,P|444:96|488:100,1,99.0000030212403
240,252,118021,2,0,P|176:276|132:272,1,99.0000030212403
256,112,118209,2,0,P|264:52|312:12,1,99.0000030212403
473,97,118396,2,0,P|465:157|417:197,1,99.0000030212403
332,204,118584,5,0,0:0:0:0:
184,172,118677,1,0,0:0:0:0:
328,308,118771,1,0,0:0:0:0:
166,81,118865,2,0,P|215:84|256:112,1,99.0000030212403
240,252,119052,1,0,0:0:0:0:
46,311,119146,2,0,P|95:319|140:300,1,99.0000030212403
72,100,119334,6,0,L|80:232,1,99.0000030212403
350,222,119521,2,0,L|344:124,1,99.0000030212403
434,185,119709,2,0,L|440:284,1,99.0000030212403,8|0,0:0|0:0,0:0:0:0:
168,260,119896,2,0,L|160:144,1,99.0000030212403
54,109,120084,6,0,L|64:208,1,99.0000030212403,4|0,0:0|0:0,0:0:0:0:
372,240,120271,2,0,L|362:141,1,99.0000030212403
300,52,120459,2,0,P|360:24|408:40,1,99.0000030212403
122,29,120646,2,0,P|170:26|212:52,1,99.0000030212403
256,152,120834,6,0,B|256:204|228:244|228:244|256:288|260:312|248:344,1,198.000006042481
144,320,121115,1,0,0:0:0:0:
172,176,121209,2,0,B|148:112|148:112|188:88|204:60|208:28|196:0,1,198.000006042481
40,20,121490,1,0,0:0:0:0:
88,188,121584,2,8,L|120:264,2,49.5000015106202
424,128,121959,2,8,L|444:72,2,49.5000015106202
184,352,122334,6,8,L|216:304,1,49.5000015106202
128,264,122427,2,8,L|184:232,1,49.5000015106202
120,136,122521,2,8,L|188:160,1,49.5000015106202
200,48,122615,2,8,L|236:104,1,49.5000015106202
288,40,122709,5,8,0:0:0:0:
316,56,122755,1,8,0:0:0:0:
348,72,122802,1,8,0:0:0:0:
380,84,122849,1,8,0:0:0:0:
412,100,122896,1,8,0:0:0:0:
392,128,122943,1,8,0:0:0:0:
372,156,122990,1,8,0:0:0:0:
352,184,123037,1,8,0:0:0:0:
328,220,123084,6,0,P|312:288|368:364,1,116.999994644165,4|0,0:0|0:0,0:0:0:0:
184,164,123271,2,0,P|200:96|144:20,1,116.999994644165,8|0,0:0|0:0,0:0:0:0:
80,112,123459,1,2,0:0:0:0:
416,280,123552,1,0,0:0:0:0:
200,276,123646,2,0,L|92:336,1,116.999994644165,8|0,0:0|0:0,0:0:0:0:
312,276,123834,6,0,L|414:332,1,116.999994644165,4|0,0:0|0:0,0:0:0:0:
256,172,124021,2,0,L|256:55,1,116.999994644165,8|0,0:0|0:0,0:0:0:0:
200,276,124209,2,0,L|97:332,1,116.999994644165,2|0,0:0|0:0,0:0:0:0:
152,172,124396,5,8,0:0:0:0:
360,172,124490,1,0,0:0:0:0:
256,348,124584,5,4,0:0:0:0:
256,240,124677,1,0,0:0:0:0:
256,124,124771,6,0,P|300:84|368:56,1,116.999994644165,8|0,0:0|0:0,0:0:0:0:
416,280,124959,2,0,B|396:256|396:256|416:208|376:184|360:172|360:172|336:220|296:232|264:208|256:240,1,233.999989288331,0|8,0:0|0:0,0:0:0:0:
152,172,125240,1,0,0:0:0:0:
108,280,125334,2,0,B|80:332|80:332|48:352|16:300|48:264|88:240|72:200|24:220,1,233.999989288331,4|8,0:0|0:0,0:0:0:0:
60,104,125615,1,0,0:0:0:0:
152,172,125709,6,0,B|216:132|240:136|256:124|256:124|224:172|236:200|264:224|252:248,1,233.999989288331,2|8,0:0|0:0,0:0:0:0:
312,340,125990,1,0,0:0:0:0:
416,284,126084,2,0,B|444:224|424:164|424:164|384:220|348:192|328:172,1,233.999989288331,4|8,0:0|0:0,0:0:0:0:
372,64,126365,1,0,0:0:0:0:
312,256,126459,6,0,P|248:256|212:300,1,116.999994644165,4|0,0:0|0:0,0:0:0:0:
54,208,126646,2,0,P|118:208|154:164,1,116.999994644165,8|0,0:0|0:0,0:0:0:0:
236,76,126834,5,4,0:0:0:0:
372,64,126927,1,0,0:0:0:0:
436,172,127021,2,0,P|412:232|416:288,1,116.999994644165,8|0,0:0|0:0,0:0:0:0:
216,187,127209,2,0,P|238:133|237:75,1,116.999994644165,4|0,0:0|0:0,0:0:0:0:
128,32,127396,5,8,0:0:0:0:
148,276,127490,1,0,0:0:0:0:
320,156,127584,2,0,B|380:120|432:120|432:120|436:172|408:204|464:244,1,233.999989288331,4|8,0:0|0:0,0:0:0:0:
396,336,127865,5,0,0:0:0:0:
256,264,127959,1,4,0:0:0:0:
116,336,128052,1,0,0:0:0:0:
256,264,128146,1,8,0:0:0:0:
364,220,128240,6,0,L|304:340,1,116.999994644165,0|4,0:0|0:0,0:0:0:0:
148,220,128427,2,0,L|208:340,1,116.999994644165,0|8,0:0|0:0,0:0:0:0:
256,264,128615,2,0,B|256:204|256:204|252:188|252:188|260:188|260:188|252:176|252:176|260:176|260:176|252:164|252:164|260:164|260:164|252:152|252:152|260:152|260:152|260:140|260:140|252:140|252:140|256:132|256:132|256:76,1,233.999989288331
148,32,128896,1,8,0:0:0:0:
364,32,128990,1,0,0:0:0:0:
180,155,129084,6,0,P|254:79|332:152,1,233.999989288331,4|8,0:0|0:0,0:0:0:0:
440,196,129365,1,0,0:0:0:0:
331,232,129459,2,0,P|254:304|180:228,1,233.999989288331,4|8,0:0|0:0,0:0:0:0:
72,196,129740,1,0,0:0:0:0:
72,196,129834,5,4,0:0:0:0:
256,84,129927,1,0,0:0:0:0:
256,84,130021,1,8,0:0:0:0:
440,196,130115,1,0,0:0:0:0:
440,196,130209,1,4,0:0:0:0:
256,296,130302,2,0,L|256:156,1,116.999994644165,0|8,0:0|0:0,0:0:0:0:
164,252,130490,5,0,0:0:0:0:
84,340,130584,1,4,0:0:0:0:
428,340,130677,1,0,0:0:0:0:
348,252,130771,1,8,0:0:0:0:
256,180,130865,2,0,L|256:48,1,116.999994644165,0|4,0:0|0:0,0:0:0:0:
140,36,131052,2,0,L|140:156,1,116.999994644165,0|8,0:0|0:0,0:0:0:0:
372,153,131240,2,0,L|372:36,1,116.999994644165,0|0,0:0|0:0,0:0:0:0:
256,180,131427,1,0,0:0:0:0:
256,296,131521,6,0,B|192:296|164:252|164:252|147:333|84:340,1,233.999989288331,8|4,0:0|0:0,0:0:0:0:
80,156,132084,6,0,P|116:120|112:172,1,116.999994644165,4|0,0:0|0:0,0:0:0:0:
432,156,132271,2,0,P|396:120|400:172,1,116.999994644165,8|0,0:0|0:0,0:0:0:0:
432,276,132459,6,0,P|396:312|400:260,1,116.999994644165,4|0,0:0|0:0,0:0:0:0:
80,276,132646,2,0,P|116:312|112:260,1,116.999994644165,8|0,0:0|0:0,0:0:0:0:
256,32,132834,6,0,L|256:156,1,116.999994644165,4|0,0:0|0:0,0:0:0:0:
256,352,133021,2,0,L|256:228,1,116.999994644165,8|0,0:0|0:0,0:0:0:0:
448,192,133209,6,0,L|324:192,1,116.999994644165,4|0,0:0|0:0,0:0:0:0:
64,192,133396,2,0,L|188:192,1,116.999994644165,8|0,0:0|0:0,0:0:0:0:
402,221,133584,5,12,0:0:0:0:
393,249,133630,1,0,0:0:0:0:
380,274,133677,1,0,0:0:0:0:
361,297,133724,1,0,0:0:0:0:
338,316,133771,5,12,0:0:0:0:
313,329,133818,1,0,0:0:0:0:
285,338,133865,1,0,0:0:0:0:
256,341,133912,1,0,0:0:0:0:
226,338,133959,5,12,0:0:0:0:
198,329,134005,1,0,0:0:0:0:
173,316,134052,1,0,0:0:0:0:
150,297,134099,1,0,0:0:0:0:
131,274,134146,5,12,0:0:0:0:
118,249,134193,1,0,0:0:0:0:
109,221,134240,1,0,0:0:0:0:
106,191,134287,1,0,0:0:0:0:
109,162,134334,5,12,0:0:0:0:
118,134,134380,1,8,0:0:0:0:
131,109,134427,1,8,0:0:0:0:
150,86,134474,1,8,0:0:0:0:
173,67,134521,5,12,0:0:0:0:
198,54,134568,1,8,0:0:0:0:
226,45,134615,1,8,0:0:0:0:
256,42,134662,1,8,0:0:0:0:
285,45,134709,5,12,0:0:0:0:
313,54,134755,1,8,0:0:0:0:
338,67,134802,1,8,0:0:0:0:
361,86,134849,1,8,0:0:0:0:
380,109,134896,5,12,0:0:0:0:
393,134,134943,1,8,0:0:0:0:
402,162,134990,1,8,0:0:0:0:
405,192,135037,1,8,0:0:0:0:
256,192,135084,12,2,141271,0:0:0:0:
