osu file format v9

[General]
AudioFilename: rsp - .mp3
AudioLeadIn: 0
PreviewTime: -1
Countdown: 0
SampleSet: Soft
StackLeniency: 0.7
Mode: 0
LetterboxInBreaks: 1

[Editor]
DistanceSpacing: 1
BeatDivisor: 2
GridSize: 8

[Metadata]
Title:Sakura ~ anata ni deaete yokatta
Artist:RSP
Creator:delusions
Version:Normal
Source:
Tags:clannad gundam MUHI6918 fanzhen0019

[Difficulty]
HPDrainRate:5
CircleSize:3
OverallDifficulty:4
ApproachRate:5
SliderMultiplier:0.89999990463257
SliderTickRate:1

[Events]
//Background and Video events
Video,0,"clannad.avi"
0,0,"Gundamer's BG.JPG"
//Break Periods
2,34093,35130
2,40093,41693
//Storyboard Layer 0 (Background)
//Storyboard Layer 1 (Fail)
//Storyboard Layer 2 (Pass)
//Storyboard Layer 3 (Foreground)
//Storyboard Sound Samples
//Background Colour Transformations
3,100,163,162,255

[TimingPoints]
893,375,4,2,1,50,1,0
90893,-100,4,2,1,50,0,1
117893,-100,4,2,1,50,0,0
165893,-100,4,2,1,50,0,1
189518,-100,4,2,1,50,0,0

[Colours]
Combo1 : 0,255,255
Combo2 : 5,240,5
Combo3 : 5,5,240
Combo4 : 240,5,5

[HitObjects]
88,80,6893,2,0,B|88:168|144:264|232:304,1,269.999971389771
312,280,8393,1,0
400,264,8768,1,0
424,176,9143,2,0,B|408:128,3,44.9999952316285
400,96,9893,6,0,B|312:64,1,89.999990463257
240,112,10643,2,0,B|144:72,1,89.999990463257
80,32,11393,1,0
56,256,12330,6,0,B|96:312|192:312,1,134.999985694885
216,320,13080,1,0
216,320,13268,1,0
192,232,13643,2,0,B|240:304|296:216|352:280,1,179.999980926514
432,320,14768,6,0,B|472:280,1,44.9999952316285
432,256,15143,2,0,B|448:200,1,44.9999952316285
416,176,15518,2,0,B|416:120,1,44.9999952316285
344,80,16080,6,0,B|304:48|248:48|208:80,1,134.999985694885
280,144,17018,1,0
192,144,17393,1,0
104,144,17768,2,0,B|48:144,2,44.9999952316285
64,224,18518,6,0,B|48:296|96:344|192:320,1,179.999980926514
264,320,19643,2,0,B|264:224,2,89.999990463257
352,312,20768,1,0
384,280,20955,1,0
408,248,21143,1,0
424,208,21330,1,0
432,168,21518,1,0
400,88,21893,6,0,B|312:88,3,89.999990463257
224,88,23393,1,0
96,272,24330,5,0
136,248,24518,1,0
176,224,24705,1,0
216,200,24893,1,0
216,288,25268,2,0,B|256:320|312:304,1,89.999990463257
344,304,25830,2,0,B|392:272,1,44.9999952316285
416,248,26205,2,0,B|432:200,1,44.9999952316285
368,136,26768,6,0,B|368:48|208:48|208:152,1,224.999976158142
280,192,28080,2,0,B|232:224|176:224|144:184,1,134.999985694885
120,160,28830,2,0,B|88:128,3,44.9999952316285
256,272,30330,5,0
256,224,30518,1,0
256,176,30705,1,0
256,128,30893,1,0
336,80,31268,6,0,B|408:144,1,89.999990463257
464,200,32018,2,0,B|440:288,1,89.999990463257
264,320,33143,1,0
264,320,33518,1,0
264,320,33893,1,0
184,32,36330,6,0,B|144:48|120:96,1,89.999990463257
104,136,36893,2,0,B|104:200,1,44.9999952316285
120,360,37830,6,0,B|160:344|184:296,1,89.999990463257
200,256,38393,2,0,B|200:192,1,44.9999952316285
256,88,39143,5,0
256,88,39518,1,0
256,88,39893,1,0
368,312,42893,6,0,B|416:296|424:248,1,89.999990463257
336,224,43643,1,0
336,224,44018,1,0
424,256,44393,2,0,B|448:208|392:152,1,89.999990463257
336,224,45143,1,0
336,224,45518,1,0
408,168,45893,2,0,B|384:120|336:120,1,89.999990463257
336,224,46643,1,0
336,224,47018,1,0
368,312,47393,2,0,B|280:312,1,89.999990463257
144,80,48893,6,0,B|96:104|88:152,1,89.999990463257
176,168,49643,2,0,B|168:216|120:240,1,89.999990463257
40,208,50393,1,0
64,296,50768,1,0
152,320,51143,1,0
224,272,51518,1,0
256,192,51893,2,0,B|256:104,2,89.999990463257
408,88,53393,6,0,B|456:112|456:168,2,89.999990463257
416,264,54893,5,0
352,328,55268,1,0
288,272,55643,2,0,B|200:272,1,89.999990463257
136,328,56393,1,0
72,264,56768,1,0
128,192,57143,2,0,B|224:192,3,89.999990463257
312,192,58643,2,0,B|368:192|400:152,1,89.999990463257
448,88,59393,2,0,B|400:64|352:80,1,89.999990463257
88,88,60893,5,0
88,88,61268,1,0
144,160,61643,2,0,B|176:192|184:240,3,89.999990463257
192,328,63143,2,0,B|240:328,3,44.9999952316285
280,328,63893,1,0
280,328,64268,1,0
448,112,65393,5,0
424,200,65768,1,0
360,136,66143,1,0
192,72,66893,6,0,B|232:40|288:72,2,89.999990463257
248,144,68018,1,0
296,224,68393,2,0,B|256:256|200:224,2,89.999990463257
192,72,69893,1,0
64,192,70643,1,0
200,304,71393,2,0,B|104:304,2,89.999990463257
376,320,72893,6,0,B|432:312|456:256,1,89.999990463257
400,192,73643,1,0
456,120,74018,2,0,B|440:80|384:64,1,89.999990463257
256,192,75143,2,0,B|256:144,1,44.9999952316285
208,144,75518,2,0,B|192:88,1,44.9999952316285
152,104,75893,1,0
64,96,76268,1,0
80,184,76643,1,0
128,256,77018,1,0
208,296,77393,1,0
472,56,78893,6,0,B|416:56|384:88,1,89.999990463257
456,144,79643,2,0,B|416:176|368:176,1,89.999990463257
304,120,80393,1,0
128,72,81143,2,0,B|72:80|64:144,2,89.999990463257
304,120,82643,1,0
232,168,83018,2,0,B|184:168,2,44.9999952316285
80,256,84143,6,0,B|152:312|256:328,1,179.999980926514
328,352,85268,1,0
416,328,85643,2,0,B|480:328|480:208|400:208,1,179.999980926514
336,272,86768,1,0
256,312,87143,5,0
216,288,87330,1,0
184,256,87518,1,0
160,216,87705,1,0
144,176,87893,1,0
176,96,88268,2,0,B|208:48,2,44.9999952316285
256,128,89018,2,0,B|256:216,1,89.999990463257
432,72,90893,6,0,B|448:128|416:168,2,89.999990463257
344,112,92018,1,0
256,88,92393,2,0,B|256:184,1,89.999990463257
176,136,93143,1,0
104,192,93518,1,0
176,248,93893,6,0,B|208:288|256:288,3,89.999990463257
256,200,95393,1,0
