osu file format v9

[General]
AudioFilename: rsp - .mp3
AudioLeadIn: 0
PreviewTime: -1
Countdown: 0
SampleSet: Soft
StackLeniency: 0.2
Mode: 0
LetterboxInBreaks: 1

[Editor]
DistanceSpacing: 1
BeatDivisor: 4
GridSize: 4

[Metadata]
Title:Sakura ~ anata ni deaete yokatta
Artist:RSP
Creator:delusions
Version:Hard
Source:
Tags:clannad gundam MUHI6918 fanzhen0019

[Difficulty]
HPDrainRate:7
CircleSize:4
OverallDifficulty:5
ApproachRate:8
SliderMultiplier:1.30000000596046
SliderTickRate:2

[Events]
//Background and Video events
Video,0,"clannad.avi"
0,0,"BG.jpg"
//Break Periods
2,33343,35580
//Storyboard Layer 0 (Background)
//Storyboard Layer 1 (Fail)
//Storyboard Layer 2 (Pass)
//Storyboard Layer 3 (Foreground)
//Storyboard Sound Samples
//Background Colour Transformations
3,100,163,162,255

[TimingPoints]
893,375,4,2,1,50,1,0
6518,-100,4,2,1,50,0,1
30893,-200,4,2,1,50,0,1
33143,-100,4,2,1,50,0,0
90518,-100,4,2,1,50,0,1
114893,-200,4,2,1,50,0,1
117143,-100,4,2,1,50,0,0
130643,-200,4,2,1,50,0,0
132893,-100,4,2,1,50,0,0
165518,-100,4,2,1,50,0,1
189893,-100,4,2,1,50,0,0
207893,-200,4,2,1,5,0,0

[Colours]
Combo1 : 255,180,66
Combo2 : 128,255,0
Combo3 : 128,128,255
Combo4 : 255,128,255
Combo5 : 0,255,255

[HitObjects]
256,192,2393,12,0,6143
36,88,6518,5,0
68,180,6705,1,0
160,152,6893,1,0
136,60,7080,2,0,B|228:60,2,65.000000298023
248,128,7643,2,0,B|308:152|360:196,1,130.000000596046,0|0
332,252,8205,1,0
296,304,8393,2,0,B|236:280|184:236,1,130.000000596046,0|0
136,196,8955,5,0
188,156,9143,1,0
240,196,9330,1,0
296,160,9518,1,0
344,204,9705,1,0
392,156,9893,2,0,B|384:116|360:84,2,65.000000298023,0|0|0
344,204,10455,1,0
388,252,10643,2,0,B|380:292|356:324,2,65.000000298023
272,312,11393,1,0
180,220,11768,1,0
60,268,12143,5,0
60,268,12330,2,0,B|36:240|60:208|60:208|36:176|60:136,1,130.000000596046
100,100,12893,1,0
152,60,13080,2,0,B|184:36|224:40,1,65.000000298023
276,60,13455,1,0
220,96,13643,2,0,B|204:132|208:168,1,65.000000298023
252,208,14018,1,0
308,176,14205,2,0,B|320:136|316:100,1,65.000000298023
68,68,14768,5,0
136,192,14955,1,0
220,96,15143,1,0
340,140,15330,1,0
408,252,15518,1,0
280,240,15705,1,0
32,320,16080,5,0
68,264,16268,2,0,B|56:232|56:192,1,65.000000298023
112,232,16643,2,0,B|180:256|256:260,1,130.000000596046
304,244,17206,1,0
256,200,17393,2,0,B|296:152|320:76,1,130.000000596046
372,52,17955,1,0
424,196,18143,1,0
80,308,18518,5,0
140,284,18705,1,0
180,232,18893,2,0,B|188:196|216:188|216:188|220:156|264:140,1,130.000000596046
388,180,19643,2,0,B|380:216|352:224|352:224|348:256|304:272,1,130.000000596046
272,216,20205,2,0,B|248:244|216:252,1,65.000000298023
56,76,20768,5,0
120,84,20955,1,0
180,100,21143,2,0,B|240:120|300:164,1,130.000000596046
344,200,21705,1,0
280,188,21893,2,0,B|296:256|344:308,1,130.000000596046
276,312,22455,1,0
252,252,22643,2,0,B|220:236|200:216|200:216|172:216|136:192,2,130.000000596046
376,212,23768,1,0
452,108,24143,5,0
304,104,24330,2,0,B|348:104|376:124,1,65.000000298023
292,184,24705,2,0,B|252:188|220:168,1,65.000000298023
96,108,25268,1,0
56,168,25455,1,0
56,168,25643,2,0,B|84:200|80:236|80:236|128:288,1,130.000000596046
148,220,26205,2,0,B|176:244|228:248,1,65.000000298023
416,276,26768,5,0
456,216,26955,1,0
456,216,27143,2,0,B|428:184|432:148|432:148|384:96,1,130.000000596046
364,164,27705,2,0,B|336:140|284:136,1,65.000000298023
256,180,28080,2,0,B|268:224|296:252,2,65.000000298023
200,148,28643,2,0,B|164:152|128:128,1,65.000000298023
256,116,29018,2,0,B|268:72|296:44,1,65.000000298023
283,57,29393,1,0
64,192,30330,5,0
64,192,30517,1,0
64,192,30705,1,0
64,192,30893,2,0,B|196:192|256:216|256:216|324:192|456:192,1,390.000001788138
140,136,36330,5,0
216,116,36518,1,0
292,112,36705,1,0
368,132,36893,2,0,B|324:180|252:196,1,130.000000596046
140,248,37830,5,0
216,268,38018,1,0
292,272,38205,1,0
368,256,38393,2,0,B|324:208|252:192,1,130.000000596046
256,192,39143,1,0
256,192,39330,1,0
256,192,39518,12,0,41393
256,192,42143,5,0
208,64,42518,1,0
80,136,42893,1,0
80,136,43080,2,0,B|164:136,1,65.000000298023
324,212,43643,2,0,B|296:240|260:224,1,65.000000298023
216,132,44018,2,0,B|260:132|280:176,1,65.000000298023
188,252,44393,2,0,B|200:212|232:204,1,65.000000298023
392,240,44768,5,0
264,240,45143,1,0
264,240,45330,2,0,B|200:224|144:184,1,130.000000596046
112,128,45893,1,0
164,88,46080,1,0
228,76,46268,1,0
292,76,46455,1,0
356,92,46643,2,0,B|420:108|476:148,1,130.000000596046
500,204,47205,5,0
464,256,47393,1,0
408,288,47580,1,0
344,304,47768,2,0,B|280:288|224:248,1,130.000000596046
128,164,48518,1,0
192,36,48705,1,0
256,164,48893,1,0
320,36,49080,1,0
384,164,49268,1,0
392,312,49643,6,0,B|427:310|455:282,1,65.000000298023
340,296,50018,2,0,B|316:312|304:352,1,65.000000298023
387,252,50393,2,0,B|356:232|320:236,1,65.000000298023
232,268,50768,1,0
132,192,51143,5,0
132,192,51330,1,0
132,192,51518,2,0,B|212:192,1,65.000000298023
380,192,51893,1,0
380,192,52081,1,0
380,192,52268,2,0,B|315:192,1,65.000000298023
256,76,52643,1,0
256,76,52830,1,0
256,76,53018,2,0,B|256:156,1,65.000000298023
60,76,53393,5,0
136,256,53768,1,0
256,76,54143,1,0
340,252,54518,1,0
416,104,54893,5,0
352,88,55080,1,0
288,84,55268,2,0,B|256:76|220:84,1,65.000000298023
160,92,55643,1,0
96,104,55830,1,0
140,152,56018,1,0
200,184,56205,1,0
264,192,56393,2,0,B|332:184|392:160,1,130.000000596046
448,132,56955,1,0
492,84,57143,1,0
380,264,57518,5,0
448,272,57705,1,0
424,212,57893,2,0,B|400:148|348:88,1,130.000000596046
296,84,58455,1,0
232,100,58643,2,0,B|168:120|120:176,1,130.000000596046
92,228,59205,1,0
148,264,59393,2,0,B|212:276|288:256,2,130.000000596046
296,192,60518,6,0,B|304:160|336:136,1,65.000000298023
216,192,60893,2,0,B|208:224|176:248,1,65.000000298023,0|0
128,288,61268,1,0
128,288,61643,1,0
152,160,61831,1,0
256,244,62018,1,0
384,288,62205,1,0
360,160,62393,1,0
256,84,62581,5,0
256,84,62768,2,0,B|256:216,1,130.000000596046
256,244,63330,1,0
256,272,63518,1,0
256,304,63705,1,0
256,332,63893,1,0
256,84,64268,1,0
256,84,64456,1,0
112,72,65393,5,0
372,76,65768,1,0
184,256,66143,1,0
444,256,66518,1,0
52,120,66893,5,0
100,80,67080,1,0
116,144,67268,1,0
176,168,67455,2,0,B|208:200|244:200,1,65.000000298023
292,224,67830,1,0
344,264,68018,1,0
288,292,68205,1,0
228,264,68393,2,0,B|188:252|156:224,1,65.000000298023
84,140,68955,5,0
100,76,69143,1,0
148,132,69330,1,0
160,68,69518,2,0,B|196:64|232:72,1,65.000000298023
208,132,69893,1,0
428,244,70268,1,0
364,252,70455,1,0
412,308,70643,1,0
352,316,70831,2,0,B|316:320|280:312,1,65.000000298023
304,252,71206,1,0
364,252,71393,5,0
148,252,71768,1,0
416,64,72143,1,0
184,64,72518,1,0
64,184,72705,2,0,B|100:172|136:176,1,65.000000298023
228,260,73080,2,0,B|199:263|163:251,1,65.000000298023
424,152,73643,2,0,B|436:188|432:224,1,65.000000298023
356,196,74018,1,0
284,176,74205,2,0,B|272:140|276:104,1,65.000000298023
104,120,74955,2,0,B|144:112|188:120,1,65.000000298023
284,176,75330,2,0,B|252:184|220:176,1,65.000000298023
352,128,75705,2,0,B|392:120|436:128,1,65.000000298023
292,60,76268,2,0,B|284:100|292:144,1,65.000000298023
228,236,76643,2,0,B|236:204|228:172,1,65.000000298023
304,252,77018,2,0,B|296:292|304:336,1,65.000000298023
301,316,77393,1,0
112,264,77768,1,0
272,152,78143,1,0
84,96,78518,1,0
456,56,78893,6,0,B|416:92|416:92|448:128|376:172,1,130.000000596046
360,204,79455,1,0
360,204,79643,1,0
312,248,80018,1,0
252,276,80393,1,0
192,248,80768,1,0
140,208,81143,1,0
140,208,81330,1,0
100,156,81518,2,0,B|60:120|60:120|92:84|20:40,1,130.000000596046
188,68,82268,1,0
316,68,82643,1,0
256,136,82830,2,0,B|256:200,1,65.000000298023
256,232,83205,1,0
256,264,83393,1,0
52,64,84143,2,0,B|108:120,3,65.000000298023
97,109,84893,1,0
97,109,85268,1,0
460,64,85643,2,0,B|404:120,3,65.000000298023
414,109,86393,1,0
414,109,86768,1,0
256,40,87143,6,0,B|256:120,3,65.000000298023
256,105,87893,1,0
256,176,88268,1,0
256,176,88455,1,0
256,176,88643,1,0
256,304,89018,1,0
72,88,89393,1,0
428,88,89768,1,0
256,304,90143,1,0
476,296,90518,5,0
444,204,90705,1,0
352,232,90893,1,0
376,324,91080,2,0,B|284:324,2,65.000000298023
264,256,91643,2,0,B|204:232|152:188,1,130.000000596046
180,132,92205,1,0
216,80,92393,2,0,B|276:104|328:148,1,130.000000596046
376,188,92955,5,0
324,228,93143,1,0
272,188,93330,1,0
216,224,93518,1,0
168,180,93705,1,0
120,228,93893,2,0,B|128:268|152:300,2,65.000000298023
168,180,94455,1,0
124,132,94643,2,0,B|132:92|156:60,2,65.000000298023
256,144,95393,5,0
336,32,95768,1,0
432,112,96143,1,0
432,112,96330,2,0,B|456:140|432:172|432:172|456:204|432:244,1,130.000000596046
416,288,96893,1,0
384,336,97080,2,0,B|352:360|312:356,1,65.000000298023
272,320,97455,1,0
336,304,97643,2,0,B|352:268|348:232,1,65.000000298023
292,208,98018,1,0
228,224,98205,2,0,B|216:264|220:300,1,65.000000298023
444,316,98768,5,0
376,192,98955,1,0
296,292,99143,1,0
172,244,99330,1,0
104,132,99518,1,0
232,144,99705,1,0
420,92,100268,5,0
472,128,100455,1,0
436,180,100643,2,0,B|368:156|292:152,1,130.000000596046
248,180,101205,1,0
300,220,101393,2,0,B|260:268|236:344,1,130.000000596046
204,280,101955,2,0,B|188:244|192:216,1,65.000000298023
432,76,102518,5,0
372,100,102705,1,0
332,152,102893,2,0,B|324:188|296:196|296:196|292:228|248:244,1,130.000000596046
124,204,103643,2,0,B|132:168|160:160|160:160|164:128|208:112,1,130.000000596046
240,168,104205,2,0,B|264:140|296:132,1,65.000000298023
440,324,104768,5,0
396,276,104955,1,0
332,284,105143,2,0,B|272:264|212:220,1,130.000000596046
168,184,105705,1,0
232,196,105893,2,0,B|216:128|168:76,1,130.000000596046
236,72,106455,1,0
260,132,106643,2,0,B|292:148|312:168|312:168|340:168|376:192,2,130.000000596046
172,48,107768,1,0
100,156,108143,5,0
224,236,108330,2,0,B|180:236|152:216,1,65.000000298023
236,156,108705,2,0,B|276:152|308:172,1,65.000000298023
416,276,109268,1,0
456,216,109455,1,0
456,216,109643,2,0,B|428:184|432:148|432:148|384:96,1,130.000000596046
364,164,110205,2,0,B|336:140|284:136,1,65.000000298023
96,108,110768,5,0
56,168,110955,1,0
56,168,111143,2,0,B|84:200|80:236|80:236|128:288,1,130.000000596046
148,220,111705,2,0,B|176:244|228:248,1,65.000000298023
312,236,112268,2,0,B|348:232|384:256,1,65.000000298023
256,268,112643,2,0,B|244:312|216:340,1,65.000000298023
256,204,113018,2,0,B|244:160|216:132,1,65.000000298023
228,145,113393,1,0
448,192,114330,1,0
448,192,114517,1,0
448,192,114705,1,0
448,192,114893,2,0,B|316:192|256:168|256:168|188:192|56:192,1,390.000001788138
80,288,119393,5,0
256,92,119768,1,0
432,288,120143,1,0
292,344,120518,1,0
356,344,120705,1,0
324,288,120893,1,0
228,244,121268,1,0
164,244,121456,1,0
196,188,121643,1,0
296,156,122018,1,0
360,156,122205,1,0
328,100,122393,1,0
224,104,122768,1,0
192,48,122955,1,0
160,104,123143,1,0
96,152,123518,1,0
64,208,123705,1,0
128,208,123893,1,0
256,192,124268,1,0
96,152,124643,1,0
144,108,125018,1,0
340,108,125393,1,0
388,152,125768,1,0
256,192,126143,1,0
128,208,126518,1,0
64,208,126706,1,0
96,152,126893,1,0
160,104,127268,1,0
192,48,127456,1,0
224,104,127643,1,0
328,100,128018,1,0
360,156,128206,1,0
296,156,128393,1,0
196,188,128768,1,0
164,244,128955,1,0
228,244,129143,1,0
324,288,129518,1,0
356,344,129706,1,0
292,344,129893,1,0
256,192,130268,1,0
60,192,130643,2,0,B|192:192|256:168|256:168|316:192|448:192,1,390.000001788138
384,100,133643,5,0
124,100,134018,1,0
256,324,134393,1,0
128,288,135143,1,0
388,288,135518,1,0
256,68,135893,1,0
376,192,136643,1,0
136,192,137018,1,0
256,192,137393,1,0
124,88,138518,5,0
192,104,138705,1,0
260,124,138893,2,0,B|319:143|380:200,1,130.000000596046
128,312,139643,5,0
196,292,139830,1,0
260,260,140018,2,0,B|319:240|376:184,1,130.000000596046
176,128,140768,6,0,B|196:112|240:112,1,65.000000298023
328,164,141143,2,0,B|308:184|264:184,1,65.000000298023
400,112,141518,2,0,B|436:128|472:120,1,65.000000298023
440,180,141893,1,0
480,232,142080,1,0
416,244,142268,2,0,B|372:288|280:316,1,130.000000596046
248,272,142830,1,0
312,264,143018,2,0,B|288:208|228:160,1,130.000000596046
104,136,143768,1,0
396,136,144143,5,0
396,136,144330,2,0,B|356:136|336:148|336:148|312:136|260:136,1,130.000000596046
104,136,144893,2,0,B|168:136,1,65.000000298023
192,196,145268,2,0,B|216:224|220:264,1,65.000000298023
228,140,145643,2,0,B|280:84|340:56,1,130.000000596046
364,116,146205,1,0
300,132,146393,2,0,B|320:200|360:248,1,130.000000596046
300,272,146955,1,0
236,252,147143,1,0
176,276,147330,1,0
116,252,147518,1,0
56,280,147705,1,0
148,84,148268,6,0,B|148:124|180:152,1,65.000000298023
256,92,148643,1,0
256,92,148830,1,0
244,188,149018,2,0,B|284:188|312:156,1,65.000000298023
256,92,149393,1,0
256,92,149580,1,0
352,88,149768,2,0,B|352:48|320:20,1,65.000000298023
256,92,150143,1,0
76,192,150893,5,0
108,192,151080,1,0
140,192,151268,1,0
428,192,152393,5,0
396,192,152580,1,0
364,192,152768,1,0
256,192,153893,1,0
256,20,155393,5,0
256,52,155580,1,0
256,84,155768,1,0
256,192,156143,1,0
256,192,156518,1,0
256,192,156705,2,0,B|256:264,1,65.000000298023
56,284,157268,2,0,B|80:316|112:324,1,65.000000298023
136,312,157643,2,0,B|164:280|160:244,1,65.000000298023
136,232,158018,2,0,B|96:236|72:256,2,65.000000298023
428,160,158768,5,0
364,180,158956,1,0
316,220,159143,2,0,B|300:288|368:324|368:324|416:284|504:336,1,260.000001192092
256,128,160268,2,0,B|256:192,1,65.000000298023
192,192,160643,2,0,B|256:192,1,65.000000298023
320,192,161018,2,0,B|256:192,1,65.000000298023
256,192,161393,5,0
256,192,161768,1,0
256,192,162143,1,0
48,80,162893,1,0
176,80,163268,1,0
304,80,163643,1,0
456,288,164393,1,0
328,288,164768,1,0
200,288,165143,1,0
144,128,165518,6,0,B|104:120|64:128,2,65.000000298023
144,192,166080,1,0
144,256,166268,2,0,B|104:264|64:256,2,65.000000298023
296,88,167018,2,0,B|320:120|328:156|328:156|352:152|384:176,1,130.000000596046
328,288,167768,2,0,B|352:320|384:328,1,65.000000298023
408,316,168143,2,0,B|436:284|432:248,1,65.000000298023
408,236,168518,2,0,B|368:240|344:260,1,65.000000298023
224,224,168893,2,0,B|160:232|80:216,1,130.000000596046
112,160,169455,1,0
128,96,169643,2,0,B|192:88|272:104,2,130.000000596046
160,288,170768,5,0
56,168,171143,1,0
56,168,171330,1,0
56,168,171518,2,0,B|88:192|104:224,1,65.000000298023
192,192,171893,2,0,B|216:232|256:248,1,65.000000298023
336,272,172268,1,0
488,152,172643,1,0
488,152,172830,2,0,B|456:128|440:96,1,65.000000298023
352,128,173205,2,0,B|328:88|288:72,1,65.000000298023
88,92,173768,6,0,B|112:124|144:132,1,65.000000298023
168,120,174143,2,0,B|196:88|192:52,1,65.000000298023
168,40,174518,2,0,B|128:44|104:64,1,65.000000298023
320,80,175080,2,0,B|288:104|280:144,1,65.000000298023
424,192,175455,2,0,B|400:168|368:152,1,65.000000298023
280,248,176018,1,0
88,72,176393,5,0
72,280,176768,1,0
72,280,176955,1,0
72,280,177142,2,0,B|88:256|128:240|128:240|136:200|160:176,1,130.000000596046
424,280,177892,2,0,B|408:256|368:240|368:240|360:200|336:176,1,130.000000596046
408,192,178455,2,0,B|384:160|392:128,1,65.000000298023
136,72,179018,2,0,B|128:108|100:116|100:116|96:148|52:164,1,130.000000596046
176,224,179768,6,0,B|224:272|296:296,1,130.000000596046
328,248,180330,1,0
264,232,180518,2,0,B|296:176|360:136,1,130.000000596046
304,104,181080,1,0
264,152,181268,2,0,B|208:120|128:112,1,130.000000596046
80,128,181830,1,0
128,176,182018,1,0
120,272,182393,5,0
256,296,182768,1,0
384,272,183143,1,0
376,80,183330,1,0
376,80,183518,2,0,B|368:116|340:124|340:124|336:156|288:176,1,130.000000596046
80,100,184268,1,0
156,116,184455,1,0
232,136,184642,1,0
308,160,184830,1,0
380,192,185018,2,0,B|440:224|484:276,1,130.000000596046
80,284,185768,1,0
156,268,185955,1,0
232,248,186142,1,0
308,224,186330,1,0
380,192,186518,2,0,B|440:160|484:108,1,130.000000596046
304,152,187080,2,0,B|252:200,1,65.000000298023
208,152,187455,2,0,B|264:204,1,65.000000298023
304,240,187830,2,0,B|248:188,1,65.000000298023
208,240,188205,2,0,B|260:192,1,65.000000298023
256,196,188580,5,0
256,196,188768,1,0
256,196,188955,1,0
256,48,189143,2,0,B|256:116,1,65.000000298023
256,196,189518,1,0
256,292,189705,1,0
184,160,190830,5,0
256,196,191017,1,0
328,228,191205,1,0
400,256,191393,2,0,B|408:192|388:120,1,130.000000596046
324,168,191955,1,0
256,196,192142,1,0
184,224,192330,1,0
108,240,192518,2,0,B|100:176|120:104,1,130.000000596046
118,111,193080,1,0
256,76,193643,5,0
256,172,193830,2,0,B|256:316,1,130.000000596046
256,192,194393,12,0,195705
48,52,195893,5,0
112,52,196080,1,0
176,52,196268,1,0
256,164,196643,1,0
256,164,196830,2,0,B|256:240,1,65.000000298023
164,196,197205,1,0
256,96,197392,1,0
340,196,197580,1,0
256,228,198330,6,0,B|256:152,1,65.000000298023
164,196,198705,1,0
256,296,198892,1,0
340,196,199080,1,0
256,96,199643,1,0
256,96,199830,1,0
256,192,200018,12,0,201705
496,60,201893,5,0
432,60,202081,1,0
368,60,202268,1,0
256,163,202643,1,0
340,196,202830,1,0
256,296,203018,1,0
164,196,203205,1,0
256,163,203393,2,0,B|256:228,1,65.000000298023
340,196,204330,5,0
256,96,204518,1,0
164,196,204705,1,0
256,229,204893,2,0,B|256:164,1,65.000000298023
64,56,205643,1,0
452,56,206393,1,0
256,284,207143,1,0
256,128,207893,6,0,B|84:-4|52:260|176:240|256:324|256:324|320:240|500:272|424:-8|256:132,1,845.000003874299
