osu file format v12

[General]
AudioFilename: Yakusoku no Basho.mp3
AudioLeadIn: 1952
PreviewTime: 53799
Countdown: 0
SampleSet: Soft
StackLeniency: 0.7
Mode: 0
LetterboxInBreaks: 1
WidescreenStoryboard: 0

[Editor]
DistanceSpacing: 0.9
BeatDivisor: 4
GridSize: 4
TimelineZoom: 1

[Metadata]
Title:Yakusoku no Basho
TitleUnicode:約束の場所
Artist:ROUND TABLE featuring Nino
ArtistUnicode:ROUND TABLE featuring Nino
Creator:UnitedWeSin
Version:Normal
Source:One Off
Tags:SINGLES BEST 2002-2012 MEMORIES わんおふ opening Moway uws
BeatmapID:309391
BeatmapSetID:109425

[Difficulty]
HPDrainRate:4
CircleSize:3
OverallDifficulty:4
ApproachRate:5
SliderMultiplier:1.2
SliderTickRate:1

[Events]
//Background and Video events
0,0,"bg.jpg",0,0
//Break Periods
2,83320,91920
2,189986,198586
//Storyboard Layer 0 (Background)
//Storyboard Layer 1 (Fail)
//Storyboard Layer 2 (Pass)
//Storyboard Layer 3 (Foreground)
//Storyboard Sound Samples
//Background Colour Transformations
3,100,163,162,255

[TimingPoints]
-213,416.666666666667,4,2,1,30,1,0
1453,-100,4,2,1,50,0,0
2912,-100,4,2,1,55,0,0
3745,-100,4,2,1,60,0,0
4162,-100,4,2,1,65,0,0
4787,-100,4,2,1,70,0,0
11453,-100,4,2,1,60,0,0
54787,-100,4,2,1,70,0,1
80620,-100,4,2,1,60,0,1
81453,-100,4,2,1,50,0,0
82703,361.44578313253,4,2,1,50,1,0
83120,416.666666666667,4,2,1,70,1,0
83120,-100,4,2,1,70,0,0
93953,-100,4,2,1,60,0,0
94370,-100,4,2,1,50,0,0
96453,-100,4,2,1,60,0,0
139786,-100,4,2,1,70,0,1
165828,-100,4,2,1,60,0,1
166453,-100,4,2,1,70,0,0
185203,-100,4,2,1,60,0,0
185620,-100,4,2,1,55,0,0
186036,-100,4,2,1,50,0,0
186453,-100,4,2,1,40,0,0
186661,-100,4,2,1,5,0,0
199786,-100,4,2,1,50,0,0
206453,-100,4,2,1,60,0,0
215411,-100,4,2,1,50,0,0
216453,-100,4,2,1,70,0,1
236453,-100,4,2,1,70,0,1
244682,-100,4,2,1,50,0,1
245307,-100,4,2,1,60,0,1
246036,-100,4,2,1,65,0,1
246453,-100,4,2,1,70,0,0
272286,-100,4,2,1,60,0,0
273120,-100,4,2,1,5,0,0

[Colours]
Combo1 : 157,60,255
Combo2 : 255,136,79
Combo3 : 70,153,255

[HitObjects]
116,36,1453,6,0,L|84:216,1,180,4|4,0:0|0:0,0:0:0:0:
136,308,2495,2,0,L|124:368,2,60,0|0|4,0:0|3:0|0:0,0:0:0:0:
220,240,3328,2,0,L|231:181,2,60,0|0|4,0:0|3:0|0:0,0:0:0:0:
280,328,4162,2,0,P|312:338|348:344,1,60,0|0,3:0|3:0,0:0:0:0:
448,320,4787,6,0,P|473:256|463:201,1,120,4|0,0:0|3:0,0:0:0:0:
380,140,5620,2,0,B|336:100|336:100|304:28,1,120,2|2,0:0|3:0,0:0:0:0:
260,28,6245,2,0,B|206:55|206:55|146:58,2,120,4|2|2,0:0|0:0|0:0,0:0:0:0:
252,136,7495,2,0,L|228:200,1,60,2|0,0:0|3:0,0:0:0:0:
140,252,8120,6,0,P|184:291|244:300,1,120,2|0,0:0|3:0,0:0:0:0:
340,256,8953,2,0,P|398:264|442:304,1,120,0|8,3:0|0:3,0:0:0:0:
484,336,9578,2,0,L|508:196,1,120,4|0,0:3|3:0,0:0:0:0:
480,168,10203,1,2,3:0:0:0:
192,52,11453,6,0,L|160:184,1,120,4|0,0:0|3:0,0:0:0:0:
236,252,12287,2,0,P|212:286|180:304,2,60,2|0|0,0:0|0:0|3:0,0:0:0:0:
276,216,12912,2,0,P|328:188|408:204,1,120,2|0,0:0|0:0,0:0:0:0:
468,264,13745,2,0,P|415:292|356:287,1,120,2|0,0:0|0:0,0:0:0:0:
276,216,14578,6,0,B|209:178|176:245|97:199,1,180,2|0,3:0|3:0,0:0:0:0:
36,116,15620,2,0,P|20:88|-4:64,2,60,0|0|0,0:0|3:0|0:0,0:0:0:0:
92,112,16245,2,0,P|157:92|192:48,1,120,2|0,3:0|0:0,0:0:0:0:
228,16,16870,2,0,L|260:76,1,60,0|2,3:0|0:0,0:0:0:0:
364,72,17495,2,0,L|392:19,2,60,0|0|0,0:0|0:0|0:0,0:0:0:0:
356,124,18120,6,0,P|355:186|389:241,1,120,2|0,0:0|3:0,0:0:0:0:
364,340,18953,2,0,P|399:350|431:344,2,60,2|0|0,0:0|0:0|3:0,0:0:0:0:
320,308,19578,2,0,P|264:284|204:292,1,120,2|0,0:0|0:0,0:0:0:0:
104,332,20412,2,0,L|48:216,1,120,2|0,0:0|0:0,0:0:0:0:
44,172,21037,1,0,3:0:0:0:
64,124,21245,6,0,P|112:84|232:88,1,180,2|0,0:0|3:0,0:0:0:0:
304,156,22287,2,0,P|376:140|412:104,1,120,0|0,0:0|3:0,0:0:0:0:
452,76,22912,2,0,L|504:200,1,120,4|2,0:0|0:0,0:0:0:0:
432,272,23745,2,0,P|360:288|324:324,1,120,2|2,0:0|0:0,0:0:0:0:
300,364,24370,1,0,3:0:0:0:
196,340,24787,6,0,B|146:299|146:299|124:240,1,120,4|0,0:0|3:2,0:0:0:0:
44,180,25620,2,0,L|60:116,1,60,2|0,0:0|0:0,0:0:0:0:
164,108,26245,2,0,P|203:152|269:179,1,120,2|0,0:0|0:0,0:0:0:0:
344,244,27078,2,0,P|289:268|250:313,1,120,2|0,0:0|0:0,0:0:0:0:
352,352,27912,6,0,P|436:296|452:216,1,180,2|0,3:0|3:0,0:0:0:0:
400,128,28953,2,0,P|416:88|432:68,2,60,2|2|0,0:0|0:0|3:0,0:0:0:0:
360,164,29578,2,0,P|300:172|208:104,1,180,2|0,3:0|3:0,0:0:0:0:
100,88,30620,2,0,P|71:105|39:110,2,60,0|0|0,3:0|0:0|3:0,0:0:0:0:
136,188,31453,6,0,L|100:304,1,120,4|0,0:0|3:0,0:0:0:0:
180,376,32287,2,0,L|247:362,1,60,0|2,0:0|0:0,0:0:0:0:
312,284,32912,2,0,P|322:211|294:149,1,120,2|0,0:0|0:0,0:0:0:0:
268,136,33537,2,0,P|264:64|288:12,2,120,0|0|0,3:0|0:0|3:0,0:0:0:0:
220,232,34787,6,0,P|160:232|104:200,1,120,2|0,0:0|3:0,0:0:0:0:
112,96,35620,2,0,P|165:69|234:78,1,120,2|0,0:0|3:0,0:0:0:0:
268,108,36245,2,0,P|326:95|374:52,1,120,4|2,0:0|0:0,0:0:0:0:
408,16,36870,1,0,3:0:0:0:
476,100,37287,2,0,P|497:73|515:32,2,60,2|0|0,3:2|0:0|3:0,0:0:0:0:
424,200,38120,6,0,P|416:264|436:316,1,120,4|0,0:0|3:0,0:0:0:0:
336,360,38953,2,0,P|308:307|259:273,1,120,2|0,0:0|3:0,0:0:0:0:
212,300,39578,2,0,B|148:296|148:296|92:264,1,120,2|0,3:0|0:0,0:0:0:0:
68,224,40203,1,0,3:0:0:0:
92,120,40620,1,2,0:0:0:0:
196,84,41037,1,0,3:0:0:0:
296,124,41453,6,0,P|368:120|412:88,1,120,4|0,0:0|3:0,0:0:0:0:
460,84,42078,1,2,0:0:0:0:
484,188,42495,2,0,L|464:260,1,60,2|0,0:0|3:0,0:0:0:0:
416,260,42912,2,0,P|344:264|264:340,1,180,2|0,0:0|3:0,0:0:0:0:
164,324,43953,2,0,P|160:352|140:380,2,60,2|0|0,3:2|0:0|3:0,0:0:0:0:
120,224,44787,6,0,P|108:168|128:108,1,120,4|0,0:0|3:0,0:0:0:0:
172,80,45412,2,0,P|228:88|277:129,1,120,2|0,0:0|0:0,0:0:0:0:
300,176,46037,1,0,3:0:0:0:
408,192,46453,6,0,P|384:252|336:284,1,120,2|0,0:0|3:0,0:0:0:0:
288,300,47078,2,0,P|224:296|160:328,1,120,2|2,0:0|0:0,0:0:0:0:
128,348,47703,1,0,3:0:0:0:
40,288,48120,6,0,P|13:216|20:164,1,120,2|0,0:0|3:0,0:0:0:0:
100,104,48953,2,0,P|78:78|54:61,2,60,2|2|0,0:0|0:0|3:0,0:0:0:0:
120,156,49578,2,0,P|165:194|290:191,1,180,2|0,3:0|3:0,0:0:0:0:
368,264,50620,2,0,P|355:300|336:336,2,60,2|0|0,0:0|0:0|3:0,0:0:0:0:
444,188,51453,6,0,P|448:124|420:72,1,120,4|0,0:0|3:0,0:0:0:0:
320,48,52287,2,0,L|292:100,1,60,8|0,3:0|0:0,0:0:0:0:
240,112,52703,1,0,3:0:0:0:
188,124,52912,6,0,L|128:232,1,120,4|0,0:0|3:0,0:0:0:0:
80,248,53537,1,2,3:0:0:0:
120,352,53953,2,0,B|180:360|180:360|244:328,1,120,0|8,3:0|3:0,0:0:0:0:
256,228,54787,6,0,P|316:204|380:216,1,120,4|0,0:0|3:0,0:0:0:0:
444,136,55620,2,0,P|469:151|498:157,2,60,2|0|0,0:0|0:0|3:0,0:0:0:0:
416,88,56245,2,0,P|340:68|228:96,1,180,2|0,0:0|3:0,0:0:0:0:
160,160,57287,2,0,L|156:220,2,60,2|0|0,0:0|0:0|3:0,0:0:0:0:
56,128,58120,6,0,P|32:184|28:248,1,120,2|0,0:0|3:0,0:0:0:0:
88,332,58953,2,0,P|56:356|40:376,2,60,2|0|0,0:0|0:0|3:0,0:0:0:0:
136,356,59578,2,0,B|211:371|222:297|306:315,1,180,2|0,0:0|3:0,0:0:0:0:
404,356,60620,2,0,P|444:308|456:248,1,120,0|0,0:0|3:0,0:0:0:0:
368,188,61453,6,0,P|309:212|246:203,1,120,4|0,0:0|3:0,0:0:0:0:
212,172,62078,2,0,L|172:48,1,120,2|0,0:0|0:0,0:0:0:0:
68,32,62912,1,2,0:0:0:0:
68,32,63120,2,0,P|24:92|20:200,2,180,2|2|0,0:0|0:0|3:0,0:0:0:0:
172,56,64787,6,0,B|232:56|232:56|296:24,1,120,2|0,0:0|3:0,0:0:0:0:
392,32,65620,1,0,0:0:0:0:
412,140,66037,1,0,3:0:0:0:
392,188,66245,2,0,P|336:224|228:196,1,180,4|0,0:0|3:0,0:0:0:0:
156,120,67287,2,0,L|131:65,2,60,2|0|0,0:0|0:0|3:0,0:0:0:0:
116,220,68120,6,0,P|68:252|-4:248,1,120,4|0,0:0|3:0,0:0:0:0:
52,352,68953,2,0,P|112:340|164:308,1,120,2|0,0:0|3:0,0:0:0:0:
196,268,69578,2,0,P|263:223|364:228,1,180,4|0,0:0|3:0,0:0:0:0:
436,300,70620,2,0,L|424:368,2,60,2|0|0,0:0|0:0|3:0,0:0:0:0:
456,196,71453,6,0,P|460:144|428:84,1,120,4|0,0:0|3:0,0:0:0:0:
324,56,72287,2,0,L|196:88,1,120,2|0,0:0|3:0,0:0:0:0:
164,56,72912,2,0,P|136:108|164:220,1,180,4|0,0:0|3:0,0:0:0:0:
184,328,73953,2,0,P|180:356|164:388,2,60,2|0|0,0:0|0:0|3:0,0:0:0:0:
76,320,74787,6,0,P|48:272|44:208,1,120,4|0,0:0|3:0,0:0:0:0:
72,164,75412,2,0,P|77:92|54:36,1,120,2|2,0:0|0:0,0:0:0:0:
168,40,76245,2,0,P|236:68|348:56,1,180,4|0,0:0|3:0,0:0:0:0:
444,36,77287,1,0,0:0:0:0:
492,132,77703,1,0,3:0:0:0:
388,156,78120,6,0,B|351:203|351:203|334:263,1,120,4|0,0:0|3:0,0:0:0:0:
228,248,78953,2,0,L|246:187,2,60,0|0|0,0:0|0:0|3:0,0:0:0:0:
192,288,79578,2,0,P|127:296|44:224,1,180,4|0,0:0|3:0,0:0:0:0:
32,120,80620,1,8,3:0:0:0:
92,32,81037,1,8,3:0:0:0:
200,24,81453,1,4,0:0:0:0:
256,192,81662,12,4,83120,0:0:0:0:
152,64,93120,6,0,L|132:188,1,120,2|0,0:0|3:0,0:0:0:0:
196,268,93953,2,0,P|258:268|309:230,1,120,8|4,3:0|3:0,0:0:0:0:
342,198,94578,2,0,L|314:337,1,120,4|0,0:0|3:0,0:0:0:0:
296,364,95203,1,2,3:0:0:0:
120,88,96453,6,0,P|74:131|52:196,1,120,4|0,0:0|3:0,0:0:0:0:
64,292,97286,2,0,P|52:328|32:356,2,60,2|2|0,0:0|0:0|3:0,0:0:0:0:
112,268,97911,2,0,P|172:252|240:268,1,120,2|0,0:0|0:0,0:0:0:0:
312,332,98745,2,0,L|380:233,1,120,2|0,0:0|0:0,0:0:0:0:
452,152,99578,6,0,P|480:216|440:320,1,180,2|0,3:0|3:0,0:0:0:0:
340,336,100620,2,0,P|312:356|296:376,2,60,2|2|0,0:0|0:0|0:0,0:0:0:0:
348,284,101245,2,0,P|344:220|308:180,1,120,2|0,3:0|0:0,0:0:0:0:
256,184,101870,1,2,3:2:0:0:
156,224,102286,2,0,P|128:204|112:184,2,60,2|2|0,0:0|0:0|3:0,0:0:0:0:
168,332,103120,6,0,P|106:318|56:272,1,120,4|0,0:0|3:0,0:0:0:0:
60,176,103953,2,0,P|40:145|12:128,2,60,2|2|0,0:0|0:0|3:0,0:0:0:0:
112,184,104578,2,0,P|164:144|184:84,1,120,2|0,0:0|0:0,0:0:0:0:
276,40,105411,2,0,P|345:68|380:114,1,120,2|0,0:0|0:0,0:0:0:0:
382,154,106036,1,0,3:0:0:0:
376,208,106245,6,0,L|324:392,1,180,2|0,0:0|3:0,0:0:0:0:
216,380,107286,2,0,L|184:260,1,120,0|0,0:0|3:0,0:0:0:0:
156,216,107911,2,0,P|98:179|33:183,1,120,4|2,0:0|0:0,0:0:0:0:
20,76,108745,2,0,P|68:42|127:38,1,120,2|0,0:0|0:0,0:0:0:0:
180,56,109370,1,0,3:0:0:0:
224,156,109786,6,0,P|276:112|291:51,1,120,4|0,0:0|3:0,0:0:0:0:
384,8,110620,2,0,P|428:56|440:116,1,120,2|0,0:0|3:0,0:0:0:0:
420,156,111245,2,0,P|400:224|412:276,2,120,2|0|2,0:0|0:0|0:0,0:0:0:0:
508,220,112495,1,2,0:0:0:0:
500,328,112911,6,0,P|430:371|332:340,1,180,2|0,3:0|3:0,0:0:0:0:
248,292,113953,2,0,P|232:313|220:352,2,60,2|0|0,0:0|3:0|3:0,0:0:0:0:
292,256,114578,2,0,B|339:195|278:152|332:85,1,180,4|2,0:0|0:0,0:0:0:0:
432,48,115620,1,0,0:0:0:0:
416,156,116036,1,0,3:0:0:0:
332,88,116453,6,0,P|260:81|206:118,1,120,4|0,0:0|3:0,0:0:0:0:
176,204,117286,2,0,P|144:228|116:236,1,60,0|2,3:0|0:0,0:0:0:0:
60,148,117911,2,0,P|24:204|48:312,1,180,2|0,0:0|3:0,0:0:0:0:
144,356,118953,1,0,0:0:0:0:
228,288,119370,1,0,3:0:0:0:
328,332,119786,6,0,B|372:284|372:284|396:216,1,120,2|0,0:0|3:0,0:0:0:0:
320,152,120620,2,0,L|308:24,1,120,2|0,0:0|3:0,0:0:0:0:
256,24,121245,2,0,B|220:80|160:100|160:100|152:164,1,180,4|0,0:0|3:0,0:0:0:0:
140,260,122286,2,0,L|128:344,2,60,2|0|0,0:0|0:0|3:0,0:0:0:0:
240,220,123120,6,0,P|296:244|332:300,1,120,4|0,0:0|3:0,0:0:0:0:
424,344,123953,2,0,P|472:304|492:240,1,120,2|0,0:0|3:0,0:0:0:0:
472,200,124578,2,0,B|460:144|460:144|476:72,1,120,2|0,3:0|0:0,0:0:0:0:
456,32,125203,1,0,3:0:0:0:
372,100,125620,2,0,P|340:104|300:96,2,60,2|0|0,0:0|0:0|3:0,0:0:0:0:
316,8,126453,6,0,P|254:27|220:73,1,120,4|0,0:0|3:0,0:0:0:0:
208,124,127078,1,4,0:0:0:0:
228,232,127495,1,2,0:0:0:0:
124,200,127911,2,0,P|76:236|44:304,1,120,4|2,0:0|0:0,0:0:0:0:
76,332,128536,1,0,3:0:0:0:
180,304,128953,2,0,P|192:336|196:364,2,60,2|0|0,0:0|0:0|3:0,0:0:0:0:
232,208,129786,6,0,P|204:144|208:88,1,120,4|0,0:0|3:0,0:0:0:0:
232,48,130411,2,0,B|292:36|292:36|368:52,1,120,2|0,0:0|0:0,0:0:0:0:
396,80,131036,1,0,3:0:0:0:
504,80,131453,6,0,P|488:140|444:180,1,120,2|0,0:0|3:0,0:0:0:0:
404,212,132078,2,0,P|392:272|416:348,1,120,2|2,0:0|0:0,0:0:0:0:
384,380,132703,1,0,3:0:0:0:
288,328,133120,6,0,L|176:252,1,120,2|0,0:0|3:0,0:0:0:0:
80,252,133953,2,0,P|82:286|100:317,2,60,2|2|0,0:0|0:0|0:0,0:0:0:0:
88,200,134578,2,0,P|152:152|248:160,1,180,4|0,0:0|3:0,0:0:0:0:
336,220,135620,2,0,P|361:256|387:276,2,60,2|0|0,0:0|0:0|3:0,0:0:0:0:
440,188,136453,6,0,P|468:232|472:308,1,120,4|0,0:0|3:0,0:0:0:0:
384,356,137286,2,0,P|348:348|316:348,1,60,8|0,3:0|0:0,0:0:0:0:
272,356,137703,1,4,3:0:0:0:
220,368,137911,6,0,P|156:340|132:288,1,120,4|0,0:0|3:0,0:0:0:0:
128,244,138536,1,2,3:0:0:0:
177,146,138953,2,0,P|203:162|224:189,2,60,0|0|0,3:0|0:0|3:0,0:0:0:0:
225,56,139786,6,0,P|278:89|313:138,1,120,4|0,0:0|3:0,0:0:0:0:
344,240,140620,2,0,P|351:268|352:300,2,60,2|0|0,0:0|0:0|3:0,0:0:0:0:
372,196,141245,2,0,B|416:148|491:166|491:166|504:224,1,180,2|0,0:0|3:0,0:0:0:0:
488,324,142286,2,0,P|489:353|498:383,2,60,2|0|0,0:0|0:0|3:0,0:0:0:0:
380,336,143120,6,0,P|316:348|256:324,1,120,2|0,0:0|3:0,0:0:0:0:
188,256,143953,2,0,P|168:284|140:308,2,60,2|0|0,0:0|0:0|3:0,0:0:0:0:
216,208,144578,2,0,P|224:148|156:48,1,180,2|0,0:0|3:0,0:0:0:0:
56,68,145620,2,0,P|32:116|32:189,1,120,2|0,0:0|3:0,0:0:0:0:
92,268,146453,6,0,L|212:300,1,120,4|0,0:0|3:0,0:0:0:0:
260,284,147078,2,0,P|324:264|392:280,1,120,2|0,0:0|0:0,0:0:0:0:
468,328,147911,2,0,L|496:208,1,120,2|0,0:0|0:0,0:0:0:0:
404,156,148745,2,0,L|376:272,1,120,2|2,0:0|0:0,0:0:0:0:
336,312,149370,1,0,3:0:0:0:
232,332,149786,6,0,P|172:312|96:316,2,120,2|0|0,0:0|3:0|0:0,0:0:0:0:
260,228,151036,1,2,3:2:0:0:
260,228,151245,2,0,L|244:40,1,180,4|0,0:0|3:0,0:0:0:0:
136,44,152286,2,0,P|104:32|84:16,2,60,2|0|0,0:0|0:0|3:0,0:0:0:0:
148,152,153120,6,0,P|116:204|56:228,1,120,4|0,0:0|3:0,0:0:0:0:
84,332,153953,2,0,P|148:344|188:384,1,120,2|0,0:0|3:0,0:0:0:0:
240,372,154578,2,0,P|288:312|284:204,1,180,4|0,0:0|3:0,0:0:0:0:
236,116,155620,2,0,P|212:132|192:156,2,60,2|0|0,0:0|0:0|3:0,0:0:0:0:
344,132,156453,6,0,P|396:100|424:48,1,120,2|0,0:0|3:0,0:0:0:0:
512,116,157286,2,0,L|504:244,1,120,2|0,0:0|3:2,0:0:0:0:
484,284,157911,2,0,P|420:280|320:344,1,180,4|0,0:0|3:0,0:0:0:0:
232,284,158953,2,0,L|248:212,2,60,0|0|0,0:0|0:0|3:0,0:0:0:0:
140,340,159786,6,0,P|76:328|32:284,1,120,4|0,0:0|3:0,0:0:0:0:
24,240,160411,2,0,L|32:108,1,120,2|2,0:0|0:0,0:0:0:0:
132,76,161245,2,0,P|192:72|244:32,2,120,4|0|2,0:0|0:0|0:0,0:0:0:0:
112,180,162495,1,2,0:0:0:0:
200,244,162911,5,2,0:0:0:0:
200,244,163120,2,0,P|240:188|248:128,1,120,4|0,0:0|3:0,0:0:0:0:
292,108,163745,2,0,P|376:100|424:120,1,120,2|2,0:0|0:0,0:0:0:0:
452,208,164578,6,0,B|384:259|436:314|377:364,1,180,4|0,0:0|0:0,0:0:0:0:
324,372,165411,1,0,0:0:0:0:
324,372,165620,2,0,P|260:344|196:344,1,120,2|0,0:0|3:0,0:0:0:0:
104,360,166453,6,0,P|64:315|50:258,1,120,4|0,0:0|3:0,0:0:0:0:
52,148,167286,2,0,P|40:118|22:96,2,60,2|2|0,0:0|0:0|3:0,0:0:0:0:
156,180,168120,2,0,P|200:136|216:76,1,120,2|0,0:0|3:0,0:0:0:0:
260,116,168745,2,0,P|240:188|252:236,1,120,2|2,0:0|0:0,0:0:0:0:
356,248,169578,6,0,P|392:164|372:72,1,180,2|0,0:0|3:0,0:0:0:0:
400,32,170411,2,0,P|453:35|507:95,1,120,2|2,0:0|0:0,0:0:0:0:
480,184,171245,2,0,B|475:242|475:242|491:297|491:297|485:374,1,180,4|0,0:0|3:0,0:0:0:0:
376,376,172286,2,0,L|380:316,2,60,0|0|0,0:0|0:0|3:0,0:0:0:0:
268,376,173120,6,0,P|208:384|152:356,1,120,4|0,0:0|3:0,0:0:0:0:
120,316,173745,1,2,0:0:0:0:
148,212,174161,1,2,0:0:0:0:
40,220,174578,2,0,B|32:152|92:112|92:112|104:55,1,180,4|0,0:0|3:0,0:0:0:0:
212,36,175620,2,0,L|200:100,2,60,2|2|0,0:0|0:0|3:0,0:0:0:0:
316,56,176453,6,0,P|372:84|436:84,1,120,4|0,0:0|3:0,0:0:0:0:
480,68,177078,1,2,0:0:0:0:
484,176,177495,1,2,0:0:0:0:
488,284,177911,2,0,B|488:352|488:352|416:368|372:328,1,180,4|0,0:0|3:0,0:0:0:0:
280,296,178953,2,0,P|270:331|280:368,2,60,0|0|2,0:0|0:0|0:0,0:0:0:0:
356,220,179786,6,0,P|324:172|260:144,1,120,4|0,0:0|3:0,0:0:0:0:
176,204,180620,2,0,L|116:176,1,60,2|2,0:0|0:0,0:0:0:0:
108,72,181245,2,0,L|232:24,1,120,4|0,0:0|0:0,0:0:0:0:
320,68,182078,2,0,P|400:88|456:76,1,120,2|2,0:0|0:0,0:0:0:0:
480,48,182703,1,0,3:0:0:0:
504,152,183120,6,0,L|488:288,1,120,4|0,0:0|3:0,0:0:0:0:
384,284,183953,2,0,P|388:315|404:348,2,60,0|2|4,0:0|0:0|3:0,0:0:0:0:
368,232,184578,2,0,B|296:202|271:272|192:237,1,180,4|0,0:0|3:0,0:0:0:0:
112,164,185620,1,0,3:0:0:0:
24,224,186036,1,4,3:0:0:0:
100,300,186453,1,4,0:0:0:0:
256,192,186661,12,0,189786,0:0:0:0:
248,172,199786,6,0,P|256:212|224:300,1,120,4|0,0:0|3:0,0:0:0:0:
128,304,200620,2,0,P|120:264|152:176,1,120,0|0,0:0|3:0,0:0:0:0:
176,148,201245,2,0,P|181:105|157:32,2,120,2|0|2,0:0|0:0|0:0,0:0:0:0:
272,200,202495,2,0,P|302:183|336:180,1,60,2|0,0:0|3:0,0:0:0:0:
412,248,203120,6,0,P|408:308|364:360,1,120,2|0,0:3|3:0,0:0:0:0:
268,336,203953,2,0,P|260:300|260:272,2,60,0|2|0,0:0|0:0|3:0,0:0:0:0:
164,364,204786,2,0,P|104:352|64:308,1,120,2|0,0:0|3:0,0:0:0:0:
68,204,205620,2,0,P|100:186|127:179,2,60,2|0|0,0:0|3:0|3:0,0:0:0:0:
4,116,206453,6,0,P|56:80|116:68,1,120,4|0,0:0|3:0,0:0:0:0:
156,96,207078,2,0,B|216:72|216:72|268:24,1,120,2|2,0:0|0:0,0:0:0:0:
364,52,207911,2,0,P|412:132|404:220,1,180,4|0,0:0|3:0,0:0:0:0:
320,280,208953,6,0,L|304:348,2,60,2|2|0,0:0|0:0|3:0,0:0:0:0:
284,240,209578,2,0,P|224:208|152:216,2,120,0|2|2,0:0|0:0|0:0,0:0:0:0:
204,312,210828,1,2,0:0:0:0:
100,288,211245,2,0,B|38:241|86:183|17:133,1,180,6|0,3:2|3:0,0:0:0:0:
88,52,212286,2,0,P|152:56|212:32,1,120,2|0,0:0|3:0,0:0:0:0:
312,44,213120,6,0,L|340:164,1,120,4|8,0:0|3:0,0:0:0:0:
448,176,213953,2,0,L|476:296,1,120,0|4,3:0|3:0,0:0:0:0:
452,344,214578,6,0,P|392:376|332:360,1,120,4|0,0:0|3:0,0:0:0:0:
304,328,215203,1,2,3:0:0:0:
208,280,215620,2,0,P|200:304|200:344,2,60,4|4|0,3:0|3:0|3:0,0:0:0:0:
300,224,216453,6,0,P|312:164|292:104,1,120,4|0,0:0|3:0,0:0:0:0:
192,72,217286,2,0,P|186:103|168:136,2,60,2|0|0,0:0|0:0|3:0,0:0:0:0:
156,32,217911,2,0,P|88:24|0:88,1,180,2|0,0:0|3:0,0:0:0:0:
16,192,218953,2,0,P|11:222|0:252,2,60,2|0|0,0:0|0:0|3:0,0:0:0:0:
120,168,219786,6,0,L|212:264,1,120,2|0,0:0|3:0,0:0:0:0:
304,288,220620,2,0,P|300:320|290:346,2,60,2|0|0,0:0|0:0|3:0,0:0:0:0:
300,232,221245,2,0,B|284:164|304:112|304:112|352:64,1,180,2|0,0:0|3:0,0:0:0:0:
440,8,222286,1,2,0:0:0:0:
444,116,222703,1,0,3:0:0:0:
344,72,223120,6,0,P|281:61|227:78,1,120,4|0,0:0|3:0,0:0:0:0:
204,120,223745,2,0,P|136:136|84:124,1,120,2|0,0:0|0:0,0:0:0:0:
16,204,224578,1,2,0:0:0:0:
16,204,224786,2,0,B|32:264|0:320|0:320|76:344,2,180,2|2|0,0:0|0:0|3:0,0:0:0:0:
4,96,226453,6,0,P|44:48|116:40,1,120,2|0,0:0|3:0,0:0:0:0:
196,84,227286,1,0,0:0:0:0:
296,44,227703,1,2,3:2:0:0:
352,48,227911,2,0,P|404:123|404:232,1,180,4|0,0:0|3:0,0:0:0:0:
324,276,228953,2,0,P|292:272|260:260,2,60,2|0|0,0:0|0:0|3:0,0:0:0:0:
392,360,229786,6,0,P|329:378|263:365,1,120,4|0,0:0|3:0,0:0:0:0:
196,300,230620,2,0,B|144:264|144:264|80:264,1,120,2|0,0:0|3:0,0:0:0:0:
36,276,231245,2,0,P|-8:184|24:100,1,180,4|0,0:0|3:0,0:0:0:0:
116,76,232286,2,0,P|128:44|128:8,2,60,2|0|0,0:0|0:0|3:0,0:0:0:0:
148,180,233120,6,0,P|204:209|269:207,1,120,2|0,0:0|3:0,0:0:0:0:
324,124,233953,2,0,P|326:89|340:56,2,60,0|8|4,3:0|3:0|3:0,0:0:0:0:
340,176,234578,2,0,P|384:220|500:192,1,180,4|0,0:0|3:0,0:0:0:0:
468,96,235620,2,0,P|440:116|424:144,2,60,2|0|0,3:2|0:0|3:0,0:0:0:0:
380,32,236453,6,0,L|256:48,1,120,4|0,0:0|3:0,0:0:0:0:
220,84,237078,2,0,P|152:80|96:44,1,120,2|2,0:0|0:0,0:0:0:0:
24,124,237911,2,0,L|40:256,1,120,4|0,0:0|0:0,0:0:0:0:
32,296,238536,2,0,P|88:336|148:348,2,120,0|0|0,3:0|0:0|3:0,0:0:0:0:
124,240,239786,6,0,P|180:216|220:160,1,120,4|0,0:0|3:0,0:0:0:0:
224,116,240411,2,0,P|276:80|340:76,1,120,2|2,0:0|0:0,0:0:0:0:
408,152,241245,2,0,B|421:235|347:241|357:318,1,180,4|0,0:0|3:0,0:0:0:0:
464,308,242286,2,0,P|492:272|500:244,2,60,2|0|0,0:0|0:0|3:0,0:0:0:0:
384,236,243120,6,0,P|312:240|264:272,1,120,4|2,0:0|0:0,0:0:0:0:
220,356,243953,2,0,P|185:354|156:341,1,60,8|0,3:0|3:0,0:0:0:0:
88,264,244578,6,0,B|39:121|182:60|256:176|171:284|34:209|98:72,1,420,4|8,0:0|3:0,0:0:0:0:
204,60,246453,6,0,P|251:101|272:162,1,120,4|0,0:0|3:0,0:0:0:0:
332,244,247286,2,0,P|396:238|456:196,1,120,2|2,0:0|3:0,0:0:0:0:
440,156,247911,2,0,P|462:101|507:62,2,120,2|0|2,0:0|0:0|0:0,0:0:0:0:
396,256,249161,2,0,P|408:288|424:312,1,60,2|0,0:0|3:0,0:0:0:0:
324,356,249786,6,0,L|192:360,1,120,2|0,0:0|3:0,0:0:0:0:
104,316,250620,2,0,P|88:344|84:372,2,60,2|0|0,0:0|0:0|3:0,0:0:0:0:
140,276,251245,1,4,0:0:0:0:
96,176,251661,2,0,P|82:134|80:96,2,60,8|0|2,3:0|3:0|3:0,0:0:0:0:
184,120,252495,2,0,P|194:147|199:177,1,60,4|0,0:0|3:0,0:0:0:0:
288,236,253120,6,0,P|340:208|372:136,1,120,4|0,0:0|3:0,0:0:0:0:
476,156,253953,2,0,P|471:116|458:90,1,60,2|0,0:0|0:0,0:0:0:0:
368,52,254578,2,0,B|283:52|289:126|211:128,1,180,2|0,0:0|3:0,0:0:0:0:
108,96,255620,1,0,0:0:0:0:
48,180,256036,1,0,3:0:0:0:
152,216,256453,6,0,P|196:260|212:316,1,120,4|0,0:0|3:0,0:0:0:0:
308,364,257286,2,0,P|343:350|376:344,2,60,0|2|2,0:0|0:0|3:2,0:0:0:0:
300,312,257911,2,0,L|336:184,1,120,2|2,3:0|0:0,0:0:0:0:
384,176,258536,2,0,P|404:116|384:56,1,120,0|0,3:0|3:0,0:0:0:0:
280,36,259370,1,0,3:0:0:0:
188,96,259786,6,0,P|120:104|64:68,1,120,4|0,0:0|3:0,0:0:0:0:
28,176,260620,2,0,L|4:300,1,120,2|2,0:0|3:0,0:0:0:0:
44,332,261245,2,0,P|112:324|168:360,2,120,4|2|2,0:0|0:0|0:0,0:0:0:0:
64,228,262495,2,0,P|84:192|92:160,1,60,2|0,0:0|3:0,0:0:0:0:
176,112,263120,6,0,P|224:136|256:192,1,120,2|0,0:0|3:0,0:0:0:0:
332,268,263953,2,0,P|356:248|372:220,2,60,2|0|0,0:0|3:0|3:0,0:0:0:0:
280,280,264578,2,0,B|224:304|224:304|184:356,1,120,4|2,0:0|3:0,0:0:0:0:
80,336,265411,2,0,L|24:224,1,120,4|2,0:0|3:0,0:0:0:0:
44,124,266245,1,0,3:0:0:0:
76,80,266453,6,0,P|136:88|182:126,1,120,4|0,0:0|3:0,0:0:0:0:
284,164,267286,2,0,P|308:144|324:116,2,60,2|0|2,0:0|0:0|3:0,0:0:0:0:
244,204,267911,2,0,P|222:257|226:321,1,120,4|2,0:0|0:0,0:0:0:0:
320,372,268745,2,0,P|380:336|424:228,1,180,2|0,0:0|3:0,0:0:0:0:
380,140,269786,6,0,P|335:88|308:24,1,120,2|0,0:0|3:0,0:0:0:0:
208,16,270620,2,0,P|148:36|108:84,1,120,0|0,3:0|3:0,0:0:0:0:
128,128,271245,2,0,B|144:188|144:188|132:256,1,120,4|0,0:0|3:0,0:0:0:0:
100,288,271870,1,2,3:0:0:0:
200,324,272286,6,0,P|228:325|263:310,2,60,0|8|4,3:0|3:0|3:0,0:0:0:0:
156,356,272911,1,4,0:0:0:0:
256,192,273120,12,0,278120,0:0:0:0:
