osu file format v12

[General]
AudioFilename: Yakusoku no Basho.mp3
AudioLeadIn: 1952
PreviewTime: 53799
Countdown: 0
SampleSet: Soft
StackLeniency: 0.7
Mode: 0
LetterboxInBreaks: 1
WidescreenStoryboard: 0

[Editor]
DistanceSpacing: 1
BeatDivisor: 4
GridSize: 4
TimelineZoom: 1

[Metadata]
Title:Yakusoku no Basho
TitleUnicode:約束の場所
Artist:ROUND TABLE featuring Nino
ArtistUnicode:ROUND TABLE featuring Nino
Creator:UnitedWeSin
Version:Insane
Source:One Off
Tags:SINGLES BEST 2002-2012 MEMORIES わんおふ opening Moway uws
BeatmapID:285600
BeatmapSetID:109425

[Difficulty]
HPDrainRate:7
CircleSize:4
OverallDifficulty:7
ApproachRate:8
SliderMultiplier:1.8
SliderTickRate:2

[Events]
//Background and Video events
0,0,"bg.jpg",0,0
//Break Periods
2,189986,198620
//Storyboard Layer 0 (Background)
//Storyboard Layer 1 (Fail)
//Storyboard Layer 2 (Pass)
//Storyboard Layer 3 (Foreground)
//Storyboard Sound Samples
//Background Colour Transformations
3,100,163,162,255

[TimingPoints]
-213,416.666666666667,4,2,1,30,1,0
620,-100,4,2,1,30,0,0
1037,-100,4,2,1,50,0,0
1245,-100,4,2,1,35,0,0
1453,-100,4,2,1,50,0,0
2912,-100,4,2,1,55,0,0
3745,-100,4,2,1,60,0,0
4162,-100,4,2,1,65,0,0
4787,-100,4,2,1,70,0,0
10620,-133.333333333333,4,2,1,70,0,0
11453,-100,4,2,1,60,0,0
24578,-100,4,2,1,40,0,0
24787,-100,4,2,1,60,0,0
54787,-90.9090909090909,4,2,1,70,0,1
74787,-100,4,2,1,70,0,1
80620,-100,4,2,1,60,0,1
81453,-166.666666666667,4,2,1,50,0,0
82703,361.44578313253,4,2,1,60,1,0
82883,-100,4,2,1,50,0,0
83120,416.666666666667,4,2,1,70,1,0
93745,-100,4,2,1,60,0,0
94161,-100,4,2,1,50,0,0
96453,-100,4,2,1,60,0,0
139786,-90.9090909090909,4,2,1,70,0,1
159786,-100,4,2,1,70,0,1
165828,-100,4,2,1,60,0,1
166453,-90.9090909090909,4,2,1,70,0,0
185203,-90.9090909090909,4,2,1,60,0,0
185620,-100,4,2,1,55,0,0
186036,-111.111111111111,4,2,1,50,0,0
186453,-100,4,2,1,40,0,0
186557,-100,4,2,1,5,0,0
199370,-111.111111111111,4,2,1,50,0,0
206453,-100,4,2,1,60,0,0
215411,-100,4,2,1,50,0,0
216453,-90.9090909090909,4,2,1,70,0,1
236453,-100,4,2,1,70,0,1
244578,-200,4,2,1,70,0,1
244682,-200,4,2,1,50,0,1
245411,-200,4,2,1,60,0,1
245828,-100,4,2,1,65,0,1
246453,-100,4,2,1,70,0,0
272078,-100,4,2,1,60,0,0
273015,-100,4,2,1,5,0,0

[Colours]
Combo1 : 157,60,255
Combo2 : 255,136,79
Combo3 : 70,153,255

[HitObjects]
288,48,620,6,0,L|264:77,5,30
308,68,1037,6,0,L|319:122,1,45,2|0,0:0|0:0,0:0:0:0:
388,136,1245,2,0,L|399:190,1,45,8|0,0:3|0:0,0:0:0:0:
416,252,1453,6,0,P|407:301|377:343,1,90,4|0,0:0|0:0,0:0:0:0:
256,252,1870,1,0,3:0:0:0:
160,356,2078,2,0,P|115:312|118:199,1,180,4|0,0:0|0:0,0:0:0:0:
256,176,2703,1,0,3:0:0:0:
372,296,2912,6,0,P|428:217|419:138,1,180,4|0,0:0|0:0,0:0:0:0:
256,100,3537,1,0,3:0:0:0:
132,208,3745,2,0,P|104:168|100:120,1,90,4|0,0:0|0:0,0:0:0:0:
256,24,4162,6,0,L|300:40,1,45,0|0,3:0|0:0,0:0:0:0:
337,112,4370,2,0,L|380:128,1,45,0|0,3:0|0:0,0:0:0:0:
452,96,4578,1,8,3:0:0:0:
371,278,4787,6,0,P|326:285|284:276,1,90,4|0,0:0|0:0,0:0:0:0:
164,88,5203,2,0,P|151:132|157:175,1,90,0|0,3:0|0:0,0:0:0:0:
228,352,5620,1,0,0:0:0:0:
252,184,5828,1,2,0:0:0:0:
92,256,6037,1,2,3:0:0:0:
284,277,6245,6,0,P|344:224|332:124,1,180,4|2,0:0|0:0,0:0:0:0:
216,28,6870,2,0,L|176:112,1,90,0|2,3:0|0:0,0:0:0:0:
160,144,7182,1,0,0:0:0:0:
160,144,7287,1,0,0:0:0:0:
0,200,7495,1,2,0:0:0:0:
96,72,7703,1,0,3:0:0:0:
76,168,7912,5,0,0:0:0:0:
76,168,8016,1,0,0:0:0:0:
76,168,8120,2,0,P|99:210|137:232,1,90,2|0,0:0|0:0,0:0:0:0:
312,180,8537,2,0,P|263:182|226:205,1,90,0|0,3:0|0:0,0:0:0:0:
344,336,8953,2,0,P|392:333|429:310,1,90,0|0,3:0|0:0,0:0:0:0:
448,276,9266,1,0,0:0:0:0:
448,276,9370,1,8,0:3:0:0:
264,304,9578,6,0,B|219:298|180:322|180:322|147:369|90:366,1,180,4|0,0:3|3:0,0:0:0:0:
48,168,10203,1,2,3:0:0:0:
68,176,10620,5,2,0:0:0:0:
81,196,10724,1,0,0:0:0:0:
94,216,10828,1,0,0:0:0:0:
108,236,10932,1,0,0:0:0:0:
121,257,11037,2,0,P|154:272|192:269,1,67.5000025749208,2|8,0:0|0:3,0:0:0:0:
211,243,11349,1,0,0:0:0:0:
211,243,11453,1,4,0:0:0:0:
304,280,11662,5,0,0:0:0:0:
332,184,11870,1,2,3:2:0:0:
400,256,12078,1,2,0:0:0:0:
428,160,12287,2,0,P|401:114|364:91,1,90,2|2,0:0|0:0,0:0:0:0:
288,252,12703,1,0,3:0:0:0:
408,384,12912,6,0,P|439:359|459:314,1,90,2|0,0:0|0:0,0:0:0:0:
332,184,13328,1,2,0:0:0:0:
272,368,13537,1,0,3:0:0:0:
176,224,13745,1,2,0:0:0:0:
176,224,13849,1,0,0:0:0:0:
176,224,13953,1,0,0:0:0:0:
96,292,14162,1,2,0:0:0:0:
160,120,14370,1,0,3:0:0:0:
244,308,14578,6,0,P|279:218|239:140,1,180,2|0,3:0|0:0,0:0:0:0:
60,144,15203,1,0,3:0:0:0:
36,48,15412,1,2,0:0:0:0:
36,48,15516,1,0,0:0:0:0:
36,48,15620,2,0,L|80:20,1,45,0|0,0:0|0:0,0:0:0:0:
140,68,15828,2,0,P|184:80|232:80,1,90,0|0,3:0|0:0,0:0:0:0:
360,36,16245,6,0,P|376:80|368:124,1,90,2|0,3:0|0:0,0:0:0:0:
228,192,16662,1,0,0:0:0:0:
332,232,16870,1,0,3:0:0:0:
292,88,17078,2,0,L|260:120,1,45,2|0,0:0|0:0,0:0:0:0:
228,192,17287,2,0,P|204:200|180:200,1,45
108,164,17495,1,0,0:0:0:0:
128,288,17703,1,0,3:0:0:0:
192,120,17912,1,0,0:0:0:0:
192,120,18016,1,0,0:0:0:0:
192,120,18120,1,2,0:0:0:0:
296,176,18328,5,0,0:0:0:0:
380,124,18537,1,2,3:2:0:0:
372,260,18745,1,2,0:0:0:0:
416,88,18953,5,2,0:0:0:0:
484,160,19162,1,2,0:0:0:0:
484,24,19370,1,0,3:0:0:0:
360,84,19578,6,0,P|316:92|272:80,1,90,2|0,0:0|0:0,0:0:0:0:
128,60,19995,1,2,0:0:0:0:
176,196,20203,1,0,3:0:0:0:
196,116,20412,1,2,0:0:0:0:
196,116,20516,1,0,0:0:0:0:
196,116,20620,1,0,0:0:0:0:
204,288,20828,1,2,0:0:0:0:
88,272,21037,1,0,3:0:0:0:
256,216,21245,6,0,B|316:196|316:196|376:224|428:180,1,180,2|0,0:0|0:0,0:0:0:0:
488,72,21870,1,0,3:0:0:0:
352,84,22078,2,0,P|356:108|368:131,1,45,2|0,0:0|0:0,0:0:0:0:
425,182,22287,1,0,0:0:0:0:
276,120,22495,1,0,0:0:0:0:
392,8,22703,1,0,3:0:0:0:
348,208,22912,6,0,P|312:240|265:251,1,90,4|0,0:0|0:0,0:0:0:0:
160,304,23328,2,0,P|127:273|112:232,1,90,2|0,0:0|3:0,0:0:0:0:
4,168,23745,2,0,P|18:126|50:95,1,90,2|0,0:0|0:3,0:0:0:0:
160,304,24162,1,2,0:0:0:0:
160,304,24266,1,0,0:0:0:0:
160,304,24370,1,0,3:0:0:0:
88,168,24578,1,4,0:3:0:0:
48,328,24787,6,0,P|92:360|144:368,1,90,4|0,0:0|0:0,0:0:0:0:
284,300,25203,1,2,3:2:0:0:
168,192,25412,1,2,0:0:0:0:
196,348,25620,1,2,0:0:0:0:
264,204,25828,1,2,3:2:0:0:
124,280,26037,1,0,3:0:0:0:
284,300,26245,6,0,P|334:281|359:257,1,90,2|0,0:0|0:0,0:3:0:0:
352,156,26662,1,2,0:0:0:0:
284,300,26870,1,0,3:0:0:0:
440,292,27078,1,2,0:0:0:0:
448,268,27182,1,0,0:0:0:0:
444,240,27287,1,0,0:0:0:0:
340,52,27495,1,2,0:0:0:0:
440,120,27703,1,0,3:0:0:0:
284,172,27912,6,0,P|216:176|168:80,1,180,2|2,3:0|0:0,0:0:0:0:
268,16,28537,2,0,P|264:68|244:104,1,90,0|2,3:0|0:0,0:0:0:0:
100,180,28953,1,2,0:0:0:0:
192,12,29162,1,2,0:0:0:0:
112,224,29370,1,0,3:0:0:0:
284,172,29578,6,0,P|352:168|400:264,1,180,2|2,3:0|0:0,0:0:0:0:
300,328,30203,2,0,P|304:276|324:240,1,90,0|2,3:0|0:0,0:0:0:0:
321,243,30516,1,0,0:0:0:0:
321,243,30620,1,0,3:0:0:0:
188,328,30828,1,0,0:0:0:0:
212,232,31037,1,0,3:0:0:0:
76,356,31245,1,0,0:0:0:0:
108,264,31453,6,0,L|168:92,1,180,4|0,0:0|3:0,0:0:0:0:
248,36,32078,1,0,0:0:0:0:
248,36,32182,1,0,0:0:0:0:
248,36,32287,1,0,0:0:0:0:
296,172,32495,1,2,0:0:0:0:
360,52,32703,1,2,3:2:0:0:
336,184,32912,6,0,L|304:273,1,90,2|0,0:0|0:0,0:0:0:0:
208,352,33328,1,2,0:0:0:0:
380,360,33537,1,0,3:0:0:0:
456,208,33745,1,0,3:0:0:0:
456,208,33849,1,0,0:0:0:0:
456,208,33953,1,0,0:0:0:0:
380,360,34162,1,2,0:0:0:0:
260,332,34370,2,0,P|217:309|189:271,1,90,0|2,3:0|0:0,0:0:0:0:
184,236,34682,5,0,0:0:0:0:
184,236,34787,2,0,L|212:140,1,90,2|0,0:0|0:0,0:0:0:0:
420,84,35203,2,0,P|399:121|348:155,1,90,0|2,3:0|0:0,0:0:0:0:
320,146,35516,1,0,0:0:0:0:
320,146,35620,1,0,0:0:0:0:
192,200,35828,1,2,0:0:0:0:
372,228,36037,1,0,3:0:0:0:
280,376,36245,6,0,P|253:281|294:212,1,180,4|2,0:0|0:0,0:0:0:0:
492,232,36870,1,0,3:0:0:0:
340,296,37078,1,2,0:0:0:0:
372,144,37287,1,2,3:2:0:0:
440,320,37495,5,0,0:0:0:0:
440,320,37599,1,0,0:0:0:0:
440,320,37703,1,0,3:0:0:0:
464,132,37912,1,4,3:0:0:0:
292,208,38120,6,0,B|220:240|188:180|112:204,1,180,4|0,0:0|3:0,0:0:0:0:
256,40,38745,1,2,0:0:0:0:
256,40,38953,2,0,L|248:148,1,90,2|0,0:0|0:0,0:0:0:0:
148,292,39370,1,0,3:0:0:0:
332,260,39578,6,0,L|340:152,1,90,2|0,3:0|0:0,0:0:0:0:
172,156,39995,1,0,0:0:0:0:
260,340,40203,2,0,P|300:368|340:376,1,90,0|2,3:0|0:0,0:0:0:0:
376,368,40516,1,0,0:0:0:0:
376,368,40620,1,0,0:0:0:0:
296,192,40828,1,0,0:0:0:0:
188,384,41037,1,0,3:0:0:0:
148,228,41245,1,2,0:0:0:0:
260,340,41453,6,0,P|304:332|348:300,1,90,4|0,0:0|0:0,0:0:0:0:
384,148,41870,1,0,3:0:0:0:
384,148,42078,2,0,L|380:256,1,90,2|0,0:0|0:0,0:0:0:0:
192,228,42495,2,0,L|200:120,1,90,2|0,0:0|3:0,0:0:0:0:
296,28,42912,6,0,L|288:216,1,180,2|0,0:0|0:0,0:0:0:0:
288,332,43537,1,0,3:0:0:0:
408,296,43745,1,2,0:0:0:0:
408,296,43849,1,0,0:0:0:0:
408,296,43953,2,0,P|432:252|436:208,1,90,0|0,3:0|0:0,0:0:0:0:
176,256,44370,2,0,P|185:305|209:342,1,90,0|0,3:0|0:0,0:0:0:0:
268,200,44787,6,0,P|192:144|112:160,1,180,4|0,0:0|3:0,0:0:0:0:
56,324,45412,1,2,0:0:0:0:
56,324,45516,1,0,0:0:0:0:
56,324,45620,1,0,0:0:0:0:
176,256,45828,1,0,0:0:0:0:
272,360,46037,2,0,P|324:364|364:352,1,90,0|2,3:0|0:0,0:0:0:0:
452,260,46453,5,2,0:0:0:0:
352,224,46662,1,0,3:0:0:0:
432,152,46870,1,0,0:0:0:0:
468,360,47078,1,2,0:0:0:0:
468,360,47182,1,0,0:0:0:0:
468,360,47287,1,0,3:0:0:0:
432,152,47495,1,2,0:0:0:0:
352,224,47703,2,0,P|304:236|264:232,1,90,2|0,3:2|0:0,0:0:0:0:
216,220,48016,5,0,0:0:0:0:
216,220,48120,2,0,L|232:312,1,90,2|0,0:0|0:0,0:0:0:0:
300,148,48537,2,0,L|284:56,1,90,0|0,3:0|0:0,0:0:0:0:
200,120,48953,1,2,0:0:0:0:
280,312,49162,1,2,0:0:0:0:
88,216,49370,1,0,3:0:0:0:
152,344,49578,6,0,P|216:376|332:344,1,180,2|0,3:0|0:0,0:0:0:0:
408,232,50203,2,0,P|432:272|440:316,1,90,0|2,3:0|0:0,0:0:0:0:
416,352,50516,1,0,0:0:0:0:
416,352,50620,1,2,3:2:0:0:
376,140,50828,1,2,0:0:0:0:
316,216,51037,2,0,P|276:240|232:248,1,90,0|0,3:0|0:0,0:0:0:0:
80,44,51453,5,4,0:0:0:0:
128,132,51662,1,0,0:0:0:0:
232,64,51870,1,0,3:0:0:0:
256,192,52078,1,0,0:0:0:0:
400,84,52287,1,8,3:0:0:0:
428,260,52495,1,0,0:0:0:0:
428,260,52599,1,0,0:0:0:0:
428,260,52703,1,0,3:0:0:0:
268,332,52912,6,0,B|256:288|256:288|256:232,1,90,4|0,0:0|0:0,0:0:0:0:
256,72,53328,1,0,3:0:0:0:
256,72,53537,1,2,3:0:0:0:
168,224,53745,5,0,0:0:0:0:
168,224,53953,2,0,P|120:212|84:180,1,90,0|0,3:0|0:0,0:0:0:0:
76,144,54266,1,0,3:0:0:0:
76,144,54370,1,8,3:0:0:0:
256,72,54578,1,4,3:0:0:0:
344,224,54787,6,0,P|400:280|512:276,1,198.000006042481,4|0,0:0|3:0,0:0:0:0:
476,104,55412,1,0,0:0:0:0:
476,104,55516,1,0,0:0:0:0:
476,104,55620,2,0,P|468:156|444:196,1,99.0000030212403,2|0,0:0|0:0,0:0:0:0:
288,296,56037,1,0,3:0:0:0:
120,220,56245,2,0,B|80:176|88:100|88:100|36:36,1,198.000006042481,2|0,0:0|0:0,0:0:0:0:
212,136,56870,1,0,3:0:0:0:
312,28,57078,5,0,0:0:0:0:
312,28,57182,1,0,0:0:0:0:
312,28,57287,1,2,0:0:0:0:
260,204,57495,1,0,0:0:0:0:
184,32,57703,1,0,3:0:0:0:
372,124,57912,1,2,0:0:0:0:
279,284,58120,6,0,P|160:277|116:220,1,198.000006042481,2|0,0:0|3:0,0:0:0:0:
224,184,58745,1,0,0:0:0:0:
224,184,58849,1,0,0:0:0:0:
224,184,58953,1,2,0:0:0:0:
280,284,59162,1,0,0:0:0:0:
304,80,59370,1,0,3:0:0:0:
424,224,59578,6,0,B|408:148|408:148|436:84|402:32,1,198.000006042481,2|0,0:0|0:0,0:0:0:0:
188,72,60203,1,0,3:0:0:0:
140,244,60412,1,0,0:0:0:0:
140,244,60516,1,0,0:0:0:0:
140,244,60620,2,0,P|120:192|132:136,1,99.0000030212403,2|0,0:0|0:0,0:0:0:0:
252,256,61037,2,0,P|237:309|194:348,1,99.0000030212403,0|0,3:0|0:0,0:0:0:0:
164,340,61349,5,0,0:0:0:0:
164,340,61453,2,0,L|56:332,1,99.0000030212403,4|0,0:0|0:0,0:0:0:0:
104,128,61870,2,0,L|212:136,1,99.0000030212403,0|0,3:0|0:0,0:0:0:0:
244,136,62182,1,0,0:0:0:0:
244,136,62287,1,2,0:0:0:0:
308,48,62495,1,0,0:0:0:0:
384,216,62703,1,0,3:0:0:0:
448,12,62912,5,2,0:0:0:0:
400,112,63120,2,0,P|363:144|311:153,1,99.0000030212403,2|0,0:0|0:0,0:0:0:0:
180,24,63537,1,0,3:0:0:0:
80,148,63745,2,0,P|81:202|112:248,1,99.0000030212403,2|0,0:0|0:0,0:0:0:0:
236,336,64162,1,2,0:0:0:0:
212,160,64370,1,0,3:0:0:0:
224,248,64578,5,0,0:0:0:0:
224,248,64682,1,0,0:0:0:0:
224,248,64787,2,0,P|272:228|300:180,1,99.0000030212403,2|0,0:0|0:0,0:0:0:0:
228,8,65203,2,0,P|229:62|252:104,1,99.0000030212403,0|0,3:0|0:0,0:0:0:0:
292,116,65516,1,0,0:0:0:0:
292,116,65620,1,0,0:0:0:0:
356,24,65828,5,2,0:0:0:0:
152,124,66037,1,2,3:2:0:0:
344,252,66245,2,0,B|396:272|456:228|456:228|504:308,1,198.000006042481,4|0,0:0|0:0,0:0:0:0:
336,376,66870,2,0,P|281:359|247:321,1,99.0000030212403,0|2,3:0|0:0,0:0:0:0:
280,116,67287,1,2,0:0:0:0:
180,228,67495,1,0,0:0:0:0:
180,228,67599,1,0,0:0:0:0:
180,228,67703,1,0,3:0:0:0:
72,108,67912,1,8,3:0:0:0:
32,272,68120,6,0,P|51:325|91:357,1,99.0000030212403,4|0,0:0|0:0,0:0:0:0:
320,268,68537,2,0,P|300:214|260:182,1,99.0000030212403,0|0,3:0|0:0,0:0:0:0:
232,176,68849,1,0,0:0:0:0:
232,176,68953,1,0,0:0:0:0:
200,292,69162,1,2,0:0:0:0:
356,152,69370,1,2,3:2:0:0:
472,248,69578,6,0,B|518:198|498:121|498:121|516:82|506:53,1,198.000006042481,4|0,0:0|0:0,0:0:0:0:
400,12,70203,1,0,3:0:0:0:
296,72,70412,1,2,0:0:0:0:
296,72,70516,1,0,0:0:0:0:
296,72,70620,1,2,0:0:0:0:
288,172,70828,1,0,0:0:0:0:
208,12,71037,1,0,3:0:0:0:
296,72,71245,1,0,0:0:0:0:
140,112,71453,6,0,P|93:114|44:96,1,99.0000030212403,4|0,0:0|0:0,0:0:0:0:
36,228,71870,2,0,B|76:256|76:256|100:304,1,99.0000030212403,0|0,3:0|0:0,0:0:0:0:
76,336,72182,1,0,0:0:0:0:
76,336,72287,1,0,0:0:0:0:
208,224,72495,1,2,0:0:0:0:
72,368,72703,1,2,3:2:0:0:
232,368,72912,6,0,P|317:311|348:220,1,198.000006042481,4|0,0:0|0:0,0:0:0:0:
240,72,73537,1,0,3:0:0:0:
240,72,73745,2,0,P|247:117|274:162,1,99.0000030212403,0|2,0:0|0:0,0:0:0:0:
448,164,74162,2,0,P|406:143|354:139,1,99.0000030212403,0|0,0:0|3:0,0:0:0:0:
208,252,74578,5,0,0:0:0:0:
208,252,74682,1,0,0:0:0:0:
208,252,74787,2,0,P|160:264|112:256,1,90,4|2,0:0|0:0,0:0:0:0:
60,108,75203,1,0,3:0:0:0:
60,108,75412,2,0,P|48:156|56:204,1,90,2|0,0:0|0:0,0:0:0:0:
132,352,75828,1,2,0:0:0:0:
264,296,76037,1,0,3:0:0:0:
388,364,76245,5,4,0:0:0:0:
388,364,76453,2,0,P|405:327|408:278,1,90,0|2,0:0|0:0,0:0:0:0:
268,136,76870,2,0,P|293:178|333:206,1,90,0|2,3:0|0:0,0:0:0:0:
369,204,77182,1,0,3:0:0:0:
369,204,77287,1,0,0:0:0:0:
380,96,77495,1,2,0:0:0:0:
184,56,77703,1,0,3:0:0:0:
292,16,77912,1,2,0:0:0:0:
268,136,78120,6,0,P|236:173|192:195,1,90,4|2,0:0|0:0,0:0:0:0:
48,256,78537,2,0,P|95:269|133:300,1,90,0|2,3:0|0:0,0:0:0:0:
140,336,78849,1,0,0:0:0:0:
140,336,78953,1,0,0:0:0:0:
48,256,79162,1,2,0:0:0:0:
168,136,79370,1,0,3:0:0:0:
276,264,79578,6,0,B|336:280|388:240|388:240|452:280,1,180,4|0,0:0|0:0,0:0:0:0:
376,360,80203,1,0,3:0:0:0:
312,164,80412,1,0,0:0:0:0:
312,164,80516,1,0,3:0:0:0:
312,164,80620,1,8,3:0:0:0:
368,68,80828,1,4,3:0:0:0:
196,140,81037,1,8,3:0:0:0:
260,36,81245,1,0,3:0:0:0:
312,164,81453,6,0,B|352:232|440:236|488:168|488:168|440:56,1,323.999990112305,4|0,0:0|3:0,0:0:0:0:
468,28,82793,2,0,L|488:68,1,45,0|4,0:0|3:0,0:0:0:0:
312,164,83120,6,0,P|261:167|220:151,1,90,4|0,0:0|0:0,3:0:0:0:
116,32,83536,2,0,P|78:65|59:105,1,90,0|0,3:0|0:0,0:0:0:0:
48,264,83953,1,0,0:0:0:0:
248,248,84161,1,2,0:0:0:0:
160,360,84370,1,2,3:0:0:0:
144,148,84578,6,0,P|173:106|211:84,1,90,2|0,0:0|0:0,0:0:0:0:
364,136,84995,2,0,P|379:182|375:226,1,90,2|0,0:0|3:0,0:0:0:0:
228,340,85411,2,0,B|214:247|277:260|264:167,1,180,2|2,0:0|0:0,0:0:0:0:
192,52,86036,1,0,3:0:0:0:
144,176,86245,5,2,0:0:0:0:
159,189,86349,1,0,0:0:0:0:
177,194,86453,1,2,0:0:0:0:
316,136,86661,1,0,0:0:0:0:
332,300,86870,1,0,3:0:0:0:
440,244,87078,2,0,L|480:148,1,90,2|0,0:0|0:0,0:0:0:0:
376,4,87495,2,0,L|341:87,1,90,2|0,0:0|3:0,0:0:0:0:
228,264,87911,6,0,P|152:244|104:152,1,180,4|8,0:0|3:0,0:0:0:0:
216,148,88536,1,4,3:0:0:0:
304,284,88745,2,0,L|356:380,1,90,4|0,3:0|0:0,0:0:0:0:
184,364,89161,2,0,P|144:360|92:344,1,90,4|0,0:0|3:0,0:0:0:0:
68,312,89474,1,0,0:0:0:0:
68,312,89578,1,0,3:0:0:0:
64,128,89786,5,4,0:0:0:0:
136,224,89995,1,0,0:0:0:0:
224,152,90203,2,0,P|248:108|248:64,1,90,0|0,3:0|0:0,0:0:0:0:
120,40,90620,5,0,0:0:0:0:
136,224,90828,1,2,0:0:0:0:
224,152,91036,1,2,3:0:0:0:
292,252,91245,6,0,P|336:276|380:276,1,90,4|0,0:0|0:0,0:0:0:0:
432,104,91661,2,0,P|389:130|367:168,1,90,2|0,0:0|3:0,0:0:0:0:
452,368,92078,2,0,P|492:288|464:200,1,180,2|2,0:0|0:0,0:0:0:0:
340,96,92703,1,0,3:0:0:0:
264,232,92911,5,2,0:0:0:0:
260,260,93015,1,0,0:0:0:0:
244,284,93120,1,2,0:0:0:0:
48,336,93328,2,0,L|24:376,2,45,0|0|0,3:0|3:0|3:0,0:0:0:0:
84,128,93745,5,8,3:0:0:0:
84,128,93849,1,8,3:0:0:0:
84,128,93953,1,8,3:0:0:0:
140,248,94161,2,0,P|120:260|96:264,1,45,4|4,3:0|3:0,0:0:0:0:
16,232,94370,1,4,3:0:0:0:
220,168,94578,6,0,P|264:140|312:16,1,180,4|0,0:0|3:0,0:0:0:0:
180,32,95203,1,2,3:0:0:0:
340,228,96453,6,0,L|360:324,1,90,4|0,0:0|0:0,0:0:0:0:
216,296,96870,1,0,3:0:0:0:
244,200,97078,1,2,0:0:0:0:
148,216,97286,1,2,0:0:0:0:
216,296,97495,1,2,0:0:0:0:
184,124,97703,1,0,3:0:0:0:
180,312,97911,6,0,P|156:352|120:376,1,90,2|0,0:0|0:0,0:0:0:0:
56,248,98328,1,2,0:0:0:0:
184,124,98536,1,0,3:0:0:0:
76,32,98745,1,2,0:0:0:0:
76,32,98849,1,0,0:0:0:0:
76,32,98953,1,0,0:0:0:0:
56,148,99161,1,2,0:0:0:0:
196,8,99370,1,0,3:0:0:0:
276,160,99578,6,0,P|211:218|126:207,1,180,2|0,3:0|0:0,0:0:0:0:
64,104,100203,1,0,3:0:0:0:
184,124,100411,1,0,0:0:0:0:
184,124,100515,1,0,0:0:0:0:
184,124,100620,1,2,0:0:0:0:
72,252,100828,1,2,0:0:0:0:
224,292,101036,1,0,0:0:0:0:
352,216,101245,6,0,P|364:172|356:112,1,90,2|0,3:0|0:0,0:0:0:0:
272,56,101661,1,2,0:0:0:0:
240,232,101870,2,0,P|253:275|293:321,1,90,2|0,3:2|0:0,0:0:0:0:
324,320,102182,1,0,0:0:0:0:
324,320,102286,1,0,0:0:0:0:
352,216,102495,5,2,0:0:0:0:
208,276,102703,1,0,3:0:0:0:
364,180,102911,1,0,0:0:0:0:
180,256,103120,6,0,P|132:256|92:240,1,90,4|0,0:0|0:0,0:0:0:0:
116,96,103536,2,0,P|163:95|203:112,1,90,0|2,3:0|0:0,0:0:0:0:
93,240,103953,1,2,0:0:0:0:
28,152,104161,1,2,0:0:0:0:
0,248,104370,1,0,3:0:0:0:
144,176,104578,6,0,P|187:170|232:149,1,90,2|0,0:0|0:0,0:0:0:0:
248,56,104995,1,2,0:0:0:0:
345,239,105203,2,0,P|351:198|340:148,1,90,0|2,3:0|0:0,0:0:0:0:
316,120,105515,1,0,0:0:0:0:
316,120,105620,1,0,0:0:0:0:
316,328,105828,1,2,0:0:0:0:
436,236,106036,1,0,3:0:0:0:
264,196,106245,6,0,B|174:168|177:231|87:204,1,180,2|0,0:0|0:0,0:0:0:0:
8,112,106870,1,0,3:0:0:0:
124,84,107078,2,0,P|132:115|128:144,2,45,2|0|0,0:0|0:0|0:0,0:0:0:0:
44,16,107495,1,0,0:0:0:0:
88,204,107703,1,0,3:0:0:0:
228,124,107911,6,0,P|279:119|320:131,1,90,4|0,0:0|0:0,0:0:0:0:
440,268,108328,2,0,L|352:244,1,90,2|0,0:0|3:0,0:0:0:0:
192,292,108745,2,0,P|232:316|279:322,1,90,2|0,0:0|0:0,0:0:0:0:
184,200,109161,1,0,0:0:0:0:
184,200,109265,1,0,0:0:0:0:
184,200,109370,1,0,3:0:0:0:
88,308,109578,2,0,L|56:256,1,45,2|0,3:2|0:0,0:0:0:0:
64,192,109786,6,0,P|96:156|108:108,1,90,4|0,0:0|0:0,0:0:0:0:
8,104,110203,1,0,3:0:0:0:
64,272,110411,1,2,0:0:0:0:
184,200,110620,5,2,0:0:0:0:
80,60,110828,1,2,0:0:0:0:
200,68,111036,1,0,3:0:0:0:
64,192,111245,6,0,P|26:233|17:276,1,90,2|0,0:0|0:0,0:0:0:0:
160,360,111661,1,2,0:0:0:0:
256,160,111870,1,0,3:0:0:0:
292,316,112078,1,2,0:0:0:0:
292,316,112182,1,0,0:0:0:0:
292,316,112286,2,0,P|341:299|372:270,1,90,0|2,0:0|0:0,0:0:0:0:
256,160,112703,1,0,3:0:0:0:
176,264,112911,6,0,B|120:224|124:152|124:152|101:141|76:104,1,180,2|2,3:0|0:0,0:0:0:0:
32,184,113536,1,0,3:0:0:0:
160,80,113745,2,0,L|192:44,2,45,2|0|2,0:0|0:0|0:0,0:0:0:0:
176,264,114161,1,0,0:0:0:0:
200,280,114265,1,0,0:0:0:0:
228,288,114370,1,0,3:0:0:0:
400,184,114578,6,0,B|324:160|284:216|224:180,1,180,4|0,0:0|0:0,0:0:0:0:
272,104,115203,1,0,0:0:0:0:
328,312,115411,5,2,3:2:0:0:
224,316,115620,1,0,0:0:0:0:
136,248,115828,1,2,0:0:0:0:
52,300,116036,2,0,L|72:208,1,90,0|0,3:0|0:0,0:0:0:0:
108,36,116453,6,0,B|88:132|88:132|32:128|8:164,1,180,4|0,0:0|3:0,0:0:0:0:
0,256,117078,1,0,0:0:0:0:
0,256,117182,1,0,0:0:0:0:
0,256,117286,1,0,3:0:0:0:
124,360,117495,5,2,0:0:0:0:
292,332,117703,1,2,3:2:0:0:
184,232,117911,2,0,P|184:184|200:136,1,90,2|0,0:0|0:0,0:0:0:0:
356,44,118328,5,2,0:0:0:0:
356,44,118536,2,0,P|356:92|340:140,1,90,0|0,3:0|3:0,0:0:0:0:
308,156,118849,1,0,0:0:0:0:
308,156,118953,1,0,0:0:0:0:
336,336,119161,1,2,0:0:0:0:
420,192,119370,1,0,3:0:0:0:
432,340,119578,1,2,0:0:0:0:
324,308,119786,6,0,P|272:300|232:312,1,90,2|0,0:0|0:0,0:0:0:0:
108,352,120203,2,0,P|145:314|158:275,1,90,0|2,3:0|0:0,0:0:0:0:
176,144,120620,2,0,P|192:193|221:224,1,90
264,232,120932,1,0,0:0:0:0:
264,232,121036,1,0,3:0:0:0:
348,144,121245,6,0,B|306:120|262:140|262:140|257:92|216:68,1,180,4|0,0:0|0:0,0:0:0:0:
92,92,121870,1,0,3:0:0:0:
80,264,122078,1,2,0:0:0:0:
80,280,122182,1,0,0:0:0:0:
80,296,122286,1,0,3:0:0:0:
176,176,122495,1,2,0:0:0:0:
176,160,122599,1,0,0:0:0:0:
176,144,122703,1,0,3:0:0:0:
44,176,122911,1,4,3:0:0:0:
184,280,123120,6,0,P|236:288|316:200,1,180,4|0,0:0|3:0,0:0:0:0:
224,32,123745,1,2,0:0:0:0:
224,32,123953,2,0,P|232:76|264:112,1,90,2|0,0:0|0:0,0:0:0:0:
408,124,124370,1,0,3:0:0:0:
428,280,124578,6,0,P|419:325|384:372,1,90,2|0,3:0|0:0,0:0:0:0:
224,228,124995,1,0,0:0:0:0:
372,168,125203,1,0,3:0:0:0:
336,288,125411,1,2,0:0:0:0:
264,112,125620,1,2,0:0:0:0:
224,228,125828,1,0,0:0:0:0:
224,228,125932,1,0,0:0:0:0:
224,228,126036,2,0,P|197:269|161:291,1,90,0|0,3:0|0:0,0:0:0:0:
120,268,126349,5,0,0:0:0:0:
120,268,126453,2,0,L|100:172,1,90,4|0,0:0|0:0,0:0:0:0:
216,28,126870,1,0,3:0:0:0:
216,28,127078,2,0,L|234:116,1,90,4|0,0:0|0:0,0:0:0:0:
242,316,127495,2,0,L|224:228,1,90,2|0,0:0|0:0,0:0:0:0:
372,108,127911,6,0,B|384:200|328:192|336:284,1,180,4|2,0:0|0:0,0:0:0:0:
428,372,128536,2,0,P|452:324|448:280,1,90,0|0,3:0|0:0,0:0:0:0:
420,260,128849,1,0,3:0:0:0:
420,260,128953,1,2,0:0:0:0:
328,368,129161,1,0,0:0:0:0:
248,255,129370,2,0,P|249:220|265:168,1,90,0|0,3:0|0:0,0:0:0:0:
276,120,129682,5,0,0:0:0:0:
276,120,129786,2,0,L|96:168,1,180,4|0,0:0|3:0,0:0:0:0:
16,216,130411,1,2,0:0:0:0:
8,192,130515,1,0,0:0:0:0:
8,164,130620,1,0,0:0:0:0:
128,72,130828,1,0,0:0:0:0:
216,220,131036,2,0,P|232:264|224:308,1,90,0|2,3:0|0:0,0:0:0:0:
64,364,131453,6,0,P|74:318|105:285,1,90,2|0,0:0|0:0,0:0:0:0:
216,220,131870,1,0,3:0:0:0:
304,324,132078,1,2,0:0:0:0:
304,324,132182,1,0,0:0:0:0:
304,324,132286,1,0,0:0:0:0:
352,192,132495,1,2,0:0:0:0:
216,220,132703,2,0,P|169:208|137:178,1,90,0|0,3:0|0:0,0:0:0:0:
108,176,133015,5,0,0:0:0:0:
108,176,133120,2,0,L|128:88,1,90,2|0,0:0|0:0,0:0:0:0:
288,32,133536,2,0,L|267:119,1,90,0|0,3:0|0:0,0:0:0:0:
208,332,133953,1,2,0:0:0:0:
136,188,134161,1,2,0:0:0:0:
344,260,134370,1,0,0:0:0:0:
192,356,134578,6,0,B|128:352|128:352|60:336|40:272,1,180,4|0,0:0|0:0,0:0:0:0:
128,104,135203,2,0,L|148:196,1,90,0|0,3:0|0:0,0:0:0:0:
148,232,135515,1,0,3:0:0:0:
148,232,135620,1,0,0:0:0:0:
256,152,135828,1,0,0:0:0:0:
384,280,136036,2,0,L|364:188,1,90,0|0,3:0|0:0,0:0:0:0:
364,152,136349,5,0,0:0:0:0:
364,152,136453,1,4,0:0:0:0:
240,280,136661,1,0,0:0:0:0:
208,68,136870,1,0,3:0:0:0:
336,256,137078,1,0,0:0:0:0:
336,256,137182,1,0,0:0:0:0:
336,256,137286,1,8,3:0:0:0:
140,256,137495,2,0,L|100:228,1,45
16,224,137703,1,4,3:0:0:0:
164,352,137911,6,0,B|222:335|239:280|239:280|280:320|312:320,1,180,4|0,0:0|3:0,0:0:0:0:
424,304,138536,1,2,3:0:0:0:
388,168,138745,6,0,L|397:123,1,45,0|0,0:0|3:0,0:0:0:0:
324,92,138953,2,0,P|284:116|240:116,1,90,0|0,3:0|0:0,0:0:0:0:
208,104,139265,1,0,3:0:0:0:
208,104,139370,2,0,L|199:149,2,45,0|0|8,3:0|3:0|3:0,0:0:0:0:
376,260,139786,6,0,P|288:300|176:280,1,198.000006042481,4|0,0:0|3:0,0:0:0:0:
40,320,140411,1,0,0:0:0:0:
40,320,140515,1,0,0:0:0:0:
40,320,140620,2,0,P|22:262|24:219,1,99.0000030212403,2|0,0:0|0:0,0:0:0:0:
120,40,141036,1,0,3:0:0:0:
224,148,141245,6,0,P|289:146|368:44,1,198.000006042481,2|0,0:0|0:0,0:0:0:0:
256,32,141870,1,0,3:0:0:0:
148,196,142078,1,0,0:0:0:0:
148,196,142182,1,0,0:0:0:0:
148,196,142286,1,0,0:0:0:0:
148,80,142495,1,2,0:0:0:0:
260,248,142703,1,0,3:0:0:0:
164,320,142911,1,2,0:0:0:0:
272,364,143120,6,0,P|330:353|362:329,1,99.0000030212403,2|0,0:0|0:0,0:0:0:0:
416,208,143536,1,0,3:0:0:0:
308,116,143745,1,0,0:0:0:0:
308,116,143849,1,0,0:0:0:0:
308,116,143953,1,0,0:0:0:0:
160,236,144161,1,2,0:0:0:0:
184,92,144370,1,0,3:0:0:0:
204,316,144578,6,0,P|240:272|248:228,1,99.0000030212403,2|0,0:0|0:0,0:0:0:0:
152,28,144995,1,0,0:0:0:0:
112,216,145203,2,0,P|76:172|68:128,1,99.0000030212403,0|0,3:0|0:0,0:0:0:0:
80,92,145515,1,0,0:0:0:0:
80,92,145620,1,2,0:0:0:0:
208,172,145828,1,0,3:0:0:0:
208,172,145932,1,0,3:0:0:0:
208,172,146036,1,0,3:0:0:0:
112,296,146245,2,0,P|128:320|144:336,1,49.5000015106202,0|0,3:0|3:0,0:0:0:0:
224,328,146453,6,0,P|272:312|320:320,1,99.0000030212403,4|0,0:0|0:0,0:0:0:0:
452,356,146870,2,0,P|457:305|439:260,1,99.0000030212403,0|0,3:0|0:0,0:0:0:0:
408,232,147182,1,0,0:0:0:0:
408,232,147286,1,2,0:0:0:0:
288,364,147495,1,0,0:0:0:0:
224,128,147703,5,0,3:0:0:0:
112,252,147911,2,0,P|64:268|12:260,1,99.0000030212403,2|0,0:0|0:0,0:0:0:0:
60,48,148328,2,0,L|112:132,1,99.0000030212403,2|0,0:0|3:0,0:0:0:0:
256,32,148745,1,2,0:0:0:0:
256,32,148849,1,0,0:0:0:0:
256,32,148953,1,0,0:0:0:0:
324,156,149161,5,2,0:0:0:0:
216,224,149370,1,0,3:0:0:0:
328,288,149578,1,0,0:0:0:0:
208,352,149786,6,0,P|159:336|122:299,1,99.0000030212403,2|0,0:0|0:0,0:0:0:0:
104,68,150203,2,0,P|129:111|132:164,1,99.0000030212403,0|0,3:0|0:0,0:0:0:0:
104,196,150515,1,0,0:0:0:0:
104,196,150620,1,0,0:0:0:0:
216,20,150828,5,2,0:0:0:0:
412,108,151036,1,2,3:2:0:0:
292,312,151245,2,0,B|237:224|306:209|251:122,1,198.000006042481,4|0,0:0|0:0,0:0:0:0:
92,124,151870,2,0,P|128:164|184:184,1,99.0000030212403,0|2,3:0|0:0,0:0:0:0:
376,244,152286,1,0,0:0:0:0:
292,312,152495,1,2,0:0:0:0:
292,312,152599,1,0,3:0:0:0:
292,312,152703,1,0,3:0:0:0:
168,180,152911,1,4,3:0:0:0:
92,292,153120,6,0,L|36:384,1,99.0000030212403,4|0,0:0|0:0,0:0:0:0:
72,176,153536,2,0,P|125:168|179:188,1,99.0000030212403,0|0,3:0|0:0,0:0:0:0:
200,208,153849,1,0,0:0:0:0:
200,208,153953,1,0,0:0:0:0:
312,336,154161,1,2,0:0:0:0:
276,128,154370,1,2,3:2:0:0:
412,280,154578,6,0,P|384:208|416:92,1,198.000006042481,4|0,0:0|0:0,0:0:0:0:
504,48,155203,1,0,3:0:0:0:
328,32,155411,1,0,0:0:0:0:
328,32,155515,1,0,0:0:0:0:
328,32,155620,1,2,0:0:0:0:
276,128,155828,1,2,0:0:0:0:
120,32,156036,1,0,3:0:0:0:
168,128,156245,5,0,0:0:0:0:
168,128,156349,1,0,0:0:0:0:
168,128,156453,2,0,P|212:88|224:45,1,99.0000030212403,2|0,0:0|0:0,0:0:0:0:
36,156,156870,2,0,P|22:203|32:264,1,99.0000030212403,0|0,3:0|0:0,0:0:0:0:
44,292,157182,1,0,0:0:0:0:
44,292,157286,1,0,0:0:0:0:
200,204,157495,1,2,0:0:0:0:
120,376,157703,1,2,3:2:0:0:
244,204,157911,6,0,P|335:177|436:212,1,198.000006042481,4|0,0:0|0:0,0:0:0:0:
384,360,158536,1,0,3:0:0:0:
384,360,158745,2,0,P|327:370|269:343,1,99.0000030212403,2|0,0:0|0:0,0:0:0:0:
160,288,159161,1,2,0:0:0:0:
244,204,159370,1,0,3:0:0:0:
164,376,159578,5,0,0:0:0:0:
128,372,159682,1,0,0:0:0:0:
100,360,159786,2,0,P|52:324|36:284,1,90,4|2,0:0|0:0,0:0:0:0:
27,105,160203,2,0,P|40:80|88:44,1,90,0|2,3:0|0:0,0:0:0:0:
124,48,160515,1,0,0:0:0:0:
124,48,160620,1,0,0:0:0:0:
140,160,160828,1,2,0:0:0:0:
232,88,161036,1,0,3:0:0:0:
256,204,161245,6,0,P|288:236|336:252,1,90,4|0,0:0|0:0,0:0:0:0:
484,176,161661,2,0,P|448:224|408:240,1,90,2|0,0:0|3:0,0:0:0:0:
360,144,162078,1,2,0:0:0:0:
360,144,162182,1,0,3:0:0:0:
360,144,162286,1,0,0:0:0:0:
292,340,162495,1,2,0:0:0:0:
164,288,162703,1,0,3:0:0:0:
176,116,162911,5,2,0:0:0:0:
92,192,163120,2,0,P|48:212|4:208,1,90,4|0,0:0|0:0,0:0:0:0:
40,48,163536,1,0,3:0:0:0:
175,116,163745,2,0,P|212:83|226:42,1,90,2|0,0:0|0:0,0:0:0:0:
432,76,164161,1,2,0:0:0:0:
432,76,164265,1,0,3:0:0:0:
432,76,164370,1,0,3:0:0:0:
356,232,164578,6,0,P|333:187|334:144,1,90,4|0,0:0|0:0,0:0:0:0:
348,112,164890,1,0,3:0:0:0:
348,112,164995,1,0,0:0:0:0:
464,248,165203,2,0,P|448:292|416:328,1,90,2|0,0:0|0:0,0:0:0:0:
380,332,165515,6,0,L|324:340,1,45,0|0,3:0|3:0,0:0:0:0:
220,232,165828,1,8,3:0:0:0:
112,364,166036,1,0,3:0:0:0:
96,348,166140,1,0,3:0:0:0:
88,328,166245,1,4,3:0:0:0:
128,88,166453,6,0,B|132:192|132:192|160:136|220:128,1,198.000006042481,4|0,0:0|3:0,0:0:0:0:
306,152,167078,1,2,0:0:0:0:
265,337,167286,1,2,0:0:0:0:
405,212,167495,1,0,3:0:0:0:
220,232,167703,1,0,0:0:0:0:
381,324,167911,1,2,0:0:0:0:
306,152,168120,6,0,L|259:58,1,99.0000030212403,2|0,0:0|0:0,0:0:0:0:
100,112,168536,1,0,3:0:0:0:
100,112,168745,2,0,L|108:212,1,99.0000030212403,2|0,0:0|0:0,0:0:0:0:
296,256,169161,2,0,P|261:213|209:191,1,99.0000030212403,2|0,0:0|3:0,0:0:0:0:
360,376,169578,6,0,P|427:292|441:202,1,198.000006042481,2|0,0:0|0:0,0:0:0:0:
344,128,170203,1,0,3:0:0:0:
296,232,170411,2,0,P|247:256|190:255,1,99.0000030212403,2|0,0:0|0:0,0:0:0:0:
200,56,170828,2,0,L|228:168,1,99.0000030212403,2|0,0:0|3:0,0:0:0:0:
120,328,171245,6,0,B|80:268|108:208|108:208|88:128,1,198.000006042481,4|2,0:0|0:0,0:0:0:0:
64,24,171870,1,0,3:0:0:0:
224,152,172078,2,0,P|276:166|331:153,1,99.0000030212403,2|0,0:0|0:0,0:0:0:0:
376,52,172495,1,0,0:0:0:0:
376,280,172703,1,0,3:0:0:0:
456,160,172911,5,2,0:0:0:0:
456,160,173015,1,2,0:0:0:0:
456,160,173120,2,0,P|472:212|468:256,1,99.0000030212403,4|0,0:0|0:0,0:0:0:0:
312,380,173536,1,0,3:0:0:0:
140,284,173745,2,0,P|124:232|128:188,1,99.0000030212403,2|0,0:0|0:0,0:0:0:0:
16,120,174161,2,0,P|48:76|86:53,1,99.0000030212403,2|0,0:0|3:0,0:0:0:0:
380,80,174578,6,0,P|292:124|200:88,1,198.000006042481,4|0,0:0|0:0,0:0:0:0:
288,20,175203,1,0,3:0:0:0:
464,92,175411,2,0,L|480:144,1,49.5000015106202,2|0,0:0|3:0,0:0:0:0:
416,216,175620,2,0,L|401:168,2,49.5000015106202,2|0|0,0:0|0:0|0:0,0:0:0:0:
364,356,176036,1,0,3:0:0:0:
216,304,176245,5,0,0:0:0:0:
216,304,176349,1,0,0:0:0:0:
216,304,176453,2,0,L|184:210,1,99.0000030212403,4|0,0:0|0:0,0:0:0:0:
252,24,176870,1,0,3:0:0:0:
340,128,177078,2,0,P|314:180|279:207,1,99.0000030212403,2|0,0:0|0:0,0:0:0:0:
104,152,177495,2,0,P|152:119|196:113,1,99.0000030212403,2|0,0:0|3:0,0:0:0:0:
384,292,177911,6,0,P|300:344|196:344,1,198.000006042481,4|0,0:0|0:0,0:0:0:0:
104,244,178536,1,0,3:0:0:0:
172,100,178745,2,0,L|200:56,1,49.5000015106202,2|0,0:0|0:0,0:0:0:0:
272,12,178953,1,0,0:0:0:0:
272,176,179161,2,0,L|318:151,1,49.5000015106202,0|0,0:0|3:0,0:0:0:0:
402,149,179370,1,2,0:0:0:0:
336,296,179578,2,0,L|388:292,1,49.5000015106202,0|0,0:0|3:0,0:0:0:0:
465,324,179786,1,4,0:0:0:0:
402,149,179995,5,2,0:0:0:0:
320,220,180203,1,0,3:0:0:0:
320,64,180411,1,2,0:0:0:0:
244,144,180620,2,0,P|192:160|148:156,1,99.0000030212403,2|2,0:0|0:0,0:0:0:0:
184,44,181036,1,0,3:0:0:0:
232,256,181245,6,0,P|206:304|172:332,1,99.0000030212403,4|0,0:0|0:0,0:0:0:0:
20,148,181661,2,0,P|51:117|102:96,1,99.0000030212403,2|0,0:0|3:0,0:0:0:0:
380,160,182078,2,0,B|283:195|283:124|186:160,1,198.000006042481,2|2,0:0|0:0,0:0:0:0:
160,184,182599,1,2,0:0:0:0:
144,216,182703,1,0,3:0:0:0:
292,288,182911,1,0,0:0:0:0:
328,72,183120,6,0,P|344:120|344:180,1,99.0000030212403,4|2,0:0|0:0,0:0:0:0:
200,320,183536,1,0,3:0:0:0:
364,348,183745,1,2,0:0:0:0:
364,348,183849,1,0,3:0:0:0:
364,348,183953,1,0,0:0:0:0:
240,216,184161,2,0,P|224:192|220:168,1,49.5000015106202,2|0,0:0|0:0,0:0:0:0:
240,88,184370,1,4,3:0:0:0:
368,200,184578,6,0,P|372:248|265:343,1,198.000006042481,4|0,0:0|0:0,0:0:0:0:
108,304,185203,2,0,P|74:258|61:202,1,99.0000030212403,0|0,3:0|0:0,0:0:0:0:
116,100,185620,2,0,P|149:145|162:201,1,90,0|0,3:0|0:0,0:0:0:0:
220,268,186036,2,0,P|251:220|260:163,1,80.9999975280763,4|0,3:0|0:0,0:0:0:0:
232,104,186453,5,4,0:0:0:0:
256,192,186557,12,0,189786,0:0:0:0:
256,192,199370,5,0,3:0:0:0:
256,192,199474,1,0,0:0:0:0:
256,192,199578,1,0,3:0:0:0:
324,80,199786,6,0,P|376:144|380:220,1,161.999995056153,4|0,0:0|3:0,0:0:0:0:
324,304,200411,2,0,P|292:272|281:231,2,80.9999975280763,2|0|2,0:0|0:0|0:0,0:0:0:0:
424,316,201036,1,0,3:0:0:0:
328,336,201245,6,0,P|283:343|244:327,1,80.9999975280763,2|0,0:0|0:0,0:0:0:0:
152,180,201661,2,0,L|172:272,1,80.9999975280763,2|0,0:0|3:0,0:0:0:0:
292,184,202078,2,0,L|274:104,1,80.9999975280763,2|0,0:0|0:0,0:0:0:0:
172,68,202495,1,2,0:0:0:0:
40,164,202703,1,0,3:0:0:0:
56,48,202911,1,2,0:0:0:0:
152,180,203120,6,0,B|188:224|256:220|256:220|308:248,2,161.999995056153,2|0|0,0:3|3:0|0:0,0:0:0:0:
228,120,204161,1,2,0:0:0:0:
236,312,204370,1,0,3:0:0:0:
128,280,204578,1,2,0:0:0:0:
252,328,204786,6,0,P|293:339|340:328,1,80.9999975280763,2|0,0:0|0:0,0:0:0:0:
436,252,205203,2,0,P|458:281|467:323,1,80.9999975280763,0|0,3:0|0:0,0:0:0:0:
452,356,205515,1,0,0:0:0:0:
452,356,205620,1,2,0:0:0:0:
296,248,205828,1,0,3:0:0:0:
296,248,205932,1,0,3:0:0:0:
296,248,206036,1,0,3:0:0:0:
372,132,206245,2,0,L|392:88,1,40.4999987640381,0|0,3:0|3:0,0:0:0:0:
340,28,206453,6,0,P|300:44|252:44,1,90,4|0,0:0|0:0,0:0:0:0:
104,128,206870,2,0,L|140:220,1,90,0|0,3:0|0:0,0:0:0:0:
184,332,207286,1,2,0:0:0:0:
216,136,207495,1,2,0:0:0:0:
0,120,207703,1,0,3:0:0:0:
136,212,207911,6,0,B|192:260|264:240|264:240|292:280,1,180,4|0,0:0|0:0,0:0:0:0:
400,356,208536,2,0,L|416:256,1,90,0|0,3:0|0:0,0:0:0:0:
420,224,208849,1,0,3:0:0:0:
420,224,208953,1,2,0:0:0:0:
288,276,209161,1,2,0:0:0:0:
200,152,209370,2,0,L|184:252,1,90,0|0,3:0|0:0,0:0:0:0:
180,284,209682,5,0,0:0:0:0:
180,284,209786,1,2,0:0:0:0:
60,352,209995,2,0,P|44:300|52:256,1,90,2|2,0:0|3:2,0:0:0:0:
124,76,210411,2,0,P|140:128|132:172,1,90,2|0,0:0|0:0,0:0:0:0:
20,120,210828,1,2,0:0:0:0:
28,16,211036,1,0,0:0:0:0:
136,164,211245,6,0,P|184:172|232:156,1,90,6|0,3:2|0:0,0:0:0:0:
296,40,211661,1,0,0:0:0:0:
416,100,211870,1,0,3:0:0:0:
296,260,212078,6,0,P|280:232|276:212,1,45,2|0,0:0|0:0,0:0:0:0:
316,148,212286,1,2,0:0:0:0:
428,236,212495,1,0,0:0:0:0:
468,84,212703,2,0,P|432:116|416:164,1,90,0|0,3:0|0:0,0:0:0:0:
428,236,213015,5,0,0:0:0:0:
428,236,213120,2,0,P|419:287|388:328,1,90,4|0,0:0|0:0,0:0:0:0:
192,360,213536,1,8,3:0:0:0:
268,168,213745,1,0,0:0:0:0:
268,168,213849,1,0,0:0:0:0:
268,168,213953,1,0,3:0:0:0:
128,280,214161,2,0,P|104:288|76:284,1,45
28,224,214370,1,4,3:0:0:0:
220,240,214578,6,0,B|292:276|328:208|400:252,1,180,4|0,0:0|3:0,0:0:0:0:
488,364,215203,1,2,3:0:0:0:
336,340,215411,5,4,3:0:0:0:
328,320,215515,1,0,3:0:0:0:
324,296,215620,1,4,3:0:0:0:
328,272,215724,1,0,3:0:0:0:
336,252,215828,1,4,3:0:0:0:
256,72,216036,1,2,3:0:0:0:
176,252,216245,1,0,0:0:0:0:
152,116,216453,6,0,P|180:152|328:164,1,198.000006042481,4|0,0:0|3:0,0:0:0:0:
380,64,217078,1,0,0:0:0:0:
380,64,217182,1,0,0:0:0:0:
380,64,217286,2,0,P|424:104|440:144,1,99.0000030212403,2|0,0:0|0:0,0:0:0:0:
420,328,217703,1,0,3:0:0:0:
236,368,217911,6,0,B|160:380|104:320|104:320|40:328,1,198.000006042481,2|0,0:0|0:0,0:0:0:0:
208,244,218536,1,0,3:0:0:0:
100,160,218745,1,0,0:0:0:0:
100,160,218849,1,0,0:0:0:0:
100,160,218953,1,2,0:0:0:0:
292,176,219161,1,2,0:0:0:0:
200,80,219370,1,0,3:0:0:0:
192,256,219578,1,2,0:0:0:0:
344,296,219786,6,0,P|392:276|428:232,1,99.0000030212403,2|0,0:0|0:0,0:0:0:0:
388,104,220203,1,0,3:0:0:0:
488,316,220411,1,0,0:0:0:0:
488,316,220515,1,0,0:0:0:0:
488,316,220620,1,2,0:0:0:0:
392,384,220828,1,0,0:0:0:0:
328,196,221036,1,0,3:0:0:0:
196,304,221245,6,0,P|148:324|96:324,1,99.0000030212403,2|0,0:0|0:0,0:0:0:0:
44,204,221661,1,0,0:0:0:0:
172,52,221870,2,0,P|178:103|165:153,1,99.0000030212403,0|0,3:0|0:0,0:0:0:0:
132,168,222182,1,0,0:0:0:0:
132,168,222286,1,2,0:0:0:0:
60,68,222495,1,0,0:0:0:0:
276,32,222703,1,0,3:0:0:0:
216,248,222911,5,0,0:0:0:0:
216,248,223015,1,0,0:0:0:0:
216,248,223120,2,0,P|224:300|252:345,1,99.0000030212403,4|0,0:0|0:0,0:0:0:0:
464,268,223536,2,0,P|455:215|427:170,1,99.0000030212403,0|0,3:0|0:0,0:0:0:0:
396,152,223849,1,0,0:0:0:0:
396,152,223953,1,2,0:0:0:0:
344,264,224161,1,0,0:0:0:0:
276,168,224370,1,0,3:0:0:0:
432,40,224578,5,2,0:0:0:0:
396,152,224786,2,0,P|356:184|308:196,1,99.0000030212403,2|0,0:0|0:0,0:0:0:0:
176,116,225203,1,0,3:0:0:0:
88,248,225411,2,0,L|64:348,1,99.0000030212403,2|0,0:0|0:0,0:0:0:0:
224,352,225828,1,2,0:0:0:0:
256,196,226036,2,0,L|280:96,1,99.0000030212403,0|0,3:0|0:0,0:0:0:0:
484,120,226453,6,0,P|448:152|396:168,1,99.0000030212403,2|0,0:0|0:0,0:0:0:0:
340,32,226870,1,0,3:0:0:0:
256,196,227078,1,0,0:0:0:0:
256,196,227182,1,0,0:0:0:0:
256,196,227286,1,0,0:0:0:0:
88,160,227495,5,2,0:0:0:0:
324,112,227703,1,2,3:2:0:0:
228,288,227911,2,0,B|184:280|156:224|156:224|116:264|64:254,1,198.000006042481,4|0,0:0|0:0,0:0:0:0:
40,384,228536,2,0,P|100:376|140:344,1,99.0000030212403,0|2,3:0|0:0,0:0:0:0:
184,128,228953,1,0,0:0:0:0:
300,224,229161,1,2,0:0:0:0:
300,224,229265,1,0,3:0:0:0:
300,224,229370,1,0,3:0:0:0:
392,104,229578,2,0,P|420:84|444:80,1,49.5000015106202,4|0,3:0|3:0,0:0:0:0:
496,136,229786,6,0,P|496:188|476:232,1,99.0000030212403,4|0,0:0|0:0,0:0:0:0:
312,368,230203,2,0,P|312:316|332:272,1,99.0000030212403,0|0,3:0|0:0,0:0:0:0:
372,248,230515,1,0,0:0:0:0:
372,248,230620,1,0,0:0:0:0:
432,344,230828,1,2,0:0:0:0:
236,204,231036,1,2,3:2:0:0:
144,320,231245,6,0,B|90:271|93:201|93:201|16:192,1,198.000006042481,4|0,0:0|0:0,0:0:0:0:
168,96,231870,2,0,L|68:88,1,99.0000030212403,0|0,3:0|0:0,0:0:0:0:
44,64,232182,1,0,3:0:0:0:
44,64,232286,1,2,0:0:0:0:
248,24,232495,1,2,0:0:0:0:
244,168,232703,1,0,3:0:0:0:
344,100,232911,5,0,0:0:0:0:
344,100,233015,1,0,0:0:0:0:
344,100,233120,2,0,P|376:152|380:196,1,99.0000030212403,2|0,0:0|0:0,0:0:0:0:
280,288,233536,1,0,3:0:0:0:
244,168,233745,1,0,0:0:0:0:
400,264,233953,5,0,3:0:0:0:
240,140,234161,1,8,3:0:0:0:
256,356,234370,1,4,3:0:0:0:
476,328,234578,2,0,B|526:237|456:225|507:136,1,198.000006042481,4|0,0:0|0:0,0:0:0:0:
420,28,235203,2,0,P|387:68|370:119,1,99.0000030212403,0|0,3:0|0:0,0:0:0:0:
380,152,235515,1,0,0:0:0:0:
380,152,235620,1,2,3:2:0:0:
216,72,235828,5,0,0:0:0:0:
216,72,235932,1,0,0:0:0:0:
216,72,236036,1,0,3:0:0:0:
220,260,236245,2,0,P|187:261|161:249,1,49.5000015106202,4|0,3:0|0:0,0:0:0:0:
98,204,236453,6,0,P|86:247|92:292,1,90,4|2,0:0|0:0,0:0:0:0:
220,260,236870,1,0,3:0:0:0:
268,376,237078,2,0,P|224:387|180:382,1,90,2|0,0:0|0:0,0:0:0:0:
304,200,237495,2,0,P|324:252|319:304,1,90,2|0,0:0|3:0,0:3:0:0:
180,68,237911,5,4,0:0:0:0:
204,172,238120,2,0,L|224:276,1,90,0|2,0:0|0:0,0:0:0:0:
280,376,238536,1,0,3:0:0:0:
420,352,238745,1,2,0:0:0:0:
420,352,238849,1,0,3:0:0:0:
420,352,238953,1,0,0:0:0:0:
288,248,239161,1,2,0:0:0:0:
336,88,239370,1,0,3:0:0:0:
368,208,239578,5,2,0:0:0:0:
368,208,239682,1,0,0:0:0:0:
368,208,239786,2,0,P|416:180|444:136,1,90,4|2,0:0|0:0,0:0:0:0:
212,88,240203,2,0,P|218:143|246:186,1,90,0|2,3:0|0:0,0:0:0:0:
268,204,240515,1,0,3:0:0:0:
268,204,240620,2,0,L|240:304,2,90,0|2|0,0:0|0:0|3:0,0:0:0:0:
140,264,241245,6,0,P|106:270|52:259,1,90,4|0,0:0|0:0,0:0:0:0:
96,128,241661,1,2,3:0:0:0:
196,352,241870,1,0,3:0:0:0:
216,184,242078,1,2,0:0:0:0:
216,184,242182,1,0,3:0:0:0:
216,184,242286,2,0,L|224:88,2,90,0|2|0,0:0|0:0|3:0,0:0:0:0:
408,64,242911,5,2,0:0:0:0:
412,220,243120,2,0,P|384:268|348:292,1,90,4|0,0:0|0:0,0:0:0:0:
116,252,243536,2,0,P|144:204|180:180,1,90,2|0,0:0|0:0,0:0:0:0:
216,184,243849,1,0,3:0:0:0:
216,184,243953,1,8,3:0:0:0:
328,104,244161,2,0,P|328:68|320:44,1,45,0|0,3:0|3:0,0:0:0:0:
248,24,244370,1,4,3:0:0:0:
316,212,244578,6,0,P|360:236|405:239,1,90,4|0,0:0|3:0,0:0:0:0:
464,192,245203,1,0,3:0:0:0:
460,312,245411,1,0,3:0:0:0:
296,360,245620,1,0,3:0:0:0:
332,252,245828,5,0,3:0:0:0:
328,232,245932,1,0,3:0:0:0:
316,212,246036,2,0,P|302:189|288:176,1,45,8|0,3:0|3:0,0:0:0:0:
208,188,246245,1,4,3:0:0:0:
88,312,246453,6,0,P|43:331|-2:329,1,90,4|0,0:0|0:0,0:0:0:0:
156,144,246870,2,0,P|204:152|240:178,1,90,0|0,3:0|0:0,0:0:0:0:
296,284,247286,1,0,0:0:0:0:
176,312,247495,1,2,0:0:0:0:
388,364,247703,1,2,3:0:0:0:
408,204,247911,6,0,L|420:104,1,90,2|0,0:0|0:0,0:0:0:0:
248,52,248328,2,0,L|277:148,1,90,2|0,0:0|3:0,0:0:0:0:
460,312,248745,2,0,B|508:288|520:232|520:232|532:152,1,180,2|2,0:0|0:0,0:0:0:0:
432,36,249370,1,0,3:0:0:0:
344,120,249578,5,2,0:0:0:0:
344,120,249682,1,0,0:0:0:0:
344,120,249786,2,0,P|296:128|256:116,1,90,2|0,0:0|0:0,0:0:0:0:
172,52,250203,1,0,3:0:0:0:
204,200,250411,1,2,0:0:0:0:
204,200,250515,1,0,0:0:0:0:
204,200,250620,1,0,3:0:0:0:
128,136,250828,1,2,0:0:0:0:
304,32,251036,1,0,3:0:0:0:
332,232,251245,6,0,P|328:288|244:372,1,180,4|8,0:0|3:0,0:0:0:0:
56,216,251870,1,0,3:0:0:0:
128,136,252078,1,2,3:0:0:0:
384,136,252495,5,4,0:0:0:0:
460,316,252703,1,0,3:0:0:0:
368,240,252911,5,0,3:0:0:0:
368,240,253015,1,0,3:0:0:0:
368,240,253120,2,0,L|280:216,1,90,4|0,0:0|0:0,0:0:0:0:
132,348,253536,2,0,P|172:330|203:287,1,90,0|0,3:0|0:0,0:0:0:0:
184,108,253953,1,0,0:0:0:0:
104,168,254161,1,2,0:0:0:0:
92,68,254370,1,2,3:0:0:0:
256,180,254578,6,0,P|296:208|348:220,1,90,2|0,0:0|0:0,0:0:0:0:
364,100,254995,1,2,0:0:0:0:
376,296,255203,1,0,3:0:0:0:
320,120,255411,1,2,0:0:0:0:
320,120,255515,1,0,3:0:0:0:
320,120,255620,1,0,0:0:0:0:
200,256,255828,5,2,0:0:0:0:
408,184,256036,1,0,3:0:0:0:
236,52,256245,1,0,0:0:0:0:
144,128,256453,6,0,P|96:136|56:128,1,90,4|0,0:0|0:0,0:0:0:0:
248,152,256870,2,0,P|286:182|306:217,1,90,0|0,3:0|0:0,0:0:0:0:
296,256,257182,1,0,0:0:0:0:
296,256,257286,1,0,0:0:0:0:
172,248,257495,1,2,0:0:0:0:
404,312,257703,1,2,3:2:0:0:
160,280,257911,6,0,B|104:260|80:216|80:216|28:272,1,180,2|2,3:0|0:0,0:0:0:0:
132,376,258536,2,0,P|180:376|224:352,1,90,0|0,3:0|0:0,0:0:0:0:
240,324,258849,1,0,0:0:0:0:
240,324,258953,1,0,3:0:0:0:
264,160,259161,6,0,L|288:208,1,45,0|0,3:0|3:0,0:0:0:0:
388,260,259370,2,0,L|367:219,1,45,0|0,3:0|3:0,0:0:0:0:
380,92,259578,2,0,L|404:140,1,45,0|0,3:0|3:0,0:0:0:0:
484,200,259786,6,0,P|504:153|501:111,1,90,4|0,0:0|0:0,0:0:0:0:
288,60,260203,2,0,L|329:139,1,90,0|0,3:0|0:0,0:0:0:0:
264,308,260620,1,0,0:0:0:0:
140,128,260828,1,2,0:0:0:0:
136,256,261036,1,2,3:0:0:0:
272,180,261245,6,0,P|288:132|281:85,1,90,4|0,0:0|0:0,0:0:0:0:
36,100,261661,2,0,P|39:149|65:190,1,90,2|0,0:0|3:0,0:0:0:0:
300,288,262078,2,0,B|386:252|343:205|430:170,1,180,2|2,0:0|0:0,0:0:0:0:
464,280,262703,1,0,3:0:0:0:
272,180,262911,1,2,0:0:0:0:
272,180,263015,1,0,0:0:0:0:
272,180,263120,1,2,0:0:0:0:
172,224,263328,6,0,B|140:136|204:136|172:48,1,180,2|2,0:0|0:0,0:0:0:0:
76,80,263953,1,2,0:0:0:0:
44,232,264161,1,0,3:0:0:0:
44,232,264265,1,0,3:0:0:0:
44,232,264370,1,0,3:0:0:0:
180,336,264578,1,4,0:0:0:0:
56,344,264786,5,0,3:0:0:0:
216,248,264995,2,0,P|244:272|252:288,1,45,2|0,3:0|3:0,0:0:0:0:
260,368,265203,1,8,3:0:0:0:
360,296,265411,2,0,L|412:216,1,90,4|0,0:0|0:0,0:0:0:0:
152,88,265828,2,0,L|100:168,1,90,2|0,3:0|0:0,0:0:0:0:
312,192,266245,5,0,3:0:0:0:
320,172,266349,1,0,3:0:0:0:
320,148,266453,2,0,P|302:98|266:71,1,90,4|0,0:0|0:0,0:0:0:0:
172,304,266870,2,0,P|205:343|249:356,1,90,0|0,3:0|0:0,0:0:0:0:
392,234,267286,1,0,0:0:0:0:
248,272,267495,1,2,0:0:0:0:
276,76,267703,1,2,3:0:0:0:
135,191,267911,6,0,L|63:255,1,90,4|0,0:0|0:0,0:0:0:0:
80,88,268328,1,2,0:0:0:0:
248,164,268536,1,0,3:0:0:0:
192,336,268745,6,0,P|138:341|98:321,1,90,2|0,0:0|0:0,0:0:0:0:
184,120,269161,1,2,0:0:0:0:
296,312,269370,1,0,3:0:0:0:
152,200,269578,5,2,0:0:0:0:
152,200,269682,1,0,0:0:0:0:
152,200,269786,2,0,B|116:172|116:172|92:124,1,90,2|0,0:0|0:0,0:0:0:0:
415,132,270203,2,0,B|396:172|396:172|360:200,1,90,0|2,3:0|0:0,0:0:0:0:
256,48,270620,5,0,3:0:0:0:
256,84,270724,1,0,3:0:0:0:
256,120,270828,1,0,3:0:0:0:
256,156,270932,1,0,3:0:0:0:
256,192,271036,1,0,3:0:0:0:
208,356,271245,6,0,B|134:330|113:265|113:265|51:265,1,180,4|0,0:0|3:0,0:0:0:0:
20,132,271870,1,2,3:0:0:0:
140,40,272078,1,0,3:0:0:0:
152,176,272286,5,0,3:0:0:0:
352,112,272495,1,8,3:0:0:0:
208,244,272703,1,4,3:0:0:0:
256,28,272911,5,4,0:0:0:0:
256,192,273015,12,0,278120,0:0:0:0:
