osu file format v7

[General]
AudioFilename: New World (TV Size).mp3
AudioLeadIn: 0
PreviewTime: 45913
Countdown: 0
SampleSet: Normal
StackLeniency: 0.7
Mode: 0
LetterboxInBreaks: 1

[Editor]
DistanceSpacing: 0.800000011920929
BeatDivisor: 4
GridSize: 8

[Metadata]
Title:New World (TV Size)
Artist:ROUND TABLE feat. Nino
Creator:Astom
Version:Normal
Source:.hack//DUSK
Tags:Legend Twilight Bracelet

[Difficulty]
HPDrainRate:3
CircleSize:4
OverallDifficulty:3
SliderMultiplier:1.5
SliderTickRate:2

[Events]
//Background and Video events
0,0,"BG.jpg"
//Break Periods
2,17010,18952
//Storyboard Layer 0 (Background)
//Storyboard Layer 1 (Fail)
//Storyboard Layer 2 (Pass)
//Storyboard Layer 3 (Foreground)
//Storyboard Sound Samples
//Background Colour Transformations
3,100,163,162,255

[TimingPoints]
2706,447.761194029851,4,1,1,70,1,0
15579,-100,4,1,1,50,0,0
15914,-100,4,1,1,60,0,0
16362,-100,4,1,1,70,0,0
20280,-200,4,1,1,70,0,0
21511,-100,4,1,1,70,0,0
22071,-200,4,1,1,70,0,0
23302,-100,4,1,1,70,0,0
39086,-100,4,1,1,40,0,0
39310,-100,4,1,1,50,0,0
39534,-100,4,1,1,60,0,0
39758,-100,4,1,1,70,0,0
41101,-100,4,1,1,40,0,0
41325,-100,4,1,1,50,0,0
41549,-100,4,1,1,60,0,0
41773,-100,4,1,1,70,0,0
44235,-100,4,1,1,50,0,0
44683,-100,4,1,1,60,0,0
45019,-100,4,1,1,70,0,0
45355,-100,4,1,1,75,0,0
45467,-100,4,1,1,70,0,0
45691,-100,4,1,1,70,0,1
50840,-100,4,1,1,70,0,0
54534,-100,4,1,1,50,0,0
55093,-100,4,1,1,78,0,0
58787,-100,4,1,1,70,0,0
59459,-100,4,1,1,80,0,0
60243,-100,4,1,1,80,0,1
65168,-100,4,1,1,80,0,0
69086,-100,4,1,1,60,0,0
69758,-100,4,1,1,80,0,0
72220,-100,4,1,1,90,0,0
75243,-100,4,1,1,80,0,0
88787,-100,4,1,1,60,0,0

[Colours]
Combo1 : 251,245,21
Combo2 : 255,87,6

[HitObjects]
256,312,9646,5,4
256,192,10094,1,0
256,128,10317,1,4
152,192,10765,1,4
24,192,11213,5,0
48,136,11437,2,0,B|232:0|416:136|416:136,1,375
488,192,13004,5,0
464,248,13228,2,0,B|288:384|104:248|104:248,1,375,0|0
224,192,14795,5,0
168,192,15019,1,4
168,72,15467,1,0
112,72,15691,2,0,B|48:72|48:72,10,37.5,0|0|0|0|0|0|0|0|0|0|4
344,192,20392,6,0,B|242:111|168:197|168:197,1,187.5,4|0
256,272,21959,5,0
192,272,22183,2,0,B|208:336|256:352|296:336|312:312|320:264|320:264,1,187.5,0|0
256,104,23974,6,0,B|256:264|256:264,1,150,0|0
256,312,24646,1,4
136,328,25094,5,0
176,280,25317,1,0
256,192,25765,1,0
336,104,26213,5,0
376,56,26437,1,0
376,176,26885,1,0
376,232,27108,1,0
256,192,27556,12,4,28676
320,128,29123,5,0
256,96,29347,2,0,B|144:144|136:248|192:280|224:288|256:288|288:280|304:256|344:224|312:160|256:192|256:192,1,375
416,192,30914,1,0
416,192,31138,1,4
256,376,32034,5,0
224,320,32258,1,0
288,320,32482,1,0
288,256,32706,1,0
224,256,32929,5,4
256,136,33377,1,0
256,16,33825,1,0
152,80,34273,2,0,B|264:152|384:72|384:72,1,225
312,192,35392,5,0
200,192,35840,1,4
256,296,36288,1,0
256,232,36511,2,0,B|256:48|256:48,1,150
256,192,37183,12,4,38303
256,40,39198,5,0
208,80,39422,1,0
160,120,39646,1,0
112,160,39870,1,0
152,208,40094,5,0
256,152,40541,1,4
360,208,40989,1,0
400,160,41213,5,4
352,120,41437,1,4
304,80,41661,1,4
256,40,41885,2,0,B|256:352|256:352,1,300,4|4
184,240,43228,5,0
144,192,43452,1,0
184,144,43676,1,0
296,192,44123,1,0
352,192,44347,2,4,B|400:192|400:192,10,37.5
256,160,46138,5,0
256,96,46362,1,0
256,224,46810,6,0,B|256:304|256:304,2,75,0|0|0
200,120,47706,1,0
312,120,48153,1,0
256,192,48601,12,4,50840
256,152,51959,6,0,B|253:97|296:32|408:-64|520:48|568:112|568:192|568:272|520:336|408:448|296:360|246:298|255:221|255:221,1,825,0|4
296,192,54646,2,0,B|376:192|376:192,3,75
448,344,56213,5,0
392,336,56437,1,0
432,288,56661,1,4
376,280,56885,2,0,B|240:176|240:176,1,150
208,152,57556,1,0
152,176,57780,6,4,B|128:104|200:56|256:112|256:112,1,150
272,152,58452,1,4
256,272,58900,1,4
256,272,59347,1,4
320,192,60467,5,0
256,192,60691,1,0
384,192,61139,6,0,B|464:192|464:192,2,75,0|0|0
280,248,62035,1,0
280,136,62482,1,0
256,192,62929,12,4,65168
400,192,66288,6,0,B|488:192|488:192,3,75
304,192,67631,1,0
256,160,67855,5,0
136,192,68303,1,0
256,224,68750,1,0
256,104,69198,6,0,B|256:16|256:16,2,75,4|0|4
256,368,70541,5,0
208,328,70765,1,0
168,280,70989,1,0
80,200,71437,1,0
80,200,71885,1,0
168,280,72332,6,0,B|312:16|312:16|448:280|448:280|360:280|360:280|311:168|311:168|256:280|256:280|319:279|319:279,1,975,0|4
488,192,75691,5,0
464,136,75914,2,0,B|280:0|96:136|96:136,1,375,4|0
24,192,77482,5,0
48,248,77705,2,0,B|224:384|408:248|408:248,1,375,4|0
288,192,79273,1,0
224,192,79497,1,4
256,80,79944,5,0
224,128,80168,2,0,B|184:168|184:168,2,37.5
288,128,80616,2,0,B|336:176|336:176,2,37.5,0|0|0
256,240,81288,1,4
288,192,82855,5,0
336,152,83079,2,0,B|384:112|384:40|336:8|224:-8|88:152|88:152,1,375,0|4
216,192,84646,5,0
176,232,84870,2,0,B|128:272|128:344|176:376|288:392|424:232|424:232,1,375,0|4
256,192,86661,12,4,88452
256,192,88900,5,4
256,192,89123,1,4
