osu file format v14

[General]
AudioFilename: mp3jump.comroot-five-kimi-no-mirai.mp3
AudioLeadIn: 0
PreviewTime: 65752
Countdown: 0
SampleSet: Soft
StackLeniency: 0.7
Mode: 0
LetterboxInBreaks: 0
WidescreenStoryboard: 0

[Editor]
Bookmarks: 41096,53905,74130,86265
DistanceSpacing: 1.2
BeatDivisor: 4
GridSize: 4
TimelineZoom: 1

[Metadata]
Title:Kimi No Mirai
TitleUnicode:キミノミライ
Artist:ROOT FIVE
ArtistUnicode:ROOT FIVE
Creator:nadapan
Version:Hard
Source:Fairy Tail
Tags:フェアリーテイル ED17 S2 ED3 Chaoslitz Yuthuil mion_6GKM
BeatmapID:534459
BeatmapSetID:229753

[Difficulty]
HPDrainRate:5
CircleSize:4
OverallDifficulty:4
ApproachRate:7.5
SliderMultiplier:1.4
SliderTickRate:2

[Events]
//Background and Video events
Video,-1813,"Fairy+Tail+Ending+17.avi"
0,0,"fairy_tail_lucy_and_her_spirits_by_ep8422-d6avgr9.jpg",0,0
//Break Periods
//Storyboard Layer 0 (Background)
//Storyboard Layer 1 (Fail)
//Storyboard Layer 2 (Pass)
//Storyboard Layer 3 (Foreground)
//Storyboard Sound Samples

[TimingPoints]
865,337.078651685393,4,2,2,40,1,0
9123,-100,4,2,1,50,0,0
11482,-100,4,2,1,70,0,0
21426,-100,4,2,2,70,0,0
22606,-100,4,2,1,70,0,0
24123,-100,4,2,1,60,0,0
33982,-133.333333333333,4,2,1,60,0,0
44432,-100,4,2,1,60,0,0
44685,-100,4,2,3,60,0,0
45190,-100,4,2,1,60,0,0
55471,-100,4,2,3,45,0,0
56145,-133.333333333333,4,2,2,50,0,0
61539,-100,4,2,1,70,0,0
64909,-100,4,2,1,40,0,0
65078,-100,4,2,1,40,0,0
65584,-100,4,2,1,70,0,0
65752,-200,4,2,1,40,0,0
66763,-83.3333333333333,4,2,1,90,0,1
76539,-83.3333333333333,4,2,1,90,0,0
77550,-83.3333333333333,4,2,1,90,0,1
87325,-83.3333333333333,4,2,2,90,0,1
88842,-83.3333333333333,4,2,2,90,0,0
90190,-83.3333333333333,4,2,1,90,0,1
98280,-100,4,2,1,50,0,0

[Colours]
Combo1 : 202,202,202
Combo2 : 142,209,249
Combo3 : 217,158,252
Combo4 : 255,255,166
Combo5 : 75,145,190
Combo6 : 150,252,163

[HitObjects]
176,72,865,6,0,P|104:120|88:188,1,140,4|0,0:0|0:0,0:0:0:0:
132,240,1370,1,0,0:0:0:0:
200,288,1539,2,0,P|239:279|300:187,1,140,2|0,0:0|0:0,0:0:0:0:
368,52,2213,6,0,P|420:72|456:156,1,140,2|0,0:0|0:0,0:0:0:0:
428,224,2718,1,0,0:0:0:0:
356,176,2887,2,0,P|348:256|404:308,1,140,2|0,0:0|0:0,0:0:0:0:
264,184,3561,6,0,P|272:108|224:56,1,140,2|0,0:0|0:0,0:0:0:0:
192,136,4067,1,0,0:0:0:0:
196,220,4235,2,0,P|192:260|112:324,1,140,2|0,0:0|0:0,0:0:0:0:
76,252,4741,1,0,0:0:0:0:
76,168,4909,6,0,P|76:104|124:36,1,140,2|0,0:0|0:0,0:0:0:0:
200,44,5415,2,0,P|252:60|276:88,1,70
263,152,5752,2,0,P|228:147|200:128,1,70,0|2,0:0|0:0,0:0:0:0:
366,106,6258,5,4,0:0:0:0:
420,268,6595,2,0,P|380:284|328:280,1,70
292,228,6932,2,0,P|252:224|156:248,1,140
232,96,7606,6,0,P|296:84|392:128,1,140,2|2,0:0|0:0,0:0:0:0:
432,160,8112,2,0,P|380:192|344:192,2,70
366,106,8617,1,2,0:0:0:0:
412,36,8786,1,2,0:0:0:0:
256,192,8954,12,0,10977,0:0:0:0:
72,80,11482,6,0,B|120:80|152:28|152:28|212:104|284:76|284:76|344:48|384:100,1,350,4|0,0:0|0:0,0:0:0:0:
376,292,12831,6,0,B|328:292|296:344|296:344|236:268|164:296|164:296|104:324|64:272,1,350,4|0,0:0|0:0,0:0:0:0:
128,36,14179,6,0,B|156:80|260:40|260:40|336:104|220:168|220:168|220:224,1,350,4|0,0:0|0:0,0:0:0:0:
216,320,15527,6,0,B|188:276|84:316|84:316|8:252|124:188|124:188|124:132,1,350,4|0,0:0|0:0,0:0:0:0:
300,332,16876,1,4,0:0:0:0:
164,232,17213,6,0,P|208:192|244:184,1,70,0|2,0:0|0:0,0:0:0:0:
364,276,17718,1,8,0:0:0:0:
364,276,17887,2,0,P|424:228|448:152,2,140
308,212,18730,1,0,0:0:0:0:
192,92,19067,6,0,P|176:148|192:260,1,140,8|0,0:0|0:0,0:0:0:0:
140,300,19572,1,4,0:0:0:0:
300,348,19909,1,0,0:0:0:0:
324,268,20078,1,8,0:0:0:0:
176,180,20415,1,8,0:0:0:0:
228,112,20584,1,0,0:0:0:0:
312,100,20752,1,0,0:0:0:0:
384,140,20921,1,4,0:0:0:0:
200,312,21426,6,0,P|152:304|132:288,1,70
52,304,21763,2,0,P|64:244|148:212,1,140
212,188,22269,1,0,0:0:0:0:
296,176,22438,6,0,P|304:136|388:84,2,140
304,344,23449,1,0,0:0:0:0:
304,344,23617,1,0,0:0:0:0:
136,340,23954,5,0,0:0:0:0:
92,268,24123,2,0,P|52:236|44:188,1,70,8|0,0:0|0:0,0:0:0:0:
0,160,24460,2,0,P|48:144|93:158,1,70,8|0,0:0|0:0,0:0:0:0:
148,172,24797,1,0,0:0:0:0:
144,88,24966,1,2,0:0:0:0:
144,88,25050,1,2,0:0:0:0:
144,88,25134,6,0,P|112:76|56:72,2,70,8|0|0,0:0|0:0|0:0,0:0:0:0:
220,52,25640,2,0,P|272:48|296:56,1,70,8|0,0:0|0:0,0:0:0:0:
252,128,25977,1,0,0:0:0:0:
332,160,26145,2,0,P|276:212|212:208,1,140,8|4,0:0|0:0,0:0:0:0:
72,292,26820,6,0,P|64:244|80:204,1,70,8|0,0:0|0:0,0:0:0:0:
148,252,27157,1,8,0:0:0:0:
188,324,27325,1,0,0:0:0:0:
232,252,27494,1,8,0:0:0:0:
284,316,27662,2,0,P|312:280|312:232,2,70,0|8|0,0:0|0:0|0:0,0:0:0:0:
232,252,28168,2,0,P|240:218|264:192,1,70,0|8,0:0|0:0,0:0:0:0:
340,152,28505,5,0,0:0:0:0:
404,96,28673,1,0,0:0:0:0:
324,72,28842,2,0,P|280:80|196:136,1,140,8|4,0:0|0:0,0:0:0:0:
68,236,29516,6,0,P|84:204|120:172,2,70,8|0|8,0:0|0:0|0:0,0:0:0:0:
108,312,30022,1,0,0:0:0:0:
180,268,30190,1,8,0:0:0:0:
224,196,30359,1,0,0:0:0:0:
224,196,30443,1,0,0:0:0:0:
224,195,30527,6,0,P|244:163|292:139,1,70,8|0,0:0|0:0,0:0:0:0:
352,128,30864,2,0,P|396:148|436:236,1,140,0|0,0:0|0:0,0:0:0:0:
384,292,31370,1,0,0:0:0:0:
304,316,31539,2,0,L|224:284,1,70,8|0,0:0|0:0,0:0:0:0:
160,324,31876,6,0,L|80:292,1,70,4|0,0:0|0:0,0:0:0:0:
124,220,32213,2,0,P|88:200|36:200,2,70,8|0|0,0:0|0:0|0:0,0:0:0:0:
204,244,32718,1,0,0:0:0:0:
188,160,32887,1,8,0:0:0:0:
268,188,33056,1,0,0:0:0:0:
400,84,33393,6,0,L|440:56,2,35,0|0|8,0:0|0:0|0:0,0:0:0:0:
316,68,33730,2,0,L|280:28,2,35,0|0|8,0:0|0:0|0:0,0:0:0:0:
348,140,34067,6,0,P|352:180|344:212,1,52.5000020027161,0|8,0:0|0:0,0:0:0:0:
292,212,34404,2,0,P|280:256|236:296,1,105.000004005432,4|0,0:0|0:0,0:0:0:0:
237,295,34909,1,8,0:0:0:0:
128,232,35247,2,0,P|100:200|96:128,1,105.000004005432,0|8,0:0|0:0,0:0:0:0:
132,92,35752,2,0,P|160:80|240:92,1,105.000004005432
232,87,36258,1,8,0:0:0:0:
332,164,36595,5,0,0:0:0:0:
276,192,36763,2,0,P|240:224|224:248,1,52.5000020027161,0|8,0:0|0:0,0:0:0:0:
228,288,37100,1,0,0:0:0:0:
352,312,37438,1,0,0:0:0:0:
400,272,37606,1,8,0:0:0:0:
432,152,37943,6,0,P|416:108|364:72,1,105.000004005432,0|8,0:0|0:0,0:0:0:0:
370,74,38449,1,0,0:0:0:0:
244,72,38786,1,0,0:0:0:0:
244,72,38954,1,8,0:0:0:0:
244,196,39291,6,0,P|228:236|204:256,1,52.5000020027161
168,280,39629,2,0,P|144:291|123:307,1,52.5000020027161,8|4,0:0|0:0,0:0:0:0:
56,200,40134,2,0,P|76:176|116:168,1,52.5000020027161,0|8,0:0|0:0,0:0:0:0:
188,88,40640,2,0,P|236:76|304:92,1,105.000004005432,0|8,0:0|0:0,0:0:0:0:
289,85,41145,1,0,0:0:0:0:
340,200,41482,1,0,0:0:0:0:
340,200,41651,1,8,0:0:0:0:
300,248,41820,6,0,P|260:284|240:288,2,52.5000020027161,0|0|0,0:0|0:0|0:0,0:0:0:0:
264,196,42325,1,0,0:0:0:0:
220,152,42494,2,0,P|176:148|116:176,1,105.000004005432,10|0,0:0|0:0,0:0:0:0:
92,228,42999,2,0,P|100:296|224:312,1,210.000008010865,8|8,0:0|0:0,0:0:0:0:
268,276,43842,2,0,P|272:223|263:172,1,105.000004005432,8|0,0:0|0:0,0:0:0:0:
288,100,44348,1,0,0:0:0:0:
212,76,44516,1,0,0:0:0:0:
212,76,44685,6,0,P|180:68|128:92,1,70,2|2,0:0|0:0,0:0:0:0:
184,152,45022,2,0,P|152:160|100:136,1,70,2|4,0:0|0:0,0:0:0:0:
8,32,45527,5,0,0:0:0:0:
88,60,45696,1,8,0:0:0:0:
256,76,46033,2,0,P|304:96|324:128,2,70,0|0|8,0:0|0:0|0:0,0:0:0:0:
248,160,46539,2,0,P|212:204|128:244,1,140
84,176,47044,1,8,0:0:0:0:
188,44,47381,5,0,0:0:0:0:
268,68,47550,1,0,0:0:0:0:
336,116,47718,2,0,P|324:156|340:212,1,70,8|0,0:0|0:0,0:0:0:0:
195,265,48224,5,0,0:0:0:0:
264,312,48393,2,0,P|324:316|404:284,1,140,8|0,0:0|0:0,0:0:0:0:
476,276,48898,2,0,P|464:240|432:216,1,70,0|8,0:0|0:0,0:0:0:0:
356,216,49235,1,0,0:0:0:0:
348,132,49404,1,0,0:0:0:0:
400,68,49572,2,0,P|368:52|308:60,1,70,0|8,0:0|0:0,0:0:0:0:
168,80,50078,6,0,P|128:64|96:28,2,70,0|0|8,0:0|0:0|0:0,0:0:0:0:
252,60,50584,2,0,P|244:124|180:164,1,140,4|0,0:0|0:0,0:0:0:0:
185,163,51089,1,8,0:0:0:0:
92,300,51426,6,0,P|144:332|224:316,1,140,0|8,0:0|0:0,0:0:0:0:
264,248,51932,2,0,P|316:216|396:232,1,140
391,228,52438,1,8,0:0:0:0:
424,152,52606,2,0,P|420:104|396:68,2,70,0|0|0,0:0|0:0|0:0,0:0:0:0:
340,132,53112,1,8,0:0:0:0:
276,80,53280,6,0,P|236:68|144:92,1,140
143,92,53786,1,8,0:0:0:0:
112,256,54123,1,0,0:0:0:0:
176,308,54291,2,0,P|224:324|268:328,1,70,0|8,0:0|0:0,0:0:0:0:
324,300,54629,6,0,L|444:224,1,140,4|0,0:0|0:0,0:0:0:0:
400,152,55134,2,0,P|376:108|340:84,1,70
276,48,55471,1,8,0:0:0:0:
180,72,55640,1,4,0:0:0:0:
160,168,55808,1,8,0:0:0:0:
240,224,55977,1,4,0:0:0:0:
340,236,56145,6,0,P|352:288|324:344,1,105.000004005432,4|0,0:0|0:0,0:0:0:0:
212,292,56820,2,0,P|160:301|108:284,1,105.000004005432,0|2,0:0|0:0,0:0:0:0:
84,228,57325,1,0,0:0:0:0:
96,164,57494,5,0,0:0:0:0:
216,196,57831,1,0,0:0:0:0:
292,296,58168,2,0,P|336:300|408:292,1,105.000004005432
420,172,58842,6,0,L|508:232,2,105.000004005432
300,124,59853,2,0,P|272:112|232:108,1,52.5000020027161,2|0,0:0|0:0,0:0:0:0:
192,128,60190,5,0,0:0:0:0:
88,56,60527,2,0,P|56:100|52:156,1,105.000004005432
140,236,61202,1,0,0:0:0:0:
304,272,61539,6,0,P|252:268|212:284,1,70
272,348,61876,2,0,P|324:352|364:336,1,70
392,280,62213,2,0,P|384:236|360:208,1,70
452,200,62550,2,0,P|428:168|336:132,1,140
252,132,63056,1,0,0:0:0:0:
172,108,63224,6,0,L|84:80,1,70
80,168,63561,2,0,L|151:190,1,70
120,268,63898,2,0,L|40:244,1,70
28,328,64235,2,0,P|120:352|172:344,1,140
192,268,64741,2,0,L|212:216,1,46.6666666666667
204,196,64909,6,0,L|152:164,2,46.6666666666667,8|8|8,0:0|0:0|0:0,0:0:0:0:
236,148,65247,2,0,L|220:88,2,46.6666666666667,8|8|8,0:0|0:0|0:0,0:0:0:0:
256,200,65584,1,4,0:0:0:0:
296,200,65752,6,0,P|344:176|424:248,1,175
348,312,66763,6,4,P|280:320|248:316,1,83.9999974365235
164,336,67100,1,4,0:0:0:0:
132,240,67269,2,0,P|164:172|252:104,1,167.999994873047,8|0,0:0|0:0,0:0:0:0:
324,68,67775,1,0,0:0:0:0:
380,148,67943,1,8,0:0:0:0:
284,180,68112,2,0,P|236:212|220:244,1,83.9999974365235,0|2,0:0|2:0,0:0:0:0:
316,276,68449,1,0,0:0:0:0:
232,328,68617,1,8,0:0:0:0:
140,288,68786,6,0,P|84:320|32:332,2,83.9999974365235
116,192,69291,1,8,0:0:0:0:
168,104,69460,2,0,P|224:120|268:220,1,167.999994873047,4|0,0:0|0:0,0:0:0:0:
304,308,69966,1,8,0:0:0:0:
204,300,70134,1,0,0:0:0:0:
160,208,70303,1,0,0:0:0:0:
96,116,70471,1,0,0:0:0:0:
56,208,70640,2,0,P|64:256|116:304,1,83.9999974365235,8|4,0:0|0:0,0:0:0:0:
176,324,70977,5,2,2:0:0:0:
276,336,71145,2,0,P|328:336|376:324,1,83.9999974365235,0|8,0:0|0:0,0:0:0:0:
248,160,71651,2,0,P|280:192|340:192,2,83.9999974365235,0|0|8,0:0|0:0|0:0,0:0:0:0:
184,236,72157,2,0,P|256:288|344:296,1,167.999994873047,4|0,0:0|0:0,0:0:0:0:
428,268,72662,2,0,P|432:200|376:116,1,167.999994873047,8|0,0:0|0:0,0:0:0:0:
324,32,73168,2,0,P|292:68|280:108,1,83.9999974365235,0|8,0:0|0:0,0:0:0:0:
256,200,73505,1,4,0:0:0:0:
156,192,73673,5,2,2:0:0:0:
160,292,73842,2,0,P|204:308|256:304,1,83.9999974365235,0|8,0:0|0:0,0:0:0:0:
408,200,74348,2,0,P|376:164|328:152,1,83.9999974365235
320,252,74685,2,0,P|360:288|400:300,2,83.9999974365235,8|4|0,0:0|0:0|0:0,0:0:0:0:
264,168,75190,1,0,0:0:0:0:
172,128,75359,2,0,L|100:188,2,83.9999974365235,8|0|0,0:0|0:0|0:0,0:0:0:0:
260,76,75864,2,0,P|308:68|432:104,2,167.999994873047,4|4|0,0:0|0:0|0:0,0:0:0:0:
200,156,76707,5,2,0:0:0:0:
200,156,76876,2,0,P|176:192|132:220,2,83.9999974365235,0|2|0,0:0|0:0|0:0,0:0:0:0:
104,128,77381,1,2,0:0:0:0:
188,72,77550,6,0,P|272:92|332:176,1,167.999994873047,4|0,0:0|0:0,0:0:0:0:
336,252,78056,1,8,0:0:0:0:
424,204,78224,1,0,0:0:0:0:
436,304,78393,2,0,P|396:324|328:328,1,83.9999974365235
264,288,78730,1,8,0:0:0:0:
176,336,78898,2,0,P|116:300|100:260,2,83.9999974365235,4|2|0,0:0|2:0|0:0,0:0:0:0:
196,236,79404,5,8,0:0:0:0:
284,188,79572,2,0,P|268:140|244:116,1,83.9999974365235
176,44,79909,2,0,P|124:56|92:72,1,83.9999974365235,0|8,0:0|0:0,0:0:0:0:
80,168,80247,2,0,P|72:232|136:332,2,167.999994873047,4|0|0,0:0|0:0|0:0,0:0:0:0:
176,136,81089,2,0,P|230:206|232:288,1,167.999994873047,0|8,0:0|0:0,0:0:0:0:
152,224,81595,1,4,0:0:0:0:
68,276,81763,6,0,P|104:316|136:324,1,83.9999974365235,2|0,2:0|0:0,0:0:0:0:
228,352,82100,1,8,0:0:0:0:
292,276,82269,2,0,P|324:312|328:364,2,83.9999974365235,0|0|0,0:0|0:0|0:0,0:0:0:0:
316,176,82775,1,8,0:0:0:0:
340,80,82943,6,0,P|276:88|220:172,1,167.999994873047,4|0,2:0|0:0,0:0:0:0:
176,260,83449,1,8,0:0:0:0:
16,308,83786,6,0,P|64:336|112:344,1,83.9999974365235
192,344,84123,1,8,0:0:0:0:
296,336,84291,2,0,P|344:296|304:184,1,167.999994873047,4|0,0:0|0:0,0:0:0:0:
280,112,84797,1,8,0:0:0:0:
88,44,85134,6,0,P|40:72|16:112,2,83.9999974365235,0|0|8,0:0|0:0|0:0,0:0:0:0:
164,108,85640,1,4,0:0:0:0:
308,248,85977,2,0,P|264:268|208:264,1,83.9999974365235,0|8,0:0|0:0,0:0:0:0:
244,172,86314,1,0,0:0:0:0:
200,80,86482,2,0,B|136:68|72:140|28:92,1,167.999994873047,0|8,0:0|0:0,0:0:0:0:
24,200,86988,1,4,0:0:0:0:
88,280,87157,6,0,P|152:276|180:244,1,83.9999974365235,2|0,2:0|0:0,0:0:0:0:
232,188,87494,1,2,0:0:0:0:
316,244,87662,1,0,0:0:0:0:
360,152,87831,2,0,P|404:128|468:132,2,83.9999974365235,2|0|2,0:0|0:0|0:0,0:0:0:0:
260,156,88336,1,0,0:0:0:0:
252,56,88505,6,0,P|204:40|160:48,1,83.9999974365235,2|0,2:0|0:0,0:0:0:0:
116,128,88842,1,4,0:0:0:0:
76,220,89011,1,4,0:0:0:0:
116,312,89179,1,0,0:0:0:0:
116,312,89263,1,0,0:0:0:0:
116,312,89348,2,0,P|184:336|220:332,1,83.9999974365235
296,324,89685,2,0,L|336:360,2,41.9999987182618,4|0|0,0:0|0:0|0:0,0:0:0:0:
284,224,90022,1,0,0:0:0:0:
276,124,90190,6,0,P|328:120|368:132,2,83.9999974365235,8|0|8,0:0|0:0|0:0,0:0:0:0:
188,172,90696,1,0,0:0:0:0:
156,76,90864,1,8,0:0:0:0:
72,128,91033,2,0,P|52:188|64:236,1,83.9999974365235,0|8,0:0|0:0,0:0:0:0:
116,288,91370,6,0,P|160:288|208:312,1,83.9999974365235
292,300,91707,2,0,P|352:288|444:228,1,167.999994873047,8|0,0:0|0:0,0:0:0:0:
456,132,92213,1,8,0:0:0:0:
456,132,92381,2,0,P|396:128|352:144,1,83.9999974365235,0|4,0:0|0:0,0:0:0:0:
276,112,92718,5,0,0:0:0:0:
200,180,92887,2,0,P|160:200|108:196,2,83.9999974365235,8|0|0,0:0|0:0|0:0,0:0:0:0:
144,96,93393,1,0,0:0:0:0:
64,156,93561,1,8,0:0:0:0:
60,260,93730,2,8,P|100:288|160:292,2,83.9999974365235,0|8|0,0:0|0:0|0:0,0:0:0:0:
84,356,94235,5,8,0:0:0:0:
184,352,94404,2,8,P|276:320|368:304,1,167.999994873047,8|8,0:0|0:0,0:0:0:0:
396,220,94909,2,0,P|352:208|304:216,1,83.9999974365235,8|0,0:0|0:0,0:0:0:0:
260,124,95247,1,4,0:0:0:0:
72,56,95584,6,0,P|44:100|52:144,1,83.9999974365235,8|0,0:0|0:0,0:0:0:0:
148,120,95921,2,0,P|176:164|172:208,1,83.9999974365235,8|0,0:0|0:0,0:0:0:0:
192,296,96258,2,8,P|248:312|352:280,1,167.999994873047
408,196,96763,1,8,0:0:0:0:
456,108,96932,5,8,0:0:0:0:
368,64,97100,2,8,P|304:48|264:64,1,83.9999974365235,4|0,0:0|0:0,0:0:0:0:
256,148,97438,1,0,0:0:0:0:
168,104,97606,2,0,L|80:52,1,83.9999974365235,4|0,0:0|0:0,0:0:0:0:
80,160,97943,2,0,L|172:216,1,83.9999974365235,4|0,0:0|0:0,0:0:0:0:
