osu file format v14

[General]
AudioFilename: mp3jump.comroot-five-kimi-no-mirai.mp3
AudioLeadIn: 0
PreviewTime: 65752
Countdown: 0
SampleSet: Soft
StackLeniency: 0.7
Mode: 0
LetterboxInBreaks: 0
WidescreenStoryboard: 0

[Editor]
Bookmarks: 41096,53905,74130,86265
DistanceSpacing: 1.1
BeatDivisor: 4
GridSize: 4
TimelineZoom: 1

[Metadata]
Title:Kimi No Mirai
TitleUnicode:キミノミライ
Artist:ROOT FIVE
ArtistUnicode:ROOT FIVE
Creator:nadapan
Version:Easy
Source:Fairy Tail
Tags:フェアリーテイル ED17 S2 ED3 Chaoslitz Yuthuil mion_6GKM
BeatmapID:534458
BeatmapSetID:229753

[Difficulty]
HPDrainRate:3
CircleSize:3
OverallDifficulty:2
ApproachRate:2
SliderMultiplier:0.91
SliderTickRate:1

[Events]
//Background and Video events
Video,-1813,"Fairy+Tail+Ending+17.avi"
0,0,"fairy_tail_lucy_and_her_spirits_by_ep8422-d6avgr9.jpg",0,0
//Break Periods
//Storyboard Layer 0 (Background)
//Storyboard Layer 1 (Fail)
//Storyboard Layer 2 (Pass)
//Storyboard Layer 3 (Foreground)
//Storyboard Sound Samples

[TimingPoints]
865,337.078651685393,4,2,2,40,1,0
9123,-100,4,2,1,70,0,0
21426,-100,4,2,2,70,0,0
22606,-100,4,2,1,70,0,0
24123,-100,4,2,1,60,0,0
33814,-100,4,2,1,60,0,0
44348,-100,4,2,1,60,0,0
44685,-100,4,2,3,60,0,0
45190,-100,4,2,1,60,0,0
55471,-100,4,2,3,45,0,0
56145,-100,4,2,2,50,0,0
61539,-100,4,2,1,70,0,0
64909,-100,4,2,1,30,0,0
66763,-100,4,2,1,90,0,1
76539,-100,4,2,1,90,0,0
77550,-100,4,2,1,90,0,1
87325,-100,4,2,2,90,0,1
88842,-100,4,2,2,90,0,0
90190,-100,4,2,1,90,0,1
98280,-100,4,2,1,50,0,0

[Colours]
Combo1 : 202,202,202
Combo2 : 142,209,249
Combo3 : 217,158,252
Combo4 : 255,255,166
Combo5 : 75,145,190
Combo6 : 150,252,163

[HitObjects]
112,128,865,6,0,P|160:88|248:96,2,136.5,4|0|0,0:0|0:0|0:0,0:0:0:0:
196,180,2213,2,0,P|148:220|60:212,2,136.5,2|0|0,0:0|0:0|0:0,0:0:0:0:
240,92,3561,6,0,P|324:52|400:92,1,182,2|0,0:0|0:0,0:0:0:0:
392,188,4572,1,0,0:0:0:0:
324,260,4909,2,0,L|200:348,2,136.5,2|0|0,0:0|0:0|0:0,0:0:0:0:
252,192,6258,6,0,L|124:280,2,136.5,6|0|0,0:0|0:0|0:0,0:0:0:0:
284,96,7606,2,0,P|336:140|328:256,1,182,2|0,0:0|0:0,0:0:0:0:
256,312,8617,2,0,L|200:348,1,45.5,2|2,0:0|0:0,0:0:0:0:
92,176,11482,6,0,P|96:244|236:304,1,227.5,4|0,0:0|0:0,0:0:0:0:
332,200,12831,2,0,P|328:132|188:72,1,227.5,4|0,0:0|0:0,0:0:0:0:
132,204,14179,6,0,B|172:248|244:232|244:232|264:280|324:296,1,227.5,4|0,0:0|0:0,0:0:0:0:
372,156,15527,1,4,0:0:0:0:
36,308,16876,6,0,P|120:312|184:288,1,136.5,4|2,0:0|0:0,0:0:0:0:
168,196,17718,2,0,P|100:224|28:212,2,136.5,8|2|2,0:0|0:0|0:0,0:0:0:0:
216,104,19067,2,0,P|264:156|264:228,1,136.5,8|4,0:0|0:0,0:0:0:0:
156,320,20078,5,0,0:0:0:0:
60,344,20415,2,0,P|65:277|116:228,1,136.5,8|4,0:0|0:0,0:0:0:0:
128,80,21426,1,0,0:0:0:0:
128,80,21763,2,0,P|188:56|264:76,1,136.5,2|2,0:0|0:0,0:0:0:0:
328,144,22606,2,0,B|384:212|360:300|360:300|236:324,1,273,0|4,0:0|0:0,0:0:0:0:
132,236,24123,2,0,P|96:268|48:276,2,91,8|8|8,0:0|0:0|0:0,0:0:0:0:
152,136,25134,6,0,P|195:85|264:74,2,136.5,8|8|8,0:0|0:0|0:0,0:0:0:0:
244,172,26482,1,4,0:0:0:0:
340,148,26820,2,0,P|392:176|412:216,1,91,8|8,0:0|0:0,0:0:0:0:
432,300,27494,1,8,0:0:0:0:
332,316,27831,6,0,P|272:344|192:328,2,136.5,8|8|8,0:0|0:0|0:0,0:0:0:0:
284,168,29179,1,4,0:0:0:0:
232,84,29516,2,0,P|196:120|184:176,1,91,8|8,0:0|0:0,0:0:0:0:
192,252,30190,1,8,0:0:0:0:
160,348,30527,6,0,L|24:329,1,136.5,8|8,0:0|0:0,0:0:0:0:
32,180,31539,1,0,0:0:0:0:
132,192,31876,2,0,P|112:120|16:80,1,182,4|8,0:0|0:0,0:0:0:0:
320,104,33561,5,10,0:0:0:0:
412,144,33898,2,0,P|412:196|364:276,2,136.5,8|4|8,0:0|0:0|0:0,0:0:0:0:
320,104,35247,2,0,P|255:85|190:105,1,136.5
256,240,36258,5,8,0:0:0:0:
184,312,36595,2,0,P|136:328|48:296,1,136.5
128,172,37606,1,8,0:0:0:0:
72,88,37943,2,0,P|33:142|36:220,2,136.5,0|0|8,0:0|0:0|0:0,0:0:0:0:
128,172,39291,6,0,L|260:216,2,136.5,0|0|8,0:0|0:0|0:0,0:0:0:0:
204,104,40640,2,0,L|340:148,1,136.5,0|2,0:0|0:0,0:0:0:0:
412,272,41651,5,8,0:0:0:0:
332,332,41988,2,0,P|284:332|216:276,2,136.5,0|2|8,0:0|0:0|0:0,0:0:0:0:
332,80,43842,6,0,P|252:108|220:168,1,136.5
324,164,44685,2,0,P|292:228|344:276,1,136.5,0|4,0:0|0:0,0:0:0:0:
476,248,45696,2,0,P|476:202|454:163,2,91,8|0|8,0:0|0:0|0:0,0:0:0:0:
412,324,46707,6,0,P|366:329|322:320,1,91,0|8,0:0|0:0,0:0:0:0:
236,272,47381,2,0,P|220:228|224:184,2,91,0|8|0,0:0|0:0|0:0,0:0:0:0:
320,216,48393,1,8,0:0:0:0:
412,256,48730,2,0,P|420:216|400:156,1,91,0|8,0:0|0:0,0:0:0:0:
356,84,49404,6,0,B|296:84|272:116|272:116|248:84|188:84,1,182,0|0,0:0|0:0,0:0:0:0:
92,72,50415,2,0,P|64:116|68:168,1,91,8|0,0:0|0:0,0:0:0:0:
100,248,51089,1,8,0:0:0:0:
188,292,51426,2,0,P|144:336|56:336,2,136.5,0|0|8,0:0|0:0|0:0,0:0:0:0:
256,216,52775,6,0,P|256:144|312:92,1,136.5
348,184,53617,2,0,P|388:260|436:292,1,136.5
288,340,54629,2,0,L|232:264,1,91,4|0,0:0|0:0,0:0:0:0:
156,328,55303,2,0,L|100:248,1,91,0|8,0:0|0:0,0:0:0:0:
104,104,56145,6,0,P|143:81|186:66,1,91,4|0,0:0|0:0,0:0:0:0:
272,120,56820,1,0,0:0:0:0:
356,64,57157,2,0,P|399:79|439:102,1,91,2|0,0:0|0:0,0:0:0:0:
472,196,57831,6,0,P|452:244|416:272,2,91
372,184,58842,1,0,0:0:0:0:
288,240,59179,2,0,B|196:232|196:232|168:280|112:284,1,182,0|2,0:0|0:0,0:0:0:0:
108,184,60190,1,0,0:0:0:0:
144,92,60527,2,0,P|176:64|228:56,2,91,0|0|0,0:0|0:0|0:0,0:0:0:0:
220,160,61539,6,0,P|288:212|376:188,1,182,4|0,0:0|0:0,0:0:0:0:
308,116,62550,2,0,P|376:92|412:100,1,91
460,168,63224,2,0,B|448:224|440:264|440:264|392:264|348:300,1,182
256,192,64235,12,4,65584,0:0:0:0:
352,120,66763,6,0,P|344:168|224:296,1,227.5,4|0,0:0|0:0,0:0:0:0:
188,212,68112,2,0,P|256:144|216:12,1,227.5,4|0,0:0|0:0,0:0:0:0:
96,96,69460,6,0,P|40:176|72:296,1,227.5,4|0,0:0|0:0,0:0:0:0:
220,320,70808,1,4,0:0:0:0:
372,312,71314,2,0,P|434:301|489:237,1,136.5,0|0,2:0|0:0,0:0:0:0:
392,212,72157,6,0,P|435:161|501:150,1,136.5,4|8,0:0|0:0,0:0:0:0:
444,68,72999,2,0,P|392:44|312:64,2,136.5,0|2|8,0:0|0:0|0:0,0:0:0:0:
376,136,74348,2,0,P|440:168|499:151,2,136.5,0|0|8,0:0|0:0|0:0,0:0:0:0:
280,112,75696,6,0,L|308:252,1,136.5,0|4,0:0|0:0,0:0:0:0:
356,332,76539,2,0,P|412:344|496:320,1,136.5,0|10,0:0|0:0,0:0:0:0:
464,176,77550,6,0,P|416:124|344:120,1,136.5,4|8,0:0|0:0,0:0:0:0:
276,184,78393,2,0,P|252:144|276:56,2,136.5,0|0|8,0:0|0:0|0:0,0:0:0:0:
364,232,79741,1,0,0:0:0:0:
220,272,80247,6,0,P|153:277|96:241,1,136.5,4|8,0:0|0:0,0:0:0:0:
88,140,81089,2,0,P|120:84|196:60,1,136.5,0|0,0:0|0:0,0:0:0:0:
332,80,82100,1,8,0:0:0:0:
276,164,82438,2,0,P|244:240|264:296,2,136.5,0|4|8,0:0|2:0|0:0,0:0:0:0:
196,104,83786,6,0,P|148:140|132:184,1,91,0|8,0:0|0:0,0:0:0:0:
68,240,84460,2,0,P|107:261|152:261,1,91,2|8,2:0|0:0,0:0:0:0:
252,284,85134,2,0,P|252:228|232:188,2,91,0|8|0,0:0|0:0|0:0,0:0:0:0:
152,260,86145,5,8,0:0:0:0:
144,164,86482,2,0,P|196:108|304:116,1,182
384,76,87494,2,0,P|388:128|364:176,2,91,0|2|0,0:0|0:0|0:0,0:0:0:0:
296,111,88505,6,0,B|252:139|192:115|192:115|164:159|100:151|100:151|29:225|84:291,1,364,4|4,0:0|0:0,0:0:0:0:
176,304,90190,6,0,P|224:296|272:308,1,91,8|8,0:0|0:0,0:0:0:0:
272,204,90864,1,8,0:0:0:0:
356,256,91202,2,0,P|388:268|500:252,2,136.5,8|8|8,0:0|0:0|0:0,0:0:0:0:
272,204,92550,5,4,0:0:0:0:
252,104,92887,2,0,P|200:88|152:104,2,91,8|8|8,0:0|0:0|0:0,0:0:0:0:
184,180,93898,2,0,P|112:160|80:92,2,136.5,8|8|8,0:0|0:0|0:0,0:0:0:0:
276,228,95247,5,4,0:0:0:0:
364,276,95584,2,0,P|400:284|452:272,1,91,8|8,0:0|0:0,0:0:0:0:
404,184,96258,1,8,0:0:0:0:
380,88,96595,2,0,P|316:52|240:76,2,136.5,8|4|8,0:0|0:0|0:0,0:0:0:0:
304,152,97943,5,12,0:0:0:0:
