osu file format v9

[General]
AudioFilename: SHOOT!.mp3
AudioLeadIn: 0
PreviewTime: 55925
Countdown: 0
SampleSet: Normal
StackLeniency: 0.7
Mode: 0
LetterboxInBreaks: 1

[Editor]
DistanceSpacing: 0.8
BeatDivisor: 4
GridSize: 16

[Metadata]
Title:SHOOT! (TV size)
Artist:RO-KYU-BU!
Creator:Neko
Version:Normal
Source:RO-KYU-BU!
Tags:hanazawa kana iguchi yuka hikasa youko ogura yui hidaka rina minato tomoka misawa maho nagatsuka saki kasii airi hakamada hinata

[Difficulty]
HPDrainRate:3
CircleSize:4
OverallDifficulty:3
ApproachRate:4
SliderMultiplier:1.4
SliderTickRate:2

[Events]
//Background and Video events
0,0,"BG.jpg"
Video,0,"rkb.avi"
//Break Periods
//Storyboard Layer 0 (Background)
//Storyboard Layer 1 (Fail)
//Storyboard Layer 2 (Pass)
//Storyboard Layer 3 (Foreground)
//Storyboard Sound Samples
//Background Colour Transformations
3,100,163,162,255

[TimingPoints]
500,425.531914893617,4,1,0,100,1,0
2202,-100,4,2,1,70,0,0
6031,-100,4,1,1,40,0,0
15819,-100,4,1,1,50,0,0
55287,-100,4,1,1,60,0,0
55606,-100,4,1,1,70,0,0
55928,-100,4,1,1,50,0,1
69861,-100,4,1,1,60,0,1
76244,-100,4,1,1,40,0,1
80500,-100,4,1,1,50,0,1
82202,-100,4,1,1,60,0,1
83904,-100,4,1,1,70,0,0

[Colours]
Combo1 : 150,5,130
Combo2 : 250,170,40
Combo3 : 240,110,70
Combo4 : 230,0,80

[HitObjects]
144,80,2202,2,0,B|64:208,1,140
176,272,3053,2,0,B|320:352,1,140
432,304,3904,1,0
432,304,4117,1,0
432,304,4329,1,8
432,160,4755,2,0,B|352:160,1,70
288,160,5180,1,8
160,112,5606,1,0
256,288,6031,5,0
192,192,6457,1,0
320,192,6882,1,0
256,96,7308,1,0
192,192,7734,2,0,B|240:336,1,140
352,320,8585,2,0,B|496:240,1,140,10|8
304,48,9648,6,0,B|240:112,1,70
128,192,10500,2,0,B|200:264,1,70
352,240,11351,2,0,B|424:168,1,70
384,32,12414,6,2,B|232:32|120:128,1,280
192,336,14117,2,2,B|344:336,1,140
432,336,14968,1,4
128,48,15819,6,0,B|272:120,1,140
384,192,16670,2,0,B|240:240,1,140
112,304,17521,2,0,B|16:304,2,70
384,352,18797,1,0
432,224,19223,2,2,B|288:184,1,140
368,64,20074,2,2,B|208:24,1,140
96,96,20925,2,2,B|32:240,1,140
112,336,21776,1,4
184,304,22627,6,0,B|328:304,1,140
464,224,23478,2,0,B|344:104,1,140
192,128,24329,1,0
192,272,24755,1,0
192,352,24968,1,0
48,144,25606,5,0
112,240,26031,1,8
240,272,26457,1,0
368,240,26882,1,8
400,112,27308,2,0,B|120:112,1,280
128,304,29436,5,0
256,304,29861,2,0,B|464:304,1,210
464,160,30925,2,0,B|464:240|464:232,3,70
288,64,32414,5,0
288,192,32840,1,0
288,320,33265,2,0,B|208:320,1,70
80,320,33904,1,0
32,192,34329,2,0,B|240:192,1,210
352,192,35393,1,4
64,64,36244,6,2,B|8:144|80:216,1,140
144,320,37095,2,2,B|200:264|176:192,1,140
256,64,37946,2,2,B|360:64|400:112|392:192,1,210
392,183,38797,1,0
208,64,39223,5,0
144,144,39648,1,0
176,224,40074,2,8,B|256:224,1,70
176,304,40712,2,0,B|328:304,1,140
416,304,41563,2,8,B|496:304,1,70
480,160,42202,6,0,B|320:120,1,140
256,224,43053,1,0
160,144,43478,1,0
256,64,43904,2,0,B|336:64,1,70
416,176,44542,2,0,B|280:264,1,140
256,288,45180,2,0,B|176:288,1,70
192,64,46244,6,0,B|112:64,1,70
64,128,46882,1,0
64,208,47308,2,0,B|272:208,1,210
320,208,48159,1,0
368,208,48372,2,0,B|416:208|448:176|448:96|400:48|352:48,1,210
80,112,49861,6,0,B|208:144|208:144|208:224,1,210
208,224,50712,1,8
360,335,51563,2,0,B|440:223|440:223|416:143,1,210
419,153,52414,1,8
256,112,52840,5,0
112,288,53265,2,10,B|256:288,1,140
400,96,54117,2,10,B|248:96,1,140
96,256,54968,1,0
256,256,55287,1,0
416,256,55606,1,4
448,48,56244,6,0,B|448:200,1,140
352,192,57095,2,0,B|352:344,1,140
256,352,57946,1,0
144,352,58372,2,2,B|144:144,1,210
144,96,59223,1,0
448,208,59648,5,0
432,176,59861,1,0
416,144,60074,2,2,B|216:80,1,210
160,144,61138,1,0
160,176,61351,1,8
160,208,61563,1,0
160,240,61776,2,0,B|240:368,1,140
304,304,62627,1,8
272,80,63053,5,0
304,192,63478,1,0
400,96,63904,1,0
432,208,64329,1,0
432,320,64755,1,0
376,320,64968,1,0
320,320,65180,2,0,B|176:320,1,140
48,320,66031,5,8
160,192,66457,1,0
288,96,66882,2,2,B|376:144|360:216,1,140
224,304,67734,2,2,B|128:256|160:184,1,140
144,48,68585,1,0
304,48,69010,1,0
464,48,69436,1,4
320,272,69861,6,0,B|160:272,1,140
144,112,70712,2,0,B|288:112,1,140
144,224,71563,1,0
288,288,71989,1,0
432,288,72414,1,0
480,224,72627,1,0
80,112,73265,6,2,B|240:112,1,140
32,272,74117,2,2,B|184:272,1,140
432,320,74968,1,0
432,192,75180,1,0
432,64,75393,1,4
320,48,76244,6,0,B|176:96,1,140
320,176,77095,2,0,B|168:232,1,140
320,304,77946,2,0,B|184:360,1,140
112,240,78797,1,0
240,192,79223,2,0,B|352:192,1,105
448,336,80074,1,0
64,64,80500,6,8,B|160:64,1,70
208,64,80925,1,0
176,192,81351,1,8
256,192,81563,1,8
336,192,81776,1,8
256,192,82202,12,4,83904
