osu file format v9

[General]
AudioFilename: SHOOT!.mp3
AudioLeadIn: 0
PreviewTime: 56244
Countdown: 0
SampleSet: Normal
StackLeniency: 0.7
Mode: 0
LetterboxInBreaks: 1

[Editor]
DistanceSpacing: 0.8
BeatDivisor: 4
GridSize: 8

[Metadata]
Title:SHOOT! (TV size)
Artist:RO-KYU-BU!
Creator:Neko
Version:Insane
Source:RO-KYU-BU!
Tags:hanazawa kana iguchi yuka hikasa youko ogura yui hidaka rina minato tomoka misawa maho nagatsuka saki kasii airi hakamada hinata

[Difficulty]
HPDrainRate:8
CircleSize:4
OverallDifficulty:8
ApproachRate:8
SliderMultiplier:1.9
SliderTickRate:2

[Events]
//Background and Video events
0,0,"BG.jpg"
Video,0,"rkb.avi"
//Break Periods
//Storyboard Layer 0 (Background)
//Storyboard Layer 1 (Fail)
//Storyboard Layer 2 (Pass)
//Storyboard Layer 3 (Foreground)
//Storyboard Sound Samples
//Background Colour Transformations
3,100,163,162,255

[TimingPoints]
500,425.531914893617,4,1,0,100,1,0
2202,-100,4,2,1,50,0,0
6031,-100,4,1,1,40,0,0
15819,-100,4,1,1,30,0,0
22627,-100,4,1,1,40,0,0
24542,-66.6666666666667,4,1,1,40,0,0
25606,-100,4,1,1,40,0,0
37308,-66.6666666666667,4,1,1,40,0,0
39648,-100,4,1,1,40,0,0
42202,-66.6666666666667,4,2,1,40,0,0
45606,-100,4,2,1,40,0,0
47308,-100,4,2,1,40,0,0
49861,-100,4,2,1,50,0,0
54964,-100,4,1,1,30,0,0
56244,-66.6666666666667,4,1,1,40,0,1
72734,-50,4,1,1,40,0,1
73265,-66.6666666666667,4,2,1,50,0,1
76244,-66.6666666666667,4,1,1,40,0,1
77946,-100,4,1,1,50,0,1
80500,-100,4,1,1,60,0,1
81360,-100,4,1,1,70,0,1
81989,-50,4,1,1,80,0,1
83904,-66.6666666666667,4,1,1,70,0,0

[Colours]
Combo1 : 150,5,130
Combo2 : 250,170,40
Combo3 : 240,110,70
Combo4 : 230,0,80

[HitObjects]
104,224,2202,2,0,B|104:336|240:336,1,190
408,160,3053,2,0,B|408:48|280:48,1,190
464,336,3904,2,0,B|352:336,1,95
328,336,4223,1,0
288,336,4329,1,8
48,48,4755,2,0,B|152:48,1,95
184,48,5074,1,0
224,48,5180,1,8
256,192,5606,1,0
256,32,6031,5,0
32,192,6457,1,0
480,200,6882,1,0
256,352,7308,1,0
256,352,7521,1,0
96,224,7734,2,0,B|192:128,1,95
256,112,8159,1,0
352,160,8372,2,0,B|432:256,1,95
416,352,9010,5,8
416,352,9117,1,0
256,352,9329,1,8
256,352,9436,1,0
112,256,9648,2,0,B|208:160,1,95
448,40,10074,5,8
352,160,10287,1,8
448,256,10500,1,0
344,352,10712,1,8
328,336,10818,1,8
312,320,10925,2,0,B|216:224,1,95
56,80,11351,5,8
80,104,11457,1,0
56,128,11563,1,8
80,160,11670,1,0
56,184,11776,1,8
80,216,11882,1,0
56,232,11989,1,8
32,352,12414,5,8
216,224,12627,1,0
216,352,12840,1,8
376,224,13053,1,0
480,336,13265,1,8
480,304,13372,1,8
480,272,13478,1,0
480,240,13585,1,0
480,208,13691,1,8
472,48,13904,5,0
440,48,14010,1,0
408,48,14117,2,8,B|180:48,1,190
48,120,14968,1,0
48,160,15074,1,0
48,200,15180,1,0
48,240,15287,1,0
48,280,15393,1,4
464,32,15819,6,0,B|352:32,1,95
288,160,16244,1,0
216,32,16457,1,0
480,160,16670,2,0,B|384:256,1,95
256,192,17095,1,0
336,336,17308,1,0
336,336,17414,1,0
336,336,17521,1,0
176,336,17734,1,0
176,336,17840,1,0
176,336,17946,1,0
32,208,18372,5,8
192,48,18585,1,8
32,48,18797,1,8
160,168,19010,1,8
352,32,19223,6,2,B|448:128,1,95
352,192,19648,1,0
480,192,19861,1,0
416,352,20074,2,2,B|320:256,1,95
256,352,20499,1,0
160,288,20712,2,2,B|64:384,1,95
32,192,21138,1,0
208,48,21351,5,0
256,48,21457,1,0
304,48,21563,1,0
416,48,21776,1,8
448,240,21989,1,8
496,128,22202,1,8
352,176,22414,1,8
448,352,22627,5,0
448,192,22840,1,0
320,272,23053,2,0,B|216:272,1,95
32,272,23478,1,0
160,184,23691,1,0
32,88,23904,1,0
200,32,24117,1,0
200,32,24223,1,0
200,32,24329,1,0
256,192,24542,2,0,B|256:344,1,142.499995753169
256,336,24968,1,0
432,224,25180,2,8,B|432:304,2,71.2499978765846
369,52,25606,6,0,B|321:68|321:68|321:68|321:68|321:68|321:68|321:212,1,190
200,320,26244,1,0
200,192,26457,1,0
328,320,26670,1,0
48,320,27095,1,0
48,128,27521,2,0,B|112:128,6,47.5
256,40,28585,1,8
256,40,28691,1,0
416,112,28904,1,8
416,112,29010,1,0
464,336,29436,6,0,B|400:240,1,95
288,336,29861,2,0,B|240:256,1,95
96,336,30287,2,0,B|48:256,1,95
32,64,30925,1,0
72,64,31031,1,0
120,64,31138,1,0
176,160,31351,1,0
232,64,31563,2,2,B|312:160,1,95
480,224,31989,2,2,B|400:144,1,95
464,48,32414,5,0
336,160,32627,1,0
256,32,32840,1,0
96,64,33265,2,0,B|40:136|40:136|64:240,1,190
112,336,33904,2,0,B|224:336,1,95
256,144,34329,2,0,B|256:280,1,95
256,304,34755,1,0
448,336,34968,2,0,B|432:320|432:320|464:320|464:320|448:304|448:304|448:176,1,190
448,160,35499,1,0
448,128,35606,1,8
448,96,35712,1,0
448,64,35819,1,4
32,48,36244,5,0
112,208,36457,1,0
192,48,36670,1,0
256,192,36882,1,0
368,80,37095,1,0
456,336,37308,2,0,B|304:336,1,142.499995753169
224,336,37734,1,0
128,336,37946,1,0
48,192,38159,2,0,B|192:192,1,142.499995753169
222,192,38478,1,0
256,192,38585,1,0
288,192,38691,1,0
320,192,38797,1,0
64,48,39223,5,0
176,48,39436,1,0
288,48,39648,2,2,B|408:144|248:224,1,190
290,201,40287,1,0
224,128,40499,2,2,B|128:208|232:288,1,190
228,285,41138,1,0
256,40,41351,1,0
32,192,41563,1,0
472,192,41776,1,0
64,48,42202,5,0
64,336,42627,1,0
160,224,43053,2,0,B|248:264|304:224,1,142.499995753169
256,112,43478,2,0,B|336:80|408:128,1,142.499995753169
432,256,43904,1,0
432,288,44010,1,0
432,320,44117,1,0
320,320,44329,1,0
32,112,44542,6,0,B|96:64|96:64|144:112,1,142.499995753169
95,230,44968,2,0,B|143:278|143:278|223:230,1,142.499995753169
256,128,45393,1,0
352,224,45606,1,0
400,104,45819,2,0,B|304:8,1,95
32,64,46244,1,0
112,64,46457,1,0
256,136,46882,1,0
128,320,47308,6,0,B|224:224,1,95
384,64,47734,2,0,B|288:160,1,95
384,320,48159,2,0,B|296:232,1,95
128,64,48585,2,0,B|224:160,1,95
40,192,49223,1,8
472,192,49436,1,12
48,336,49861,6,0,B|248:336,1,190
320,336,50499,1,0
368,336,50606,1,0
416,336,50712,1,0
288,160,50925,1,8
448,208,51138,1,8
400,48,51351,2,0,B|280:48,1,95
208,208,51776,1,0
64,32,51989,2,0,B|48:144|48:144|128:192,1,190
256,248,52840,5,0
416,192,53265,2,2,B|464:56,1,142.5
368,48,53904,1,0
48,160,54117,2,2,B|136:288,1,142.5
224,288,54755,1,0
32,192,54968,1,8
480,192,55287,1,8
256,192,55606,1,12
96,48,56670,5,0
96,48,56776,1,0
96,48,56882,1,0
256,64,57096,1,0
400,128,57308,1,0
400,128,57415,1,0
400,128,57521,1,0
400,344,57734,6,0,B|264:296,1,142.499995753169
192,352,58159,1,0
32,336,58372,1,8
32,304,58478,1,0
32,272,58585,1,8
32,160,58797,2,0,B|176:160,1,142.499995753169
256,160,59223,1,8
256,160,59329,1,0
256,160,59436,1,8
464,64,59648,6,0,B|416:200,1,142.499995753169
304,64,60074,2,0,B|240:64,5,52.4999984353781
304,192,60712,1,0
304,240,60819,1,0
80,304,61138,5,0
112,304,61244,1,0
144,304,61351,1,0
320,192,61563,1,0
432,304,61776,1,0
480,152,61989,1,0
256,48,62202,2,2,B|216:88|216:88|264:232,1,142.499995753169
304,336,62627,2,2,B|160:336,1,142.499995753169
96,112,63053,5,0
32,224,63265,1,0
96,336,63478,2,0,B|232:272,1,142.499995753169
224,144,63904,1,0
256,144,64010,1,8
400,144,64223,1,0
432,144,64329,1,8
464,336,64542,6,0,B|304:336,1,142.499995753169
256,256,64968,1,0
112,336,65180,2,0,B|48:272|32:192|40:64,1,284.999991506338
40,70,65819,1,0
40,70,65925,1,0
256,48,66457,5,0
352,48,66670,1,0
448,48,66882,2,2,B|512:112|512:192|448:256|336:304,1,284.999991506338
256,304,67521,1,0
112,272,67734,2,2,B|64:240|48:176|48:112|80:64|160:32,1,284.999991506338
256,96,68372,1,0
448,160,68585,5,0
256,240,68797,1,0
368,336,69010,1,0
128,336,69223,1,0
32,232,69436,1,0
32,184,69542,1,0
32,136,69648,1,4
176,40,69861,6,0,B|320:40,1,142.499995753169
464,64,70287,1,0
464,96,70393,1,0
464,128,70500,1,0
464,160,70606,1,0
464,192,70712,1,0
464,272,70925,2,0,B|464:344,1,71.2499978765846
256,336,71351,6,0,B|256:280,5,52.4999984353781
48,336,71989,2,0,B|48:192,1,142.499995753169
48,128,72414,1,0
48,128,72521,1,0
176,128,72734,2,0,B|224:64|304:72,1,95
384,336,73265,5,0
256,224,73478,1,0
128,336,73691,1,0
32,112,74117,1,0
184,48,74542,1,0
288,48,74755,2,0,B|392:40|432:152,1,142.499995753169
448,224,75180,1,0
448,256,75287,1,4
64,64,76244,6,0,B|312:208,1,284.999991506338
40,192,77095,1,0
40,192,77202,1,0
40,192,77308,1,0
104,312,77521,1,0
256,352,77946,2,0,B|256:208,1,142.5
472,192,78585,1,0
256,32,78797,5,0
40,192,79223,1,0
256,336,79648,1,0
256,264,79861,1,0
256,192,80074,1,0
256,64,80500,5,0
256,304,80712,1,0
128,192,80925,1,0
384,192,81138,1,0
256,64,81351,5,0
128,192,81563,1,0
384,192,81776,1,0
256,144,81989,2,0,B|256:240,1,95
256,192,82202,12,4,83904
