osu file format v9

[General]
AudioFilename: SHOOT!.mp3
AudioLeadIn: 0
PreviewTime: 56244
Countdown: 0
SampleSet: Normal
StackLeniency: 0.7
Mode: 0
LetterboxInBreaks: 1

[Editor]
DistanceSpacing: 0.8
BeatDivisor: 4
GridSize: 16

[Metadata]
Title:SHOOT! (TV size)
Artist:RO-KYU-BU!
Creator:Neko
Version:Hard
Source:RO-KYU-BU!
Tags:hanazawa kana iguchi yuka hikasa youko ogura yui hidaka rina minato tomoka misawa maho nagatsuka saki kasii airi hakamada hinata

[Difficulty]
HPDrainRate:5
CircleSize:4
OverallDifficulty:5
ApproachRate:7
SliderMultiplier:1.9
SliderTickRate:1

[Events]
//Background and Video events
0,0,"BG.jpg"
Video,0,"rkb.avi"
//Break Periods
//Storyboard Layer 0 (Background)
//Storyboard Layer 1 (Fail)
//Storyboard Layer 2 (Pass)
//Storyboard Layer 3 (Foreground)
//Storyboard Sound Samples
//Background Colour Transformations
3,100,163,162,255

[TimingPoints]
500,425.531914893617,4,1,0,100,1,0
2202,-100,4,2,1,50,0,0
8585,-100,4,1,1,40,0,0
22627,-100,4,1,1,50,0,0
29436,-100,4,1,1,40,0,0
42202,-100,4,2,1,50,0,0
49861,-100,4,1,1,60,0,0
54964,-100,4,1,1,60,0,0
55287,-100,4,1,1,70,0,0
55606,-100,4,1,1,80,0,0
56244,-100,4,1,1,60,0,1
66457,-100,4,2,1,70,0,1
68585,-100,4,1,1,40,0,1
68797,-100,4,1,1,50,0,1
73265,-100,4,2,1,70,0,1
76244,-100,4,1,1,50,0,1
80500,-200,4,1,1,60,0,1
81351,-100,4,1,1,80,0,1
83904,-200,4,1,1,80,0,0

[Colours]
Combo1 : 150,5,130
Combo2 : 250,170,40
Combo3 : 240,110,70
Combo4 : 230,0,80

[HitObjects]
416,64,2202,2,0,B|288:64,1,95
288,64,2521,1,0
256,64,2627,1,8
288,160,3053,2,0,B|160:160,1,95
160,160,3372,1,0
128,160,3478,1,8
48,240,3904,2,0,B|48:304,4,47.5
192,288,4755,2,8,B|288:288,1,95
400,288,5180,1,8
464,192,5606,1,4
256,64,6031,6,0,B|256:176,1,95
48,64,6457,1,0
128,160,6670,1,0
64,272,6882,2,0,B|144:352,1,95
256,256,7308,1,0
256,208,7521,1,0
256,160,7734,2,10,B|256:64,2,95
32,80,8585,6,0,B|160:80,1,95
64,192,9010,1,8
144,192,9223,1,0
224,192,9436,1,0
288,96,9648,2,2,B|416:96,1,95
464,96,10074,1,8
464,96,10180,1,8
464,96,10286,1,8
320,192,10500,5,0
192,192,10712,1,8
64,288,10925,2,2,B|112:304|112:304|176:288,1,95
288,304,11351,1,0
320,304,11457,1,0
352,304,11563,1,0
384,304,11670,1,0
416,304,11776,2,8,B|496:224,1,95
480,128,12414,6,0,B|400:48,1,95
352,16,12840,2,0,B|272:96,1,95
224,144,13265,2,0,B|128:48,1,95
112,16,13691,2,0,B|32:96,1,95
0,128,14117,1,0
192,320,14542,1,0
256,320,14755,2,0,B|352:320,1,95
464,320,15180,2,8,B|464:256,2,47.5
432,160,15819,5,0
288,160,16244,2,0,B|216:88,1,95
112,96,16882,1,0
112,240,17308,1,0
256,304,17734,2,0,B|256:192,1,95
256,32,18372,1,0
352,80,18585,1,0
448,128,18797,1,0
496,224,19010,6,0,B|424:296,1,95
352,336,19436,1,0
256,336,19648,1,0
160,336,19861,1,0
80,192,20287,1,0
256,48,20712,1,0
432,192,21138,1,0
336,192,21351,1,0
304,192,21457,1,0
272,192,21563,1,0
176,192,21776,2,10,B|80:192,3,95
160,32,22627,6,0,B|80:112,1,95
16,192,23053,1,0
112,272,23265,2,0,B|192:320|192:320|288:288,1,190
432,272,24117,1,0
432,272,24329,2,0,B|352:160,1,95
448,32,24755,2,0,B|368:96,1,95
256,96,25180,1,8
208,192,25393,1,0
128,96,25606,1,8
80,192,25819,1,0
32,336,26031,6,0,B|160:336,1,95
192,240,26457,1,0
256,336,26670,1,0
368,336,27095,2,0,B|464:336,1,95
464,336,27521,1,0
464,192,27946,1,0
464,112,28159,1,4
208,160,29436,6,2,B|96:96,1,95
48,160,29861,2,0,B|48:256,1,95
128,288,30287,2,2,B|224:336,1,95
368,288,30925,1,8
368,288,31031,1,0
368,288,31138,1,8
432,192,31563,1,4
144,80,32414,5,0
66,170,32627,1,0
96,272,32840,2,2,B|152:344|224:360|296:344|360:256,1,285
416,192,33904,1,0
480,112,34329,1,0
368,64,34755,2,0,B|272:32,1,95
160,48,35393,1,8
256,176,35606,1,0
256,80,35819,1,8
144,144,36031,1,0
32,128,36244,6,0,B|32:224,1,95
32,336,36670,1,0
128,336,36882,2,0,B|208:256,1,95
256,224,37308,1,0
320,272,37521,2,0,B|392:344,1,95
464,288,37946,2,0,B|464:192,1,95
464,128,38372,1,0
464,64,38585,1,0
256,48,39223,5,0
192,80,39436,1,0
128,112,39648,1,0
256,160,40074,2,0,B|256:280,1,95
256,352,40712,1,0
320,352,40925,1,0
384,352,41138,1,0
128,320,41563,1,0
96,320,41670,1,0
64,320,41776,1,4
176,48,42202,6,0,B|56:208,1,190
16,336,43053,2,2,B|144:336,1,95
192,288,43478,2,2,B|256:208,1,95
352,336,43904,1,0
416,336,44117,1,0
480,224,44542,2,2,B|320:112,1,190
272,80,45180,1,0
224,48,45393,1,0
144,48,46244,5,0
80,48,46457,1,0
32,128,46882,1,0
96,208,47308,2,8,B|0:304,1,95
96,352,47734,1,0
160,272,47946,1,8
224,352,48159,1,0
304,272,48372,1,8
416,304,48585,1,8
496,224,48797,1,12
256,160,49223,1,0
256,96,49436,1,0
464,32,49861,5,0
384,96,50074,1,0
464,160,50287,1,0
416,256,50499,1,0
352,256,50712,2,2,B|128:256,1,190
112,208,51351,1,0
96,144,51563,2,0,B|200:144,1,95
256,144,51989,2,0,B|368:144,1,95
416,144,52414,1,0
416,64,52840,5,0
416,224,53265,2,2,B|240:352,1,190
217,337,53904,1,0
176,336,54117,1,0
80,336,54542,1,0
256,128,54968,2,0,B|256:80,1,47.5
192,192,55287,2,0,B|144:192,1,47.5
320,192,55606,2,0,B|368:192,1,47.5
48,64,56670,5,0
64,176,56882,1,0
160,112,57095,1,0
192,208,57308,1,0
192,208,57414,1,0
80,320,57734,5,0
80,320,57946,1,0
192,320,58159,1,0
304,320,58372,2,2,B|416:160,1,190
304,160,59010,2,0,B|232:160,1,47.5
192,224,59648,6,0,B|104:224,4,47.5
96,144,60499,2,0,B|-8:80,1,95
160,64,61138,1,0
240,48,61351,1,0
320,32,61563,1,0
416,48,61776,2,2,B|416:168,1,95
416,224,62202,1,0
416,304,62414,1,0
416,336,62521,1,0
128,144,63053,6,0,B|224:88,1,95
320,96,63478,2,0,B|400:168,1,95
320,320,63904,2,0,B|408:248,1,95
393,261,64223,1,0
208,240,64542,2,0,B|112:240,2,95
112,112,65180,2,2,B|304:72,1,190
400,64,65819,2,0,B|448:64,1,47.5
80,336,66457,5,0
160,336,66670,1,0
240,336,66882,1,8
80,224,67308,5,0
160,224,67521,1,0
240,224,67734,1,8
80,64,68159,5,0
160,80,68372,1,0
240,96,68585,1,0
320,112,68797,1,0
400,112,69010,2,0,B|448:112,4,47.5
32,224,69861,6,0,B|128:232,1,95
208,256,70287,1,0
208,256,70500,1,0
288,256,70712,1,0
368,256,70925,1,0
368,256,71031,1,0
368,160,71351,6,2,B|280:80,1,95
192,64,71776,2,2,B|104:152,1,95
80,224,72414,1,0
80,336,72627,1,0
80,336,72734,1,0
256,328,73265,5,0
320,272,73478,2,0,B|408:184,1,95
304,152,74117,2,0,B|88:152,1,190
432,160,74968,2,0,B|432:272,1,95
432,280,75287,1,0
432,304,75393,1,4
256,64,76244,5,0
256,320,76670,1,0
432,192,77095,2,2,B|320:192,1,95
80,192,77521,2,2,B|200:192,1,95
368,80,77946,2,0,B|288:32|288:32|240:96,1,142.5
160,192,78585,1,0
112,272,78797,5,0
224,304,79223,1,0
352,304,79648,1,0
416,272,79861,1,0
480,240,80074,1,0
256,288,80500,5,0
160,192,80712,1,0
352,192,80925,1,0
256,96,81138,1,0
256,192,81351,2,0,B|256:272,6,47.5
256,192,82202,12,4,83904
