osu file format v9

[General]
AudioFilename: RO-KYU-BU OP-SHOOT!.mp3
AudioLeadIn: 1996
PreviewTime: 56430
Countdown: 0
SampleSet: Normal
StackLeniency: 0.6
Mode: 0
LetterboxInBreaks: 1

[Editor]
DistanceSpacing: 1.5
BeatDivisor: 4
GridSize: 8

[Metadata]
Title:SHOOT! (TV Size)
Artist:RO-KYU-BU!
Creator:Kawayi Rika
Version:SHOOT!
Source:RO-KYU-BU!
Tags:S_o_r_d_a sorda OzzyOzrock maho tomoka airi hinata saki opening

[Difficulty]
HPDrainRate:5
CircleSize:4
OverallDifficulty:7
ApproachRate:8
SliderMultiplier:1.7
SliderTickRate:1

[Events]
//Background and Video events
Video,0,"RO-KYU-BU OP-SHOOT!.avi"
0,0,"RO-KYU-BU.jpg"
//Break Periods
//Storyboard Layer 0 (Background)
//Storyboard Layer 1 (Fail)
//Storyboard Layer 2 (Pass)
//Storyboard Layer 3 (Foreground)
//Storyboard Sound Samples
//Background Colour Transformations
3,100,163,162,255

[TimingPoints]
686,425.531914893617,4,1,0,100,1,0
2388,-100,4,1,0,80,0,0
16005,-100,4,2,2,70,0,0
29622,-100,4,1,1,75,0,0
42388,-100,4,1,1,80,0,0
55154,-100,4,1,1,90,0,0
55792,-100,4,1,1,90,0,0
56430,-100,4,1,1,70,0,0
56856,-80,4,1,1,70,0,1
63239,-80,4,1,1,75,0,1
70047,-80,4,1,1,80,0,1
76430,-80,4,1,1,85,0,1
80686,-80,4,1,1,90,0,1
84090,-80,4,1,1,95,0,0

[Colours]
Combo1 : 235,190,216
Combo2 : 255,185,53
Combo3 : 244,123,123

[HitObjects]
256,192,685,12,4,1962
295,82,2388,6,0,B|208:48|144:128,1,170,4|8
373,263,3239,2,0,B|408:176|328:112,1,170,0|8
192,341,4090,2,0,B|280:376|344:296,1,170,0|8
114,160,4941,2,0,B|80:248|160:312,1,170,0|8
256,192,5792,1,0
360,80,6217,6,0,B|424:24|424:24|488:80,2,170,8|0|8
360,232,7494,1,0
360,232,7707,1,0
296,192,7920,2,0,B|248:160|200:208,2,85,8|0|0
360,232,8558,2,0,B|384:271|360:311,2,85,0|8|0
360,152,9196,1,4
256,64,9622,6,0,B|144:64,1,85,8|0
128,128,10047,1,0
80,192,10260,2,0,B|59:233|83:273,1,85,0|8
160,272,10686,1,0
208,208,10898,6,0,B|298:179|362:251,1,170,0|8
416,192,11537,1,0
440,264,11749,1,0
488,208,11962,1,0
488,208,12068,1,0
488,208,12175,1,8
488,56,12600,6,0,B|384:56,1,85,0|0
368,120,13026,1,8
344,192,13239,1,0
296,136,13451,2,0,B|112:136,1,170,0|8
128,136,14090,5,0
72,296,14303,1,0
240,296,14515,1,0
376,192,14728,1,8
240,88,14941,1,0
408,88,15154,1,0
432,112,15260,1,0
456,136,15366,1,0
480,160,15473,1,0
504,184,15579,1,4
160,192,16005,5,4
96,240,16217,1,0
96,320,16430,1,2
32,280,16643,1,0
32,200,16856,1,0
96,152,17068,1,0
160,192,17281,1,2
168,272,17494,1,0
248,272,17707,1,0
304,224,17920,2,0,B|376:168,1,85,0|2
432,120,18345,1,0
304,120,18558,5,8
176,120,18771,1,8
176,248,18983,1,8
304,248,19196,1,8
368,120,19409,6,0,B|453:120,1,85,0|0
488,192,19834,1,2
456,264,20047,1,0
384,296,20260,1,0
312,264,20473,1,0
280,192,20685,1,2
200,192,20898,1,0
128,160,21111,1,0
96,88,21324,1,0
168,56,21537,2,0,B|208:31|248:55,1,85,2|0
376,48,21962,5,8
464,136,22175,1,8
376,232,22388,1,8
288,136,22600,1,8
176,200,22813,5,4
128,256,23026,1,0
72,208,23239,1,2
120,152,23451,1,0
120,72,23664,1,0
120,72,23877,1,0
120,72,24090,1,2
232,64,24303,2,0,B|280:80|304:136,1,85
256,184,24728,1,0
256,264,24941,1,2
184,232,25154,1,0
88,96,25366,5,8
256,96,25579,1,8
88,96,25792,1,8
256,96,26005,1,8
424,96,26217,5,4
384,160,26430,1,0
320,200,26643,1,2
256,160,26856,1,0
184,128,27068,2,0,B|163:85|127:67,2,85,0|0|2
192,208,27707,2,0,B|221:244|262:251,1,85,0|4
320,200,28132,1,0
400,200,28345,1,2
360,136,28558,1,0
256,56,28771,5,0
256,96,28877,1,0
256,136,28983,1,0
256,176,29090,1,0
256,216,29196,1,0
120,304,29622,5,0
120,304,29728,1,0
120,304,29834,1,0
88,224,30047,1,8
120,144,30260,1,0
192,96,30473,1,0
272,64,30685,2,0,B|314:71|335:115,1,85,0|8
336,200,31111,1,0
256,232,31324,1,0
216,232,31430,1,0
176,232,31537,1,0
96,200,31749,2,0,B|156:109|169:190|224:85,1,170,8|0
472,320,32600,5,8
472,320,32707,1,0
472,320,32813,1,0
472,232,33026,2,0,B|387:232,1,85
344,160,33451,2,0,B|283:99,1,85,8|0
200,104,33877,2,0,B|200:224,1,85
128,232,34303,1,8
200,272,34515,1,0
272,232,34728,5,0
360,232,34941,1,0
320,160,35154,1,8
320,72,35366,1,0
392,120,35579,1,0
480,120,35792,1,0
480,160,35898,1,0
480,200,36005,1,8
200,56,36430,5,0
168,80,36537,1,0
136,104,36643,2,0,B|72:159,1,85,0|8
48,240,37068,1,0
120,288,37281,1,0
192,240,37494,1,0
264,192,37707,2,0,B|304:128|360:128|400:200,2,170,8|0|8
192,144,38771,1,0
192,144,38877,1,0
192,144,38983,1,0
336,48,39409,5,8
384,120,39622,1,0
296,120,39834,2,0,B|264:160|280:216,2,85,0|0|8
256,48,40473,2,0,B|171:48,2,85
208,120,41111,1,8
168,192,41324,1,0
120,264,41537,1,0
96,232,41643,1,0
72,200,41749,1,0
24,128,41962,1,8
256,240,42388,5,4
480,128,42813,1,4
256,8,43239,1,0
224,128,43451,1,0
224,128,43558,1,0
224,128,43664,1,0
480,128,44090,1,0
480,128,44303,1,0
256,248,44728,5,0
216,248,44834,1,0
176,248,44941,1,0
112,192,45154,1,0
176,136,45366,1,8
240,80,45579,2,0,B|288:56|336:80,1,85,0|0
384,128,46005,1,0
384,168,46111,1,0
384,208,46217,1,8
256,320,46643,5,0
184,272,46856,1,0
184,272,46962,1,0
184,272,47068,1,8
256,224,47281,2,0,B|323:156,1,85,0|0
256,104,47707,1,0
256,104,47920,1,8
192,160,48132,2,0,B|158:186|138:156|104:183,1,85,0|0
48,232,48558,1,0
48,320,48771,1,8
136,320,48983,1,0
208,272,49196,1,0
208,272,49303,1,0
208,272,49409,1,0
136,232,49622,1,8
360,144,50047,5,0
440,104,50260,1,0
440,192,50473,1,8
440,280,50686,1,0
352,280,50898,2,0,B|313:203,2,85,0|0|8
272,320,51537,1,0
200,272,51749,5,0
232,192,51962,2,0,B|168:120,1,85,0|8
240,72,52388,1,0
328,72,52600,2,0,B|413:72,1,85,0|0
464,144,53026,1,8
464,232,53239,1,0
392,184,53451,2,0,B|352:216|296:176,2,85,0|0|8
352,112,54090,1,0
264,112,54303,2,0,B|256:63|206:57,2,85,0|0|8
224,192,54941,1,0
72,192,55154,5,4
224,72,55473,1,4
376,192,55792,1,4
416,72,56430,5,0
416,72,56537,1,0
416,72,56643,1,0
336,128,56856,2,0,B|296:200|360:256,2,106.249998416752,4|0|0
328,32,57494,2,0,B|272:8|224:20,1,106.249998416752,0|2
224,112,57920,2,0,B|175:123|119:99,1,106.249998416752
64,24,58345,1,0
32,112,58558,1,2
32,208,58771,2,0,B|152:208,1,106.249998416752
232,208,59196,2,0,B|296:208,2,53.1249992083758,0|0|2
168,32,59834,6,0,B|88:120,1,106.249998416752
48,192,60260,1,2
144,192,60473,2,0,B|64:280,2,106.249998416752
208,128,61111,1,2
304,128,61324,2,0,B|357:128,2,53.1249992083758
256,208,61749,2,0,B|256:336,1,106.249998416752,0|2
344,264,62175,1,0
424,208,62388,1,0
424,304,62600,1,0
424,304,62707,1,0
424,304,62813,1,2
232,296,63239,5,0
184,216,63451,1,0
280,216,63664,2,0,B|285:176|336:170|342:119,2,106.249998416752,2|0|0
232,136,64303,1,0
184,48,64515,1,2
88,64,64728,1,0
104,160,64941,1,0
184,208,65154,2,0,B|248:232|320:200,1,106.249998416752,0|2
328,120,65579,2,0,B|384:104|432:123,2,106.249998416752
328,120,66111,1,0
328,120,66217,1,2
152,48,66643,5,0
96,120,66856,1,0
40,192,67068,2,0,B|144:272|272:176,1,212.499996833503,2|0
208,104,67707,1,0
304,104,67920,2,0,B|397:30|498:108,1,212.499996833503,2|0
496,208,68558,1,0
416,160,68771,2,0,B|203:160,1,212.499996833503,2|0
120,208,69409,1,0
120,112,69622,1,2
120,112,69728,1,0
120,112,69834,1,0
208,80,70047,5,0
208,80,70154,1,0
208,80,70260,1,0
208,176,70473,1,4
288,128,70686,1,0
288,224,70898,1,0
368,176,71111,2,0,B|416:208|425:263,1,106.249998416752,0|2
336,280,71537,2,0,B|224:336,1,106.249998416752
160,280,71962,1,0
104,208,72175,1,2
200,208,72388,2,0,B|200:96,1,106.249998416752
104,104,72813,2,0,B|48:64,2,53.1249992083758,0|0|2
280,32,73451,6,0,B|424:32,1,106.249998416752
392,128,73877,2,0,B|536:128,1,106.249998416752,2|0
448,208,74303,1,0
352,208,74515,1,0
352,304,74728,2,0,B|216:304,1,106.249998416752,2|0
192,224,75154,1,0
144,304,75366,1,0
96,224,75579,2,0,B|56:168,4,53.1249992083758,0|0|0|0|0
24,48,76430,6,0,B|128:16|248:24,1,212.499996833503,2|0
72,120,77281,1,2
168,120,77494,1,0
256,72,77707,1,0
256,264,78132,2,0,B|184:312|184:312|120:200,2,212.499996833503,2|0|2
328,208,79196,1,0
408,152,79409,2,0,B|408:364,1,212.499996833503,0|2
328,304,80047,1,0
328,208,80260,1,0
128,256,80685,5,2
48,200,80898,1,0
48,104,81111,1,0
128,56,81324,1,0
224,56,81537,5,2
224,152,81749,1,0
224,248,81962,2,0,B|330:248,1,106.249998416752
416,208,82388,1,2
336,152,82600,1,0
336,56,82813,2,0,B|448:56,2,106.249998416752,0|0|2
240,56,83451,5,0
160,112,83664,2,0,B|256:304,1,212.499996833503,0|4
