osu file format v9

[General]
AudioFilename: RO-KYU-BU OP-SHOOT!.mp3
AudioLeadIn: 1996
PreviewTime: 56430
Countdown: 0
SampleSet: Normal
StackLeniency: 0.6
Mode: 0
LetterboxInBreaks: 1

[Editor]
DistanceSpacing: 1.1
BeatDivisor: 4
GridSize: 8

[Metadata]
Title:SHOOT! (TV Size)
Artist:RO-KYU-BU!
Creator:Kawayi Rika
Version:HiNaTa!
Source:RO-KYU-BU!
Tags:S_o_r_d_a sorda OzzyOzrock maho tomoka airi hinata saki opening

[Difficulty]
HPDrainRate:7
CircleSize:4
OverallDifficulty:7
ApproachRate:8
SliderMultiplier:1.9
SliderTickRate:1

[Events]
//Background and Video events
Video,0,"RO-KYU-BU OP-SHOOT!.avi"
0,0,"RO-KYU-BU.jpg"
//Break Periods
//Storyboard Layer 0 (Background)
//Storyboard Layer 1 (Fail)
//Storyboard Layer 2 (Pass)
//Storyboard Layer 3 (Foreground)
//Storyboard Sound Samples
//Background Colour Transformations
3,100,163,162,255

[TimingPoints]
686,425.531914893617,4,1,0,80,1,0
16005,-100,4,2,2,60,0,0
22813,-100,4,2,2,65,0,0
26217,-100,4,2,2,70,0,0
29622,-100,4,1,1,75,0,0
36430,-100,4,1,1,80,0,0
42388,-100,4,1,1,85,0,0
50047,-100,4,1,1,90,0,0
55154,-100,4,1,1,95,0,0
55792,-100,4,1,1,95,0,0
56430,-66.6666666666667,4,1,1,80,0,0
56856,-66.6666666666667,4,1,2,80,0,1
63239,-66.6666666666667,4,1,2,85,0,1
70047,-66.6666666666667,4,1,2,90,0,1
83239,-66.6666666666667,4,1,2,95,0,1
84090,-66.6666666666667,4,1,0,100,0,0

[Colours]
Combo1 : 235,190,216
Combo2 : 255,185,53
Combo3 : 244,123,123

[HitObjects]
256,192,686,12,0,1962
40,176,2388,6,0,B|96:96,1,95,4|0
136,192,2813,2,0,B|213:246,1,95,8|0
320,264,3239,1,0
320,264,3345,1,0
320,264,3451,2,0,B|320:160,1,95,0|8
416,216,3877,1,0
320,168,4090,5,0
256,248,4303,1,0
176,320,4515,2,0,B|129:344|90:306,1,95,8|0
96,200,4941,2,0,B|125:154|177:168,1,95
256,96,5366,1,8
256,96,5473,1,0
256,96,5579,1,0
352,48,5792,5,0
384,152,6005,1,0
384,152,6111,1,0
384,152,6217,2,0,B|352:216|352:216|272:240,1,142.5,8|0
240,216,6643,1,0
176,136,6856,2,0,B|128:120|83:142,1,95,0|8
48,240,7281,1,0
152,224,7494,6,0,B|200:280|280:280,1,142.5
320,248,7920,1,8
424,256,8132,2,0,B|448:200|408:152,1,95
392,120,8451,2,0,B|335:96|287:136,1,95
264,168,8771,2,0,B|152:168,1,95,8|0
120,256,9196,5,0
40,184,9409,1,0
80,152,9515,1,0
120,120,9622,1,8
216,88,9834,2,0,B|248:61|264:93|304:61,1,95
312,168,10260,5,0
336,216,10366,1,0
360,264,10473,1,8
424,184,10686,1,0
424,80,10898,2,0,B|450:35|501:30,2,95,0|0|8
320,64,11537,1,0
288,72,11643,1,0
264,88,11749,2,0,B|232:136|168:128,1,95
112,56,12175,1,8
112,56,12281,1,0
112,56,12388,1,0
88,160,12600,6,0,B|32:160,2,47.5
152,248,13026,2,0,B|192:248|192:248|232:232|232:232|264:232,1,95,8|0
288,136,13451,2,0,B|299:136|299:136|339:120|339:120|379:120,1,95
448,200,13877,1,8
448,200,14090,1,0
376,280,14303,6,2,B|328:280,1,47.5
248,208,14622,2,2,B|295:208,1,47.5,0|2
344,112,14941,1,2
240,104,15154,2,0,B|200:128|148:121,1,95
168,88,15473,1,0
192,64,15579,1,0
224,48,15686,1,0
256,40,15792,1,0
288,40,15898,1,4
320,48,16005,6,0,B|384:48|384:48|384:48|384:48|456:152,1,190,4|2
360,192,16643,1,0
360,192,16749,1,0
360,192,16856,2,0,B|265:192,2,95,0|0|2
464,192,17494,1,0
464,192,17600,1,0
464,192,17707,2,0,B|464:288|464:288|352:288|352:288,1,190,0|2
264,288,18345,1,0
160,320,18558,5,8
8,304,18771,1,8
104,184,18983,1,10
256,200,19196,1,8
184,72,19409,6,0,B|288:72,1,95
336,160,19834,2,0,B|416:256,1,95,2|0
472,160,20260,1,0
472,160,20473,1,0
472,264,20685,2,0,B|404:331,1,95,2|0
296,336,21111,1,0
256,240,21324,1,0
152,240,21537,2,0,B|48:240,1,95,2|0
104,144,21962,5,8
40,8,22175,1,8
192,24,22388,1,10
104,144,22600,1,8
208,144,22813,5,4
208,144,22920,1,0
208,144,23026,2,0,B|280:248,1,95,0|2
368,224,23451,1,0
368,120,23664,2,0,B|456:72,1,95
360,24,24090,1,2
256,32,24303,6,0,B|256:144,1,95
152,128,24728,1,0
152,232,24941,2,0,B|40:232,1,95,2|0
88,136,25366,1,8
240,104,25579,1,8
192,248,25792,1,10
344,216,26005,1,8
416,48,26217,6,0,B|488:112|488:112|488:112|392:168|392:168,1,190,4|2
320,216,26856,1,0
320,216,27068,1,0
256,296,27281,2,0,B|160:296,1,95,0|2
160,192,27707,1,0
160,192,27813,1,0
160,192,27920,2,0,B|160:88,1,95,4|0
64,144,28345,1,2
72,248,28558,5,0
88,296,28664,1,0
136,312,28771,1,0
184,296,28877,1,0
216,256,28983,1,0
224,208,29090,1,0
216,160,29196,1,0
184,120,29303,1,0
136,112,29409,1,0
88,120,29515,1,0
96,176,29622,6,0,B|110:228|160:237,1,95
208,144,30047,1,8
208,144,30154,1,0
208,144,30260,2,0,B|320:144,1,95
376,72,30685,1,0
408,176,30898,1,8
360,280,31111,2,0,B|408:280,2,47.5
256,280,31537,2,0,B|256:160,2,95,0|8|0
256,280,32068,1,0
256,280,32175,1,0
32,192,32600,6,0,B|60:202|60:202|60:202|92:146,1,95,8|0
144,56,33026,1,0
248,56,33239,1,0
264,72,33345,1,0
280,88,33451,1,8
280,192,33664,2,0,B|392:192,1,95
328,288,34090,1,0
224,288,34303,5,8
224,288,34409,1,0
224,288,34515,2,0,B|200:152|200:152|112:152,1,190
144,48,35154,2,0,B|24:104,1,95,8|0
56,192,35579,2,0,B|56:320,1,95
56,288,35898,1,0
56,288,36005,1,8
176,128,36430,5,0
192,112,36537,1,0
208,96,36643,1,0
312,96,36856,2,0,B|344:40|408:64,1,95,8|0
392,160,37281,1,0
296,200,37494,2,0,B|370:259,1,95,0|8
272,304,37920,1,0
272,304,38026,1,0
272,304,38132,2,0,B|177:304,1,95
72,304,38558,1,8
64,200,38771,1,0
64,200,38877,1,0
64,200,38983,1,0
232,80,39409,6,0,B|280:64|328:88,1,95
344,192,39834,1,0
432,128,40047,1,0
432,232,40260,1,8
424,248,40366,1,0
416,264,40473,1,0
312,264,40685,2,0,B|208:264,2,95,0|0|8
312,264,41217,1,0
312,264,41324,1,0
312,160,41537,2,0,B|272:40|272:40|208:40,1,190,0|8
32,192,42388,6,0,B|136:192,1,95
128,88,42813,1,8
128,88,43026,1,0
232,88,43239,2,0,B|232:200,2,95,0|0|8
336,88,43877,2,0,B|433:88,1,95
432,192,44303,1,0
432,192,44409,1,0
432,192,44515,1,8
432,296,44728,6,0,B|384:312|384:312|336:256,1,95
352,176,45154,2,0,B|323:142|323:142|275:158,1,95,0|8
176,192,45579,1,0
176,192,45686,1,0
176,192,45792,2,0,B|48:192,1,95
80,296,46217,1,8
64,64,46430,6,0,B|168:64,1,95
264,64,46856,1,0
463,64,47068,2,0,B|368:64,1,95,8|0
416,160,47494,1,0
416,160,47600,1,0
416,160,47707,2,0,B|336:264,1,95,0|8
256,240,48132,6,0,B|136:240,1,95
160,136,48558,2,0,B|88:56,1,95,0|8
64,160,48983,1,0
128,240,49196,1,0
144,264,49303,1,0
160,288,49409,1,0
264,288,49622,2,0,B|368:288,1,95,8|0
208,88,50047,6,0,B|304:88,2,95,0|0|8
104,96,50686,2,0,B|104:224,1,95
208,192,51111,1,0
208,208,51217,1,0
208,224,51324,1,8
208,328,51537,2,0,B|219:385|283:367,1,95
368,304,51962,5,0
448,232,52175,2,0,B|448:120,1,95,8|0
448,32,52600,1,0
448,32,52707,1,0
448,32,52813,2,0,B|344:32,1,95,0|8
248,32,53239,2,0,B|193:24|169:72,2,95
248,136,53877,5,8
160,192,54090,1,0
152,208,54196,1,0
144,224,54303,2,0,B|256:224,2,95,0|0|8
40,224,54941,1,0
64,88,55154,5,4
256,304,55473,1,4
448,88,55792,1,4
128,104,56430,5,0
152,104,56537,1,0
176,104,56643,2,0,B|176:256,1,142.499995753169,0|4
312,168,57068,1,0
448,248,57281,2,0,B|448:80,1,142.499995753169,8|0
288,104,57707,1,0
272,104,57813,1,0
256,104,57920,2,0,B|176:104,2,71.2499978765846,0|0|8
416,104,58345,2,0,B|416:248,1,142.499995753169,0|2
256,248,58771,2,0,B|113:248,2,142.499995753169,0|8|0
416,248,59409,1,2
192,56,59834,6,0,B|32:56,1,142.499995753169,8|0
120,200,60260,1,2
120,200,60366,1,0
120,200,60473,2,0,B|144:280|232:264,1,142.499995753169,0|8
384,256,60898,2,0,B|488:256,2,71.2499978765846,0|0|0
256,160,61324,5,0
104,192,61537,1,8
208,312,61749,2,0,B|320:248,2,71.2499978765846,0|0|2
104,192,62175,2,0,B|58:226|58:226|2:162,1,142.499995753169,2|8
136,88,62600,1,0
136,88,62707,1,2
136,88,62813,2,0,B|184:24,2,71.2499978765846,0|0|0
208,168,63239,6,0,B|248:112|248:112|248:112|296:192,1,142.499995753169,8|0
440,176,63664,1,2
440,176,63771,1,0
440,176,63877,1,0
440,336,64090,2,0,B|504:272,2,71.2499978765846,8|0|0
312,248,64515,1,0
312,88,64728,5,0
152,88,64941,2,0,B|0:88,2,142.499995753169,8|0|2
232,224,65579,2,0,B|136:344,1,142.499995753169,0|8
144,336,65898,1,0
144,336,66005,1,0
144,336,66111,2,0,B|72:232,1,71.2499978765846,0|2
80,96,66643,5,8
56,224,66856,1,0
176,184,67068,2,0,B|320:184,2,142.499995753169,2|0|8
248,320,67707,1,0
408,320,67920,2,0,B|408:176,1,142.499995753169,0|0
408,16,68345,1,8
280,104,68558,2,0,B|88:104,1,142.499995753169,0|2
208,240,68983,1,8
208,80,69196,2,0,B|360:80,1,142.499995753169,8|0
88,120,69622,5,2
112,96,69728,1,0
144,96,69834,1,8
168,120,69941,1,0
184,152,70047,2,0,B|336:152,1,142.499995753169,8|0
256,16,70473,5,4
416,16,70686,1,0
416,40,70792,1,0
416,64,70898,1,8
416,224,71111,2,0,B|264:224,2,142.499995753169,0|0|0
352,376,71749,1,8
256,248,71962,1,0
320,48,72175,5,2
304,64,72281,1,0
288,80,72388,1,0
176,192,72600,2,0,B|24:192,2,142.499995753169,8|0|2
336,192,73239,5,0
336,192,73345,1,0
336,192,73451,2,0,B|496:192,1,142.499995753169,8|0
400,56,73877,1,2
240,56,74090,1,0
240,216,74303,2,0,B|144:320,2,142.499995753169,8|0|2
400,216,74941,1,2
312,88,75154,2,0,B|152:88,1,142.499995753169,8|0
168,88,75473,1,0
168,88,75579,1,2
240,224,75792,2,0,B|320:224,2,71.2499978765846,0|0|8
224,80,76430,5,0
224,80,76537,1,8
224,80,76643,2,0,B|296:80|296:80|296:152|296:152,1,142.499995753169,0|8
456,152,77068,1,0
456,312,77281,2,0,B|382:312|382:312|382:240|382:242,1,142.499995753169,6|0
256,152,77707,1,8
256,152,77813,1,0
256,152,77920,1,0
256,312,78132,2,0,B|262:309|174:349|134:269,1,142.499995753169,4|0
136,112,78558,1,8
256,16,78771,1,0
272,176,78983,6,0,B|312:104|400:112,1,142.499995753169,6|0
384,272,79409,1,8
224,272,79622,2,0,B|184:343|107:336,1,142.499995753169,0|6
112,176,80047,2,0,B|256:176,1,142.499995753169,0|8
152,56,80685,5,2
56,184,80898,1,0
208,216,81111,1,8
312,96,81324,1,0
320,272,81537,2,0,B|472:272,1,142.499995753169,2|0
464,112,81962,1,8
304,112,82175,1,0
144,112,82388,2,0,B|244:212,1,142.499995753169,2|0
352,328,82813,2,0,B|453:227,1,142.499995753169
304,168,83239,5,0
288,192,83345,1,0
272,216,83451,1,0
256,240,83558,1,0
240,216,83664,1,0
224,192,83771,1,0
208,168,83877,1,0
192,144,83983,1,0
176,120,84090,1,4
