osu file format v9

[General]
AudioFilename: SHOOT!.mp3
AudioLeadIn: 0
PreviewTime: 55872
Countdown: 0
SampleSet: Normal
StackLeniency: 0.4
Mode: 0
LetterboxInBreaks: 0

[Editor]
Bookmarks: 42245
DistanceSpacing: 0.8
BeatDivisor: 2
GridSize: 8

[Metadata]
Title:SHOOT! (TV Size)
Artist:RO-KYU-BU!
Creator:Chewin
Version:Normal
Source:RO-KYU-BU!
Tags:inaba-tan Leader Hinacle loli basket sport

[Difficulty]
HPDrainRate:3
CircleSize:4
OverallDifficulty:3
ApproachRate:4
SliderMultiplier:1.4
SliderTickRate:1

[Events]
//Background and Video events
0,0,"BG.jpg"
Video,0,"RO-KYU-BU! OP.avi"
//Break Periods
//Storyboard Layer 0 (Background)
//Storyboard Layer 1 (Fail)
//Storyboard Layer 2 (Pass)
//Storyboard Layer 3 (Foreground)
//Storyboard Sound Samples
//Background Colour Transformations
3,100,163,162,255

[TimingPoints]
2245,425.531914893617,4,1,2,80,1,0
55862,-100,4,1,0,60,0,0
56713,-100,4,1,2,90,0,1
69053,-100,4,1,2,60,0,1
70117,-100,4,1,0,90,0,0
70330,-100,4,1,2,90,0,1
78840,-100,4,1,2,90,0,1
79266,-100,4,1,2,90,0,1
79691,-100,4,1,2,90,0,1
80117,-100,4,1,2,90,0,1
87351,-100,4,2,0,5,0,0

[Colours]
Combo1 : 109,182,182
Combo2 : 255,128,255
Combo3 : 255,255,53
Combo4 : 255,153,51

[HitObjects]
96,128,2245,2,0,B|48:200|112:280,1,140,4|8
184,192,3096,1,0
256,104,3521,1,8
320,192,3947,6,0,B|392:232|480:184,1,140,0|8
390,104,4798,2,0,B|310:64|240:113,1,140,0|8
200,200,5649,1,0
264,288,6074,6,0,B|224:320|160:320|112:272,2,140,8|0|8
200,200,7351,2,0,B|256:128|176:48,2,140,0|8|0
160,304,8627,1,8
272,288,9053,6,0,B|344:312|344:312|440:272,1,140,4|8
440,240,9691,1,0
440,240,9904,2,0,B|440:96,1,140,0|8
408,56,10542,5,0
360,88,10755,2,0,B|288:128|200:72,1,140,0|8
176,64,11393,2,0,B|128:40|80:80,1,70
144,168,12032,1,8
80,264,12457,6,0,B|152:304|240:248,1,140,4|8
256,224,13096,1,0
296,184,13308,2,0,B|448:184,1,140,0|8
432,72,14159,6,0,B|368:40|368:40|280:80,1,140,0|8
256,88,14798,1,0
216,128,15010,2,0,B|144:168|48:112,1,140,0|8
80,240,15862,6,0,B|224:240,1,140,4|8
264,272,16500,2,0,B|336:304|416:264,1,140
328,184,17351,2,0,B|384:120|320:40,1,140
288,24,17989,1,8
248,128,18415,2,0,B|160:128,3,70,2|2|8|2
120,128,19266,6,0,B|128:224|16:248,1,140,0|8
64,296,19904,2,0,B|224:296,1,140
264,200,20755,2,0,B|336:152|399:207,1,140
416,248,21393,1,8
330,321,21819,2,0,B|330:241,3,70,2|2|8|2
328,192,22670,6,0,B|368:120|320:40,1,140,4|8
240,128,23521,2,0,B|160:168|72:112,1,140,0|8
32,216,24372,2,0,B|-8:296|72:336,1,140,0|8
144,248,25223,2,0,B|232:248,3,70,2|2|8|2
272,248,26074,6,0,B|344:272|344:272|432:240,1,140,4|8
448,208,26713,2,0,B|480:144|480:144|440:64,1,140
344,120,27564,2,0,B|272:72|184:136,1,140
160,128,28202,2,0,B|32:24,2,140,8|0|8
80,200,29479,6,0,B|40:288|128:344,1,140,4|8
176,240,30330,2,0,B|320:240,1,140,0|8
385,327,31181,2,0,B|456:272|408:176,1,140,0|8
400,88,32032,2,0,B|480:48,2,70,2|2|8
296,136,32883,6,0,B|216:160|128:128,1,140,0|8
96,48,33734,2,0,B|32:104|48:200,1,140,0|8
56,288,34585,2,0,B|136:248|216:304,1,140,0|8
280,224,35436,2,0,B|344:280,3,70,2|2|8|2
376,304,36287,6,0,B|464:304|488:208,1,140,4|8
376,192,37138,1,0
464,128,37564,1,8
376,56,37989,1,0
288,128,38415,1,8
200,56,38840,2,0,B|144:96,3,70,2|2|8|2
96,128,39691,6,0,B|136:208|48:272,1,140,4|8
160,320,40542,1,0
232,232,40968,1,8
312,312,41393,2,0,B|384:352|464:304,1,140,0|8
376,224,42245,1,0
376,224,42670,1,8
440,136,43096,6,0,B|370:88|290:144,1,140,4|8
216,72,43947,2,0,B|208:120|144:128,1,70
64,120,44585,2,0,B|16:184|72:264,1,140
104,288,45223,1,8
152,264,45436,2,0,B|224:232|296:272,1,140
336,288,46074,1,8
392,192,46500,6,0,B|472:152|472:64,2,140,0|8|0
344,160,47564,2,0,B|304:136|248:176,1,70,0|8
224,144,47989,1,0
152,56,48415,2,0,B|144:96|96:112,1,70,0|8
56,112,48840,2,0,B|24:200|24:200|48:296|96:280,1,210,0|8
168,200,49904,6,4,B|238:152|312:207,2,140,0|8|0
237,287,51181,1,8
347,304,51606,2,0,B|417:347|500:297,2,140,0|8|0
416,216,52883,1,8
368,120,53308,6,0,B|328:40|208:88,1,140,4|8
152,136,54159,2,0,B|192:216|304:176,1,140,0|8
376,232,55010,2,0,B|464:320,2,105,2|2|2
256,112,56287,6,0,B|256:184,1,70,0|0
256,240,56713,2,0,B|192:288|96:224,2,140,4|8|0
352,192,57989,1,8
448,128,58415,2,0,B|504:192|448:264,1,140,0|8
408,280,59053,2,0,B|368:264|312:288,1,70
256,352,59691,1,8
168,280,60117,6,0,B|208:208|160:144,1,140,0|8
56,112,60968,1,0
144,40,61393,1,8
248,88,61819,6,0,B|320:104|416:80,1,140,0|8
440,88,62457,2,0,B|456:120|440:168,1,70
456,264,63096,2,0,B|416:280|360:256,1,70,8|0
328,256,63521,6,0,B|256:216|160:272,1,140,4|8
96,304,64372,1,0
40,208,64798,1,8
144,176,65223,6,0,B|232:176|240:96,1,140,0|8
288,72,65862,2,0,B|328:96|368:64,1,70
456,32,66500,1,8
440,144,66925,6,0,B|488:216|432:288,1,140,4|8
384,272,67564,1,0
344,312,67776,2,0,B|264:336|192:312,1,140,0|8
104,264,68627,2,4,B|112:192|112:192|176:120,1,140,0|8
216,144,69266,1,0
264,112,69479,2,0,B|344:104|344:104|400:56,1,140,0|8
416,176,70330,6,0,B|464:256|408:328,1,140,4|8
328,240,71181,1,0
240,312,71606,2,0,B|176:344|80:304,2,140,8|0|8
176,216,72883,1,0
88,152,73308,2,0,B|136:152|152:96,1,70,8|0
200,96,73734,6,0,B|272:56|360:112,3,140,0|8|0|8
384,120,75223,1,0
440,112,75436,2,0,B|472:192|440:264,1,140,0|8
352,312,76287,2,0,B|280:328|280:328|184:312,1,140,0|8
112,264,77138,6,0,B|208:240|192:128,1,140,4|8
120,80,77989,2,0,B|184:48,1,70
296,40,78627,1,0
320,88,78840,2,0,B|320:184|416:192,1,140,2|0
456,288,79691,2,0,B|376:344|288:304,1,140,2|8
208,312,80542,6,0,B|112:272,1,70,4|0
152,232,80968,2,0,B|88:160,1,70,8|0
160,168,81393,2,0,B|184:96,1,70
232,128,81819,2,0,B|320:96,1,70,8|0
352,88,82244,6,0,B|408:160|344:248,1,140,4|8
288,304,83096,2,0,B|224:344|128:288,1,140,0|8
88,216,83947,1,4
256,192,84159,12,0,87351
