osu file format v9

[General]
AudioFilename: SHOOT!.mp3
AudioLeadIn: 0
PreviewTime: 55872
Countdown: 0
SampleSet: Normal
StackLeniency: 0.4
Mode: 0
LetterboxInBreaks: 0

[Editor]
Bookmarks: 42245
DistanceSpacing: 0.8
BeatDivisor: 4
GridSize: 8

[Metadata]
Title:SHOOT! (TV Size)
Artist:RO-KYU-BU!
Creator:Chewin
Version:Insane
Source:RO-KYU-BU!
Tags:inaba-tan Leader Hinacle loli basket sport

[Difficulty]
HPDrainRate:7
CircleSize:4
OverallDifficulty:7
ApproachRate:8
SliderMultiplier:2
SliderTickRate:1

[Events]
//Background and Video events
0,0,"BG.jpg"
Video,0,"RO-KYU-BU! OP.avi"
//Break Periods
//Storyboard Layer 0 (Background)
//Storyboard Layer 1 (Fail)
//Storyboard Layer 2 (Pass)
//Storyboard Layer 3 (Foreground)
//Storyboard Sound Samples
//Background Colour Transformations
3,100,163,162,255

[TimingPoints]
2245,425.531914893617,4,1,2,80,1,0
55862,-100,4,1,0,60,0,0
56713,-100,4,1,2,90,0,1
69053,-100,4,1,2,60,0,1
70117,-100,4,1,0,90,0,0
70330,-100,4,1,2,90,0,1
78840,-100,4,1,2,90,0,1
79266,-100,4,1,2,90,0,1
79691,-100,4,1,2,90,0,1
80117,-100,4,1,2,90,0,1
87351,-100,4,2,0,5,0,0

[Colours]
Combo1 : 109,182,182
Combo2 : 255,128,255
Combo3 : 255,255,53
Combo4 : 255,153,51

[HitObjects]
72,192,2245,2,0,B|40:248|88:312,1,100,4|0
160,352,2670,2,0,B|192:312|161:256,1,100,8|0
160,168,3096,1,0
160,168,3202,1,0
160,168,3308,2,0,B|216:136|280:184,1,100,0|8
312,112,3734,1,0
344,184,3947,5,0
412,231,4159,2,0,B|440:184|408:137,1,100,0|8
345,185,4585,2,0,B|312:232|342:278,1,100
256,168,5010,1,0
256,168,5117,1,0
256,168,5223,2,0,B|240:296|96:328,1,200,8|0
40,192,6074,5,8
40,192,6181,1,0
40,192,6287,1,0
56,32,6500,1,0
56,32,6606,1,0
56,32,6713,1,0
240,88,6925,1,8
240,88,7032,1,0
240,88,7138,1,0
240,88,7351,6,0,B|296:128|360:80,1,100
384,32,7776,2,0,B|328:-8|272:40,1,100,8|0
334,197,8202,2,0,B|334:97,1,100,0|0
408,168,8627,2,0,B|408:268,1,100,8|0
344,320,9053,6,0,B|256:344|128:320,1,200,4|8
71,203,9691,2,0,B|40:248|72:296,1,100,0|0
188,142,10117,1,0
188,142,10223,1,0
188,142,10330,1,8
136,248,10542,6,0,B|184:272|240:248,1,100,0|0
304,216,10968,2,0,B|352:192,2,50,0|0|8
248,160,11393,1,0
248,160,11606,2,0,B|336:112,2,100,0|0|8
456,64,12457,6,0,B|496:176|408:272,1,200,4|8
480,336,13096,1,0
327,239,13308,2,0,B|232:192|134:236,1,200,0|8
56,312,13947,1,0
40,224,14159,5,0
72,208,14266,1,0
88,176,14372,1,0
56,136,14479,1,0
64,96,14585,1,8
96,64,14691,1,0
136,64,14798,1,0
168,96,14904,1,0
160,144,15010,1,0
192,168,15117,1,0
232,152,15223,1,0
240,104,15330,1,0
256,72,15436,2,0,B|312:56,3,50,8|0|0|0
344,48,15862,6,0,B|336:144|448:232,1,200,4|8
488,160,16500,1,0
367,264,16713,2,0,B|312:272|268:266,1,100
208,191,17138,2,0,B|272:184|307:191,1,100,8|0
268,267,17564,5,0
268,267,17670,1,0
268,267,17776,1,0
160,336,17989,1,8
160,336,18096,1,0
160,336,18202,1,0
64,169,18415,2,0,B|32:208|64:264,2,100,2|2|8
128,216,19053,1,2
128,216,19266,6,0,B|224:184|240:56,1,200,0|8
160,48,19904,2,0,B|160:128|208:176|336:128,1,200
352,80,20542,1,8
352,80,20755,1,0
422,206,20968,6,0,B|456:168|424:112,1,100
360,160,21393,2,0,B|328:200|360:256,1,100,8|0
423,207,21819,1,2
423,207,21925,1,0
423,207,22032,1,2
288,296,22244,1,8
288,296,22351,1,0
288,296,22457,1,2
232,240,22670,6,0,B|200:128|64:120,1,200,4|8
88,200,23308,2,0,B|168:192|192:112|128:48,1,200
64,24,23947,1,8
256,88,24159,2,0,B|360:128|480:80,1,200
452,90,24798,1,8
452,90,25010,1,0
472,168,25223,2,0,B|472:224,2,50,2|0|2
400,208,25649,2,0,B|400:272,2,50,8|0|2
328,168,26074,6,0,B|320:288|184:336,1,200,4|8
80,344,26713,2,0,B|100:225|240:191,1,200
240,128,27351,1,8
83,78,27564,2,0,B|96:128|160:136,1,100
160,56,27989,5,0
160,56,28096,1,0
160,56,28202,1,8
240,128,28415,1,0
264,160,28521,1,0
304,160,28627,1,0
336,128,28734,1,0
336,88,28840,1,0
344,48,28947,1,0
376,32,29053,1,8
416,40,29159,1,0
432,80,29266,1,0
464,96,29372,1,0
464,136,29479,6,0,B|408:240|480:352,1,200,4|8
384,328,30117,2,0,B|280:360|144:320,1,200
120,288,30755,1,8
40,312,30968,2,0,B|-8:216|32:104,1,200
88,72,31606,1,8
88,72,31713,1,0
88,72,31819,1,0
120,144,32032,2,0,B|190:214,2,100,2|2|8
120,144,32670,1,2
184,96,32883,6,0,B|288:144|400:96,1,200,0|8
336,32,33521,2,0,B|280:96|304:152|352:192|408:176,1,200
448,136,34159,1,8
456,216,34372,2,0,B|496:264|480:336|408:368|352:336,1,200
396,267,35010,1,8
396,267,35117,1,0
396,267,35223,1,0
315,267,35436,2,0,B|215:267,3,100,0|2|8|2
160,328,36287,6,0,B|72:328|32:256|40:160,1,200,4|8
24,96,36925,2,0,B|111:96|151:168|144:263,1,200
299,272,37564,2,0,B|248:280|224:216,1,100,8|0
304,192,37989,1,0
304,192,38202,2,0,B|304:80,2,100,0|8|0
368,240,38840,2,0,B|448:304,2,100,2|2|8
368,240,39479,1,2
304,192,39691,6,0,B|184:208|96:120,1,200,4|8
48,40,40330,2,0,B|168:24|256:112,1,200
359,125,40968,2,0,B|312:112|304:48,1,100,8|0
384,48,41393,5,0
424,40,41500,1,0
456,64,41606,1,0
464,104,41713,1,0
432,136,41819,1,8
408,168,41925,1,0
400,208,42032,1,0
424,240,42138,1,0
448,272,42245,2,0,B|344:328|216:264,1,200,0|8
176,312,42883,1,0
104,272,43096,6,0,B|16:208|32:72,1,200,4|8
88,40,43734,1,0
213,155,43947,2,0,B|160:160|136:104,1,100
216,72,44372,1,8
216,72,44585,2,0,B|320:40|432:80,1,200
488,40,45223,1,8
480,120,45436,2,0,B|432:216|488:336,1,200
478,313,46074,1,8
408,352,46287,1,0
376,280,46500,6,0,B|376:176|288:96,1,200,0|8
232,56,47138,1,0
79,113,47351,2,0,B|120:144|176:112,1,100
128,48,47776,1,8
128,48,47989,2,0,B|128:256,1,200
64,296,48627,1,8
128,344,48840,2,0,B|224:376|352:336,1,200
376,184,49479,2,0,B|408:248|360:304,1,100,8|0
312,232,49904,6,0,B|216:264|114:232,1,200,4|8
66,73,50542,2,0,B|32:112|64:168,1,100
136,120,50968,1,0
136,120,51074,1,0
136,120,51181,1,8
136,120,51393,6,0,B|248:120,1,100
272,48,51819,1,0
425,105,52032,2,0,B|384:128|328:104,1,100,8|0
377,39,52457,2,0,B|432:8|471:40,1,100
425,106,52883,1,8
408,264,53308,6,0,B|360:320|272:320,1,150,4|0
176,248,53947,1,0
125,317,54159,2,0,B|77:245|125:173,1,150
80,64,54798,1,0
152,104,55010,5,2
168,104,55330,5,2
184,104,55649,5,2
248,48,55862,5,0
288,40,55968,1,0
320,56,56074,1,0
336,96,56181,1,0
312,128,56287,1,0
312,168,56393,1,0
344,192,56500,1,0
384,184,56606,1,0
416,160,56713,6,0,B|320:96|200:168,1,200,4|8
88,112,57351,1,0
72,144,57457,1,0
88,176,57564,1,0
80,272,57776,2,0,B|176:320,1,100,0|8
232,264,58202,1,0
232,264,58308,1,0
232,264,58415,2,0,B|328:312|432:264,1,200,0|8
424,184,59053,2,0,B|464:136,1,50
400,40,59479,1,0
278,113,59691,6,0,B|320:136|376:112,1,100,8|0
248,40,60117,2,0,B|152:16|48:40,1,200,0|8
16,112,60755,1,0
16,112,60862,1,0
16,112,60968,1,0
95,217,61181,2,0,B|120:176|96:120,1,100,0|8
32,264,61606,1,0
104,304,61819,6,0,B|208:336|320:304,1,200,0|8
376,344,62457,1,0
376,344,62564,1,0
376,344,62670,1,0
440,296,62883,1,0
376,248,63096,2,0,B|376:112,1,100,8|0
352,72,63521,6,0,B|248:120|128:88,1,200,4|8
88,56,64159,1,0
88,56,64266,1,0
88,56,64372,1,0
49,224,64585,2,0,B|24:176|47:128,1,100,0|8
114,175,65010,2,0,B|136:224|112:272,1,100
176,128,65436,5,0
248,168,65649,1,8
248,168,65755,1,0
248,168,65862,1,0
200,232,66074,2,0,B|248:264|320:224,1,100
344,304,66500,1,8
384,232,66713,1,0
440,288,66925,6,0,B|496:192|440:88,1,200,4|8
384,48,67564,1,0
360,128,67776,2,0,B|256:136|144:128,1,200,0|8
128,48,68415,1,0
67,96,68627,6,0,B|16:192|72:288,1,200,4|8
96,312,69159,1,0
136,328,69266,1,0
176,320,69372,1,0
208,296,69479,1,0
216,256,69585,1,0
200,224,69691,1,0
176,192,69798,1,0
184,152,69904,2,0,B|240:128|296:160,1,100,8|0
296,232,70330,6,0,B|288:320|344:368|448:328,1,200,4|8
376,265,70968,2,0,B|424:232,1,50
352,116,71393,2,0,B|400:88|448:120,1,100,0|8
288,64,71819,1,0
272,144,72032,2,0,B|176:184|64:144,1,200,0|8
16,96,72670,1,0
16,96,72776,1,0
16,96,72883,1,0
80,48,73096,1,0
141,198,73308,6,0,B|168:152|136:96,1,100,8|0
64,232,73734,2,0,B|48:320|128:368|208:328,1,200,0|8
144,264,74372,1,0
144,264,74585,2,0,B|232:216,1,100
256,296,75010,1,8
312,240,75223,1,0
312,240,75330,1,0
312,240,75436,2,0,B|388:288|472:196|404:120,1,200,0|8
352,176,76074,1,0
304,112,76287,5,0
168,24,76713,1,8
32,104,77138,2,0,B|-16:192|32:304,1,200,4|8
104,264,77776,1,0
246,327,77989,2,0,B|200:360|152:328,1,100
201,263,78415,2,0,B|248:232|294:265,1,100,8|0
352,320,78840,5,2
112,96,79266,1,8
352,320,79691,1,2
480,32,80117,1,8
288,200,80542,6,0,B|320:248|280:312,1,100,6|0
224,344,80968,2,0,B|192:296|232:240,1,100,8|0
320,120,81393,1,2
144,224,81606,1,8
320,120,81819,1,0
144,224,82032,1,0
64,232,82244,5,0
32,208,82351,1,0
40,168,82457,1,0
136,144,82670,1,8
176,136,82776,1,0
192,96,82883,1,0
272,128,83096,5,0
272,168,83202,1,0
304,192,83308,1,0
344,200,83415,1,0
376,176,83521,1,8
392,136,83627,1,0
376,96,83734,1,0
400,64,83840,1,0
440,64,83947,1,4
256,192,84053,12,0,87351
