osu file format v9

[General]
AudioFilename: SHOOT!.mp3
AudioLeadIn: 0
PreviewTime: 55872
Countdown: 0
SampleSet: Normal
StackLeniency: 0.4
Mode: 0
LetterboxInBreaks: 0

[Editor]
DistanceSpacing: 1.2
BeatDivisor: 4
GridSize: 4

[Metadata]
Title:SHOOT! (TV Size)
Artist:RO-KYU-BU!
Creator:Chewin
Version:Hinacle
Source:RO-KYU-BU!
Tags:inaba-tan Leader Hinacle loli basket sport

[Difficulty]
HPDrainRate:6
CircleSize:4
OverallDifficulty:5
ApproachRate:7
SliderMultiplier:1.7
SliderTickRate:1

[Events]
//Background and Video events
0,0,"BG.jpg"
Video,0,"RO-KYU-BU! OP.avi"
//Break Periods
//Storyboard Layer 0 (Background)
//Storyboard Layer 1 (Fail)
//Storyboard Layer 2 (Pass)
//Storyboard Layer 3 (Foreground)
//Storyboard Sound Samples
//Background Colour Transformations
3,100,163,162,255

[TimingPoints]
2245,425.531914893617,4,1,2,70,1,0
27776,-100,4,1,2,50,0,0
28202,-100,4,1,2,55,0,0
28627,-100,4,1,2,60,0,0
29053,-100,4,1,2,65,0,0
29479,-100,4,1,2,70,0,0
42989,-133.333333333333,4,1,2,60,0,0
49904,-100,4,1,2,70,0,0
56713,-100,4,1,2,70,0,1
68627,-100,4,1,2,40,0,1
69053,-100,4,1,2,50,0,1
69479,-100,4,1,2,60,0,1
69904,-100,4,1,2,70,0,1
70117,-100,4,1,0,70,0,0
70330,-100,4,1,2,70,0,1
84053,-100,4,1,2,5,0,1
87351,-100,4,2,0,5,0,0

[Colours]
Combo1 : 109,182,182
Combo2 : 255,128,255
Combo3 : 255,255,53
Combo4 : 255,153,51

[HitObjects]
128,112,2245,2,0,B|144:152|136:200,1,85,4|0
144,280,2670,2,0,B|232:288,1,85,8|0
312,296,3096,1,2
392,272,3308,1,0
416,192,3521,1,8
384,112,3734,1,0
312,72,3947,6,0,B|248:48|208:96|136:72,1,170,2|8
64,40,4585,1,0
32,120,4798,2,0,B|28:204|28:296,1,170,2|8
112,312,5436,1,0
192,288,5649,6,0,B|193:245|192:200,1,85,2|0
112,144,6074,2,0,B|111:187|112:232,1,85,8|0
192,112,6500,2,0,B|168:72|128:56|80:56|40:96,2,170,2|8|2
224,200,7564,1,0
128,256,7776,1,8
240,328,7989,1,0
100,352,8202,6,0,B|60:364|16:356,1,85,2|0
8,200,8627,2,0,B|48:188|92:196,1,85,2|0
56,276,9053,1,2
384,255,9479,6,0,B|361:290|322:313,1,85,8|0
296,224,9905,1,2
137,271,10330,6,0,B|118:233|118:188,1,85,8|0
208,210,10756,1,2
246,49,11181,6,0,B|288:52|327:74,1,85,8|0
263,141,11607,1,2
240,312,12032,6,0,B|168:368|72:328,1,170,8|4
40,256,12670,1,0
72,176,12883,2,0,B|108:152|160:160,1,85,8|0
216,224,13308,2,0,B|180:248|128:240,2,85,0|0|8
284,168,13947,1,0
368,176,14159,6,0,B|414:177|445:214|462:260|440:300,1,170,2|8
352,264,14798,1,0
336,356,15010,2,0,B|289:354|258:317|241:271|263:231,1,170,2|8
280,144,15649,1,0
196,172,15862,6,0,B|128:232|32:192,1,170,4|8
56,320,16500,2,0,B|124:260|220:300,1,170,0|0
272,232,17138,2,0,B|352:264,1,85,8|0
432,296,17564,5,0
496,184,17776,1,0
368,184,17989,1,8
368,184,18415,5,2
496,264,18627,1,2
368,264,18840,1,8
496,184,19053,1,2
432,296,19266,6,0,B|400:352|324:348|296:284,1,170,0|8
256,212,19904,2,0,B|256:116,2,85
216,288,20542,1,8
216,288,20755,2,0,B|188:349|112:353|80:297,1,170,0|0
136,180,21393,2,0,B|148:280,1,85,8|0
64,216,21819,6,0,B|52:116,1,85,2|2
204,112,22244,2,0,B|216:212,1,85,8|2
292,232,22670,6,0,B|376:200|456:248,1,170,4|8
484,160,23308,2,0,B|440:164|404:140,1,85
300,68,23734,1,0
420,64,23947,1,8
320,144,24159,2,0,B|240:188|152:140,1,170,0|0
76,112,24798,2,0,B|32:124|0:160,1,85,8|0
80,204,25223,5,2
80,204,25436,1,2
44,300,25649,1,8
44,300,25862,1,2
144,284,26074,6,0,B|224:264|316:280,1,170,4|8
404,288,26713,2,0,B|476:232|456:136,1,170,0|0
408,64,27351,2,0,B|368:48|320:48,1,85,8|0
256,96,27776,6,0,B|240:144,3,42.5,2|0|0|0
236,164,28202,2,0,B|252:212,3,42.5,2|0|0|0
256,232,28627,2,0,B|240:280,3,42.5,2|0|0|0
236,300,29053,2,0,B|252:348,3,42.5,2|0|0|0
268,368,29479,6,0,B|360:396|428:332,1,170,4|8
424,240,30117,2,0,B|358:177|266:205,1,170,0|0
188,156,30755,2,0,B|168:200|180:244,1,85,8|0
88,268,31181,2,0,B|108:311|150:330,1,85,0|0
240,320,31606,2,0,B|284:312|328:328,1,85,8|0
412,340,32032,6,0,B|480:288,1,85,2|2
472,128,32457,2,0,B|404:180,1,85,8|2
332,228,32883,6,0,B|248:268|168:212,1,170,0|8
88,320,33521,2,0,B|172:280|252:336,1,170,0|0
332,360,34159,1,8
416,340,34372,2,0,B|480:280|456:180,1,170,0|0
392,128,35010,2,0,B|295:151|235:87,1,170,8|2
176,24,35649,5,2
100,64,35862,1,8
112,148,36074,1,2
196,156,36287,6,0,B|232:180|264:208,2,85,4|0|8
180,244,36925,2,0,B|120:312|12:280,1,170
88,200,37564,1,8
88,200,37776,2,0,B|124:368,1,170,0|0
212,360,38415,6,0,B|256:352|300:352,1,85,8|0
436,284,38840,2,0,B|392:292|348:292,1,85,2|2
204,248,39266,2,0,B|248:240|292:240,1,85,8|2
424,164,39691,6,0,B|380:172|336:172,2,85,0|0|8
428,80,40330,2,0,B|364:16|264:48,1,170
232,124,40968,1,8
200,204,41181,2,0,B|136:268|36:236,1,170
16,156,41819,1,8
148,24,42245,1,2
304,124,42670,1,2
172,256,43096,5,4
124,188,43308,1,0
208,184,43521,2,0,B|260:232|244:304,1,127.499996200204,8|0
360,336,44159,2,0,B|308:288|324:216,2,127.499996200204
444,348,45223,2,0,B|484:348|520:356,1,63.749998100102,8|0
424,272,45649,2,0,B|452:243|483:223,1,63.749998100102,0|0
356,232,46074,2,0,B|355:192|364:156,1,63.749998100102,8|0
280,248,46500,6,0,B|236:204|204:136,1,127.499996200204,0|8
176,68,47138,1,0
96,44,47351,1,0
16,64,47564,2,0,B|8:112|8:156,1,63.749998100102,0|8
24,208,47989,6,0,B|80:236|112:304,1,127.499996200204,0|0
188,328,48627,1,8
272,316,48840,2,0,B|332:300|400:320,1,127.499996200204
476,292,49479,2,0,B|500:224,1,63.749998100102,8|0
420,164,49904,6,0,B|378:292,2,127.5,6|2|2
420,80,50755,1,2
352,32,50968,1,0
268,48,51181,2,0,B|228:60|180:52,1,85,8|0
168,144,51606,6,0,B|232:124|300:140,2,127.5,2|2|2
84,168,52457,2,0,B|44:188|0:188,1,85,2|0
104,252,52883,2,0,B|144:232|188:232,1,85,8|0
268,252,53308,5,6
404,220,53627,1,2
308,116,53947,1,2
308,116,54159,6,0,B|340:252,2,127.5,6|2|2
204,116,55010,2,0,B|172:252,2,127.5,2|2|2
256,368,56287,2,0,B|256:280,1,85,2|2
256,192,56713,6,0,B|332:140|420:176,1,170,6|10
468,104,57351,2,0,B|488:64,2,42.5,0|2|0
384,88,57776,2,0,B|340:76|292:96,1,85,2|10
216,104,58202,2,0,B|176:120|132:108,1,85,2|2
56,68,58627,2,0,B|24:32,2,42.5,0|0|10
56,152,59053,2,0,B|24:188,2,42.5,2|2|0
132,108,59479,1,0
204,64,59691,2,0,B|240:40|288:28,1,85,10|2
360,64,60117,6,0,B|352:164|432:216,1,170,2|10
428,300,60755,2,0,B|468:332,2,42.5,0|2|0
344,324,61181,1,2
288,252,61393,1,8
248,336,61606,1,2
188,264,61819,2,0,B|131:249|99:265|67:281|19:265,1,170,2|10
64,184,62457,2,0,B|40:144,2,42.5,2|2|0
148,180,62883,6,0,B|192:172|236:192,1,85,0|10
304,108,63308,2,0,B|260:116|216:96,2,85,2|6|0
392,116,63947,2,0,B|424:196,1,85,10|0
436,228,64266,2,0,B|436:300|376:340,1,127.5,2|0
296,356,64798,6,0,B|252:344|208:360,1,85,10|0
120,260,65223,2,0,B|164:272|208:256,1,85,2|0
116,364,65649,2,0,B|72:352|28:368,1,85,10|2
20,336,65968,2,0,B|0:280|16:208,1,127.5,2|0
40,128,66500,2,0,B|80:104|128:108,1,85,10|2
204,128,66925,6,0,B|280:176|376:136,1,170,6|10
412,212,67564,1,0
360,276,67776,2,0,B|284:228|188:268,1,170,2|10
112,284,68415,1,0
32,252,68627,6,0,B|20:204,3,42.5,0|0|0|0
16,180,69053,2,0,B|24:128,3,42.5,0|0|0|0
28,108,69479,2,0,B|60:72,3,42.5,0|0|0|0
80,60,69904,2,0,B|128:44,3,42.5,0|0|0|0
148,40,70330,6,0,B|236:8|312:60,1,170,6|10
388,96,70968,2,0,B|400:136|400:180,1,85,0|2
316,164,71393,2,0,B|320:205|313:248,1,85,0|10
232,216,71819,2,0,B|229:257|214:299,1,85,2|2
132,320,72244,2,0,B|112:380,2,42.5,0|0|10
56,284,72670,2,0,B|16:333,2,42.5,2|2|2
32,200,73096,2,0,B|52:164|96:144,1,85,0|10
180,128,73521,1,2
264,148,73734,6,0,B|328:220|288:312,1,170,2|10
372,332,74372,1,0
444,288,74585,2,0,B|380:216|420:124,1,170,2|10
336,100,75223,2,0,B|328:52,2,42.5,2|2|0
264,148,75649,1,0
180,148,75862,2,0,B|132:140|88:164,1,85,10|0
144,236,76287,2,0,B|96:244|64:276,2,85,2|0|10
196,304,76925,1,0
280,296,77138,6,0,B|360:256|456:288,1,170,6|10
476,204,77776,1,0
448,124,77989,2,0,B|464:80|476:60|496:4,2,127.5,2|2|2
364,144,78840,6,0,B|264:160,1,85,2|0
132,196,79266,2,0,B|232:212,1,85,10|0
364,248,79691,2,0,B|264:264,1,85,2|0
132,300,80117,2,0,B|232:316,2,85,10|0|6
48,280,80755,5,2
16,200,80968,2,0,B|4:160|12:108,1,85,8|2
72,56,81393,2,0,B|112:44|168:40,1,85,0|2
240,52,81819,2,0,B|279:63|323:66,1,85,8|2
408,56,82244,5,6
448,132,82457,1,0
388,192,82670,1,8
312,152,82883,2,0,B|272:136|224:140,1,85,0|2
128,124,83308,2,0,B|134:166|161:206,1,85,0|8
200,296,83734,2,0,B|233:269|254:225,1,85,0|4
256,192,84053,12,0,87351
