osu file format v12

[General]
AudioFilename: SHOOT!.mp3
AudioLeadIn: 2000
PreviewTime: 138182
Countdown: 0
SampleSet: Normal
StackLeniency: 0.7
Mode: 0
LetterboxInBreaks: 1

[Editor]
DistanceSpacing: 0.8
BeatDivisor: 4
GridSize: 4

[Metadata]
Title:SHOOT!
TitleUnicode:SHOOT!
Artist:RO-KYU-BU!
ArtistUnicode:ロウきゅーぶ!
Creator:Mio_chan
Version:Normal
Source:RO-KYU-BU!
Tags:hanazawa kana iguchi yuka hikasa youko ogura yui hidaka rina minato tomoka misawa maho nagatsuka saki kasii airi hakamada hinata kotoko fripside opening loli
BeatmapID:130666
BeatmapSetID:41342

[Difficulty]
HPDrainRate:3
CircleSize:3
OverallDifficulty:3
ApproachRate:4
SliderMultiplier:1.22
SliderTickRate:1

[Events]
//Background and Video events
0,0,"bg.jpg",0,0
//Break Periods
2,84340,96437
2,166042,177288
2,193276,203671
//Storyboard Layer 0 (Background)
//Storyboard Layer 1 (Fail)
//Storyboard Layer 2 (Pass)
//Storyboard Layer 3 (Foreground)
//Storyboard Sound Samples
//Background Colour Transformations
3,100,163,162,255

[TimingPoints]
736,425.531914893617,4,1,1,60,1,0
16055,-100,4,1,1,30,0,0
29672,-100,4,1,1,40,0,0
42438,-100,4,1,1,50,0,0
43289,-100,4,1,1,60,0,0
56906,-100,4,1,1,70,0,1
70416,-100,4,1,1,70,0,0
70523,-100,4,1,1,70,0,1
84140,-100,4,1,1,70,0,0
97757,-100,4,2,1,40,0,0
109672,-100,4,1,1,30,0,0
110736,-100,4,1,1,35,0,0
110948,-100,4,1,1,40,0,0
111374,-100,4,1,1,50,0,0
124991,-100,4,1,1,60,0,0
138608,-100,4,1,1,70,0,1
152118,-100,4,1,1,70,0,0
152225,-100,4,1,1,70,0,1
165842,-100,4,1,1,70,0,0
220310,-100,4,1,1,75,0,1
233874,-100,4,1,1,75,0,0
233927,-100,4,1,1,75,0,1
245842,-100,4,1,1,70,0,0

[Colours]
Combo1 : 228,129,80
Combo2 : 255,174,255
Combo3 : 255,60,255
Combo4 : 112,208,245
Combo5 : 235,208,118

[HitObjects]
160,192,736,2,0,B|104:144|48:192,2,122
256,192,2012,1,0,0:0:0:0:
256,96,2438,6,0,B|408:96|408:248,1,244,6|2,0:0|0:0,0:0:0:0:
224,312,4140,2,0,B|72:312|72:160,1,244,2|2,0:0|0:0,0:0:0:0:
256,216,5842,5,2,0:0:0:0:
248,120,6267,1,0,0:0:0:0:
192,32,6693,2,0,B|128:16|80:64,1,122,2|8,0:0|0:0,0:0:0:0:
160,128,7544,2,0,B|132:224,2,91.5,2|2|2,0:0|0:0|0:0,0:0:0:0:
208,128,8395,2,0,B|264:176|320:128,1,122,0|12,0:0|0:0,0:0:0:0:
356,220,9246,6,0,L|356:344,2,122,2|8|2,0:0|0:0|0:0,0:0:0:0:
356,124,10523,1,8,0:0:0:0:
276,172,10948,2,0,L|276:44,2,122,0|0|2,0:0|0:0|0:0,0:0:0:0:
216,248,12225,1,0,0:0:0:0:
136,192,12650,5,6,0:0:0:0:
224,76,13289,2,0,L|284:76,1,61,0|2,0:0|0:0,0:0:0:0:
368,192,14140,1,0,0:0:0:0:
352,240,14353,2,0,B|256:240,2,91.5,6|2|2,0:0|0:0|0:0,0:0:0:0:
368,288,15204,1,0,0:0:0:0:
172,280,16055,5,4,0:0:0:0:
184,184,16480,2,0,B|216:168|248:184,1,61,0|0,0:0|0:0,0:0:0:0:
344,192,17118,2,0,B|344:128|304:144|304:80,2,122,0|0|0,0:0|0:0|0:0,0:0:0:0:
344,240,18182,1,0,0:0:0:0:
256,288,18608,2,2,B|136:288,1,122
112,192,19459,6,0,B|216:216|264:120,1,183,0|0,0:0|0:0,0:0:0:0:
336,192,20523,2,0,B|336:256|376:240|376:304,2,122,0|0|0,0:0|0:0|0:0,0:0:0:0:
336,144,21587,1,0,0:0:0:0:
240,128,22012,2,0,B|232:88|200:64,2,61,2|0|2,0:0|0:0|0:0,0:0:0:0:
144,144,22863,5,4,0:0:0:0:
168,240,23289,1,0,0:0:0:0:
120,240,23501,2,0,B|56:240|72:280|8:280,2,122
120,336,24778,2,0,B|184:336,1,61
280,336,25416,2,0,B|408:336,1,122,2|2,0:0|0:0,0:0:0:0:
376,248,26267,6,0,B|328:192|376:136,1,122,4|0,0:0|0:0,0:0:0:0:
424,136,26906,2,0,B|472:80|424:24,1,122
344,80,27757,2,0,B|288:32|232:80,1,122
184,80,28395,1,0,0:0:0:0:
152,176,28821,2,0,B|88:176,2,61,2|0|10,0:0|0:0|0:0,0:0:0:0:
248,192,29672,6,0,B|216:296|104:264,1,183,4|0,0:0|0:0,0:0:0:0:
152,176,30735,2,0,B|32:176,2,122,0|0|0,0:0|0:0|0:0,0:0:0:0:
200,176,31799,2,0,B|200:112|248:64,2,122,8|2|10,0:0|0:0|0:0,0:0:0:0:
296,192,33076,5,0,0:0:0:0:
392,168,33501,2,0,B|392:104,1,61,8|0,0:0|0:0,0:0:0:0:
296,112,34140,2,0,B|296:48,2,61,0|8|0,0:0|0:0|0:0,0:0:0:0:
200,144,34991,2,0,B|200:208,1,61,0|8,0:0|0:0,0:0:0:0:
104,228,35629,2,0,B|108:300|168:328|168:328,1,122,2|10,0:0|0:0,0:0:0:0:
264,340,36480,5,4,0:0:0:0:
232,248,36906,1,8,0:0:0:0:
232,200,37118,2,0,B|296:184|352:232,2,122
256,104,38395,2,0,B|288:108|320:104,1,61,0|8,0:0|0:0,0:0:0:0:
404,64,39033,2,0,B|468:96|484:156|484:156,1,122,2|10,0:0|0:0,0:0:0:0:
392,192,39884,6,0,B|348:164|304:192|260:220|216:192,2,183,4|0|8,0:0|0:0|0:0,0:0:0:0:
344,280,41587,2,0,B|336:344|256:376|176:344|168:280,1,244,0|8,0:0|0:0,0:0:0:0:
232,208,42863,1,8,0:0:0:0:
264,116,43289,6,0,B|144:116,2,122,4|8|0,0:0|0:0|0:0,0:0:0:0:
304,144,44353,1,0,0:0:0:0:
372,72,44778,2,0,B|421:88|429:144|421:200|372:216,1,183,0|8,0:0|0:0,0:0:0:0:
304,144,45842,1,2,0:0:0:0:
208,140,46267,1,10,0:0:0:0:
256,224,46693,6,0,B|208:224|192:248|136:248,2,122,0|8|0,0:0|0:0|0:0,0:0:0:0:
304,220,47757,2,0,B|304:96,1,122
400,68,48608,2,0,L|400:192,1,122
400,288,49459,2,0,B|388:352,1,61,2|10,0:0|0:0,0:0:0:0:
296,328,50097,6,0,P|204:332|136:272,2,183,0|0|8,0:0|0:0|0:0,0:0:0:0:
312,232,51799,2,0,P|404:236|472:176,2,183,0|0|8,0:0|0:0|0:0,0:0:0:0:
216,248,53501,6,0,B|144:248|144:248|104:288,1,122,4|8,0:0|0:0,0:0:0:0:
184,344,54353,2,0,B|256:344|256:344|296:304,1,122,0|8,0:0|0:0,0:0:0:0:
384,272,55204,2,12,B|480:272,2,91.5
256,192,56480,5,12,0:0:0:0:
200,112,56906,1,6,0:0:0:0:
104,108,57331,1,8,0:0:0:0:
56,192,57757,2,0,B|64:268|132:284,2,122,0|8|2,0:0|0:0|0:0,0:0:0:0:
152,192,59033,2,0,B|224:120,2,91.5,10|2|0,0:0|0:0|0:0,0:0:0:0:
160,240,59884,1,8,0:0:0:0:
256,216,60310,6,0,B|288:168|368:176,1,122,2|0,0:0|0:0,0:0:0:0:
456,216,61161,1,8,0:0:0:0:
432,312,61587,1,8,0:0:0:0:
336,328,62012,2,0,B|304:320|272:328|240:336|208:328,1,122,2|8,0:0|0:0,0:0:0:0:
192,232,62863,2,0,B|224:240|256:232|288:224|320:232,1,122,0|12,0:0|0:0,0:0:0:0:
256,152,63714,5,6,0:0:0:0:
168,104,64140,2,0,B|136:104|76:132,2,91.5,2|2|0,0:0|0:0|0:0,0:0:0:0:
216,112,64991,1,0,0:0:0:0:
248,200,65416,2,0,B|256:280|328:288,2,122,2|0|0,0:0|0:0|0:0,0:0:0:0:
344,200,66693,1,8,0:0:0:0:
328,104,67118,5,4,0:0:0:0:
136,104,67970,2,0,B|136:176|200:208,2,122,0|8|4,0:0|0:0|0:0,0:0:0:0:
232,120,69246,2,0,B|352:120,2,122,8|8|8,0:0|0:0|0:0,0:0:0:0:
256,216,70523,5,6,0:0:0:0:
334,268,70948,2,0,B|312:304|256:312,2,91.5,2|2|0,0:0|0:0|0:0,0:0:0:0:
360,228,71799,1,8,0:0:0:0:
332,136,72225,1,2,0:0:0:0:
236,128,72650,2,0,B|212:120|188:128|164:136|140:128,2,91.5,2|2|0,0:0|0:0|0:0,0:0:0:0:
248,176,73501,1,8,0:0:0:0:
168,236,73927,6,0,B|176:300|256:332|336:300|344:236,1,244,2|0,0:0|0:0,0:0:0:0:
256,192,75204,1,8,0:0:0:0:
344,148,75629,2,0,B|335:83|255:51|175:83|167:147,1,244,2|0,0:0|0:0,0:0:0:0:
176,244,76906,1,12,0:0:0:0:
256,304,77331,6,0,B|256:184,1,122,6|8,0:0|0:0,0:0:0:0:
300,92,78182,2,0,B|256:72|212:92,2,91.5,2|2|2,0:0|0:0|0:0,0:0:0:0:
352,96,79033,1,2,0:0:0:0:
384,184,79459,1,8,0:0:0:0:
352,280,79884,1,0,0:0:0:0:
264,320,80310,1,8,0:0:0:0:
168,304,80736,6,0,B|48:304,1,122,4|8,0:0|0:0,0:0:0:0:
8,216,81587,2,0,B|128:216,1,122,0|8,0:0|0:0,0:0:0:0:
216,168,82438,2,0,B|216:104,2,61,4|0|8,0:0|0:0|0:0,0:0:0:0:
304,216,83289,2,0,B|304:280,2,61,0|0|8,0:0|0:0|0:0,0:0:0:0:
392,168,84140,1,4,0:0:0:0:
160,128,97757,5,2,0:0:0:0:
204,40,98182,2,0,L|264:40,1,61
440,128,99246,6,0,B|440:312,1,183,2|0,0:0|0:0,0:0:0:0:
352,280,100310,2,0,B|352:160,1,122,2|0,0:0|0:0,0:0:0:0:
352,64,101161,5,8,0:0:0:0:
160,64,102012,1,0,0:0:0:0:
256,232,102863,1,2,0:0:0:0:
256,88,103501,2,2,B|192:88,1,61
80,232,104565,6,0,B|96:296|168:336|240:296|256:232,1,244,12|0,0:0|0:0,0:0:0:0:
432,152,106267,2,0,B|416:88|344:48|272:88|256:152,1,244,2|2,0:0|0:0,0:0:0:0:
432,240,107970,6,0,B|424:280|432:304|440:328|432:368,2,122,12|0|8,0:0|0:0|0:0,0:0:0:0:
336,216,109246,1,0,0:0:0:0:
240,240,109672,2,0,B|240:272|216:296,2,61,4|8|8,0:0|0:0|0:0,0:0:0:0:
240,144,110523,2,0,B|240:112|216:88,2,61,8|0|8,0:0|0:0|0:0,0:0:0:0:
152,192,111374,6,0,B|152:304|272:304,1,183,4|0,0:0|0:0,0:0:0:0:
248,208,112438,2,0,B|336:120,1,122
400,192,113289,1,0,0:0:0:0:
400,192,113501,2,0,B|312:280,2,122,8|2|10,0:0|0:0|0:0,0:0:0:0:
408,96,114778,5,0,0:0:0:0:
312,96,115204,2,0,B|280:96|248:120,1,61,8|0,0:0|0:0,0:0:0:0:
176,176,115842,2,0,B|240:176|288:224,1,122
336,304,116693,2,0,B|304:304|272:328,1,61,0|8,0:0|0:0,0:0:0:0:
180,312,117331,2,0,B|180:248,2,61,2|0|10,0:0|0:0|0:0,0:0:0:0:
88,304,118182,6,0,B|72:272|72:232|88:216|104:200|104:160|88:128,1,183,4|0,0:0|0:0,0:0:0:0:
184,128,119246,2,0,B|256:152|304:96,1,122
376,168,120097,2,0,B|408:176|424:208,2,61,0|8|0,0:0|0:0|0:0,0:0:0:0:
256,256,121161,1,10,0:0:0:0:
256,352,121587,6,0,B|230:345|198:353|166:361|134:353,1,122,4|8,0:0|0:0,0:0:0:0:
152,304,122225,2,0,B|120:312|88:304|56:296|24:304,1,122,0|8,0:0|0:0,0:0:0:0:
32,208,123076,2,0,B|-16:152|32:96,1,122
80,96,123714,1,8,0:0:0:0:
156,36,124140,2,0,B|216:56|256:104|256:104,1,122,0|8,0:0|0:0,0:0:0:0:
344,56,124991,5,4,0:0:0:0:
432,96,125416,1,8,0:0:0:0:
392,184,125842,2,0,B|416:240,1,61
376,328,126480,2,0,B|240:328,2,122,0|0|0,0:0|0:0|0:0,0:0:0:0:
364,232,127757,2,0,B|300:232,1,61,0|10,0:0|0:0,0:0:0:0:
352,144,128395,6,0,B|288:128|232:144,1,122,4|8,0:0|0:0,0:0:0:0:
224,240,129246,2,0,B|207:347|105:358,1,183,0|0,0:0|0:0,0:0:0:0:
56,280,130310,2,0,B|92:280|120:264,2,61,0|8|0,0:0|0:0|0:0,0:0:0:0:
68,184,131161,2,0,P|40:160|24:136,1,61,2|10,0:0|0:0,0:0:0:0:
112,96,131799,6,0,B|112:48|72:8,2,91.5,4|0|0,0:0|0:0|0:0,0:0:0:0:
160,87,132650,2,0,B|289:66,1,122,0|8,0:0|0:0,0:0:0:0:
304,160,133501,6,0,B|304:208|264:248,2,91.5
352,168,134352,2,0,B|481:189,1,122,0|8,0:0|0:0,0:0:0:0:
408,264,135204,6,0,B|424:328|480:360,2,122,4|8|0,0:0|0:0|0:0,0:0:0:0:
356,180,136480,1,8,0:0:0:0:
312,264,136906,2,0,B|312:312|272:344,2,91.5,12|12|12,0:0|0:0|0:0,0:0:0:0:
72,192,138182,5,12,0:0:0:0:
72,96,138608,1,6,0:0:0:0:
168,100,139033,2,0,B|216:84|264:100,2,91.5,10|2|0,0:0|0:0|0:0,0:0:0:0:
168,144,139884,1,8,0:0:0:0:
184,240,140310,1,2,0:0:0:0:
264,296,140736,2,0,B|312:312|360:296,2,91.5,10|2|0,0:0|0:0|0:0,0:0:0:0:
244,340,141587,1,0,0:0:0:0:
160,288,142012,6,0,B|96:256|72:192|96:128|160:96,1,244,2|0,0:0|0:0,0:0:0:0:
192,192,143289,1,8,0:0:0:0:
280,228,143714,2,0,L|280:356,1,122,2|8,0:0|0:0,0:0:0:0:
376,352,144565,2,0,L|376:230,1,122,0|8,0:0|0:0,0:0:0:0:
328,144,145416,5,6,0:0:0:0:
264,216,145842,2,0,B|272:252|256:308,2,91.5,2|2|0,0:0|0:0|0:0,0:0:0:0:
264,168,146693,1,0,0:0:0:0:
192,104,147118,1,2,0:0:0:0:
112,164,147544,2,0,B|16:164,2,91.5,10|2|0,0:0|0:0|0:0,0:0:0:0:
140,204,148395,1,8,0:0:0:0:
200,280,148821,6,0,B|264:288|320:248,1,122,4|8,0:0|0:0,0:0:0:0:
376,172,149672,2,0,B|312:180|256:140,1,122,0|8,0:0|0:0,0:0:0:0:
304,56,150523,2,0,B|360:32,2,61,4|0|8,0:0|0:0|0:0,0:0:0:0:
208,56,151374,2,0,B|152:32,2,61,8|0|8,0:0|0:0|0:0,0:0:0:0:
256,144,152225,6,0,B|256:264,2,122,6|8|0,0:0|0:0|0:0,0:0:0:0:
168,192,153501,1,8,0:0:0:0:
160,96,153927,2,0,B|184:32|256:16|328:32|352:96,1,244,2|0,0:0|0:0,0:0:0:0:
424,168,155204,1,8,0:0:0:0:
336,216,155629,6,0,B|296:344,1,122,2|8,0:0|0:0,0:0:0:0:
212,332,156480,2,0,B|176:216,1,122,0|8,0:0|0:0,0:0:0:0:
88,176,157331,1,2,0:0:0:0:
256,72,158182,2,0,P|196:112|136:124,1,122,0|8,0:0|0:0,0:0:0:0:
120,216,159033,6,0,B|240:216,1,122,6|8,0:0|0:0,0:0:0:0:
296,296,159884,2,0,B|296:352|240:352,2,91.5,2|2|2,0:0|0:0|0:0,0:0:0:0:
344,296,160736,6,0,B|344:176,1,122,2|8,0:0|0:0,0:0:0:0:
436,136,161587,1,0,0:0:0:0:
420,40,162012,1,0,0:0:0:0:
328,80,162438,6,0,B|302:73|270:81|238:89|206:81,1,122,4|8,0:0|0:0,0:0:0:0:
168,172,163289,2,0,B|199:179|231:171|263:163|289:170,1,122,0|8,0:0|0:0,0:0:0:0:
240,256,164140,6,0,B|240:312|296:312,2,91.5
240,184,165097,2,8,B|240:127|296:127,1,91.5
328,216,165842,1,4,0:0:0:0:
256,192,178608,6,0,L|320:192,2,61,8|0|8,0:0|0:0|0:0,0:0:0:0:
256,96,179459,1,4,0:0:0:0:
256,288,180310,1,0,0:0:0:0:
160,280,180736,2,0,B|120:280|88:264,2,61
240,96,182012,2,0,B|120:96,1,122,0|8,0:0|0:0,0:0:0:0:
136,192,182863,6,0,B|192:240|248:192,1,122,0|8,0:0|0:0,0:0:0:0:
344,192,183714,2,0,B|344:128,1,61,0|2,0:0|0:0,0:0:0:0:
256,96,184353,2,0,B|176:96|136:56,2,122
232,192,185629,2,0,P|192:216|176:232,1,61,2|2,0:0|0:0,0:0:0:0:
256,288,186267,6,0,P|320:288|340:240,1,122,4|8,0:0|0:0,0:0:0:0:
340,142,187118,2,0,P|320:96|256:96,1,122,0|8,0:0|0:0,0:0:0:0:
252,192,187970,6,0,P|304:236|356:240,1,122,0|8,0:0|0:0,0:0:0:0:
384,148,188821,2,0,P|378:80|344:40,1,122,0|8,0:0|0:0,0:0:0:0:
262,91,189672,6,0,B|136:92,3,122,4|8|0|8,0:0|0:0|0:0|0:0,0:0:0:0:
72,24,191374,2,0,B|43:52|43:108,2,91.5,12|12|12,0:0|0:0|0:0,0:0:0:0:
256,192,193076,1,4,0:0:0:0:
208,192,204991,6,0,B|144:192,2,61,8|0|8,0:0|0:0|0:0,0:0:0:0:
208,96,205842,2,0,B|160:56,2,61,8|0|8,0:0|0:0|0:0,0:0:0:0:
304,96,206693,6,0,P|344:144|352:212,1,122,6|8,0:0|0:0,0:0:0:0:
312,288,207544,2,0,B|256:332|200:288,1,122,0|8,0:0|0:0,0:0:0:0:
158,201,208395,2,0,P|168:144|208:96,2,122,2|8|0,0:0|0:0|0:0,0:0:0:0:
256,220,209672,1,8,0:0:0:0:
344,188,210097,6,0,B|344:68,2,122,2|8|0,0:0|0:0|0:0,0:0:0:0:
256,220,211374,1,8,0:0:0:0:
168,188,211799,2,0,B|168:68,2,122,2|8|0,0:0|0:0|0:0,0:0:0:0:
256,220,213076,1,12,0:0:0:0:
256,320,213501,6,0,P|312:288|344:232,1,122,6|8,0:0|0:0,0:0:0:0:
300,152,214353,2,0,L|300:60,2,91.5,2|2|2,0:0|0:0|0:0,0:0:0:0:
252,140,215204,1,2,0:0:0:0:
168,184,215629,1,8,0:0:0:0:
216,272,216055,2,0,B|344:272,1,122,0|8,0:0|0:0,0:0:0:0:
392,192,216906,6,0,B|392:64,1,122,4|8,0:0|0:0,0:0:0:0:
304,120,217757,2,0,B|304:240,1,122,0|8,0:0|0:0,0:0:0:0:
216,288,218608,2,0,B|216:224,2,61,8|0|8,0:0|0:0|0:0,0:0:0:0:
128,240,219459,2,0,B|128:301,2,61,8|0|8,0:0|0:0|0:0,0:0:0:0:
40,288,220310,5,6,0:0:0:0:
40,192,220736,2,0,B|72:132|132:112,1,122,8|0,0:0|0:0,0:0:0:0:
160,208,221587,1,8,0:0:0:0:
256,208,222012,2,0,B|320:208|304:168|368:168,3,122,2|8|0|8,0:0|0:0|0:0|0:0,0:0:0:0:
368,264,223714,5,2,0:0:0:0:
280,296,224140,1,8,0:0:0:0:
184,272,224565,2,0,B|144:264|136:224,2,61,0|0|8,0:0|0:0|0:0,0:0:0:0:
216,184,225416,2,0,B|192:156|192:120|212:92|256:76|300:92|320:120|320:156|296:184,1,244,2|0,0:0|0:0,0:0:0:0:
392,184,226693,1,12,0:0:0:0:
352,272,227118,5,6,0:0:0:0:
280,336,227544,2,0,B|248:352|216:352,1,61,8|0,0:0|0:0,0:0:0:0:
168,272,228182,2,0,B|136:256|104:256,1,61,0|8,0:0|0:0,0:0:0:0:
24,208,228821,1,2,0:0:0:0:
72,128,229246,2,0,B|72:72|16:48,2,91.5,10|2|0,0:0|0:0|0:0,0:0:0:0:
120,128,230097,1,8,0:0:0:0:
184,200,230523,5,4,0:0:0:0:
376,200,231374,2,0,B|376:136|336:88,2,122,0|8|12,0:0|0:0|0:0,0:0:0:0:
304,264,232650,1,8,0:0:0:0:
256,352,233076,1,8,0:0:0:0:
208,264,233501,1,8,0:0:0:0:
136,200,233927,6,0,B|136:136|176:88,1,122,6|8,0:0|0:0,0:0:0:0:
256,40,234778,1,0,0:0:0:0:
256,136,235204,1,8,0:0:0:0:
232,232,235629,2,0,B|352:232|352:120,2,183,2|0|8,0:0|0:0|0:0,0:0:0:0:
184,320,237331,5,2,0:0:0:0:
96,272,237757,2,0,B|32:272,2,61,8|0|0,0:0|0:0|0:0,0:0:0:0:
184,224,238608,2,0,B|248:224,2,61,8|0|2,0:0|0:0|0:0,0:0:0:0:
96,176,239459,2,0,B|32:176,2,61,8|0|2,0:0|0:0|0:0,0:0:0:0:
184,128,240310,1,14,0:0:0:0:
280,104,240736,6,0,B|272:152|384:152|376:104|368:56|480:56|472:104,1,244,6|0,0:0|0:0,0:0:0:0:
440,192,242012,1,8,0:0:0:0:
472,280,242438,2,0,B|480:328|368:328|376:280|384:232|272:232|280:280,1,244,2|0,0:0|0:0,0:0:0:0:
200,220,243714,1,8,0:0:0:0:
144,136,244140,5,4,0:0:0:0:
208,64,244565,1,8,0:0:0:0:
304,64,244991,1,0,0:0:0:0:
368,136,245416,1,8,0:0:0:0:
352,224,245842,6,8,B|344:296|272:304,1,122
200,240,246693,2,8,B|208:168|280:160,1,122,0|0,0:0|0:0,0:0:0:0:
352,96,247544,5,6,0:0:0:0:
160,96,248395,1,2,0:0:0:0:
160,288,249246,1,2,0:0:0:0:
352,288,250097,1,2,0:0:0:0:
184,200,250948,6,0,B|304:200,1,122,2|8,0:0|0:0,0:0:0:0:
352,288,251799,2,0,B|232:288,1,122,2|8,0:0|0:0,0:0:0:0:
136,288,252650,2,0,B|88:200|136:112,1,183
184,112,253501,1,2,0:0:0:0:
280,112,253927,1,12,0:0:0:0:
280,208,254353,6,0,P|364:220|424:296,2,183,6|0|8,0:0|0:0|0:0,0:0:0:0:
236,120,256055,2,0,P|152:132|92:208,2,183,2|0|8,0:0|0:0|0:0,0:0:0:0:
328,88,257757,5,6,0:0:0:0:
328,184,258182,2,0,B|384:160,2,61,8|0|2,0:0|0:0|0:0,0:0:0:0:
408,240,259033,2,0,B|464:264,2,61,8|0|2,0:0|0:0|0:0,0:0:0:0:
340,312,259884,2,0,L|216:312,3,122,10|0|8|4,0:0|0:0|0:0|0:0,0:0:0:0:
256,192,261374,12,2,263714,0:0:0:0:
64,96,264565,1,2,0:0:0:0:
120,176,264991,2,0,B|120:240|72:288,2,122,8|2|8,0:0|0:0|0:0,0:0:0:0:
204,224,266267,2,0,P|232:284|284:304,1,122,2|8,0:0|0:0,0:0:0:0:
378,303,267118,2,0,P|438:275|462:219,1,122,2|8,0:0|0:0,0:0:0:0:
492,136,267970,5,6,0:0:0:0:
386,43,268608,2,0,L|332:16,1,61,0|2,0:0|0:0,0:0:0:0:
256,140,269459,2,0,L|232:200,1,61,0|2,0:0|0:0,0:0:0:0:
376,236,270310,2,0,L|436:220,1,61,0|2,0:0|0:0,0:0:0:0:
328,56,271374,6,0,B|208:56,1,122,6|8,0:0|0:0,0:0:0:0:
168,144,272225,2,0,B|104:144,2,61,2|0|8,0:0|0:0|0:0,0:0:0:0:
208,232,273076,2,0,B|272:232,2,61,2|0|8,0:0|0:0|0:0,0:0:0:0:
168,320,273927,2,0,B|104:320,2,61,2|0|8,0:0|0:0|0:0,0:0:0:0:
256,40,275629,5,4,0:0:0:0:
